论坛风格切换切换到宽版
  • 236阅读
  • 3回复

[音乐]【自购首版】1992 ZARD坂井泉水原创专辑HOLD ME - WAV整轨 ♬by诗然 [复制链接]

上一主题 下一主题
 

发帖
2802
金钱
30621
威望
622
贡献值
40
交易币
467
只看楼主 倒序阅读 楼主  发表于: 10-01

于1992年发行的原创专辑《HOLD ME》销量超过百万

9月2日,发行专辑《HOLD ME》,首周凭借8.6万的销量获得亚军之位,成为ZARD初次进入公信榜前三的作品

注:独家整理,转载请注明出处!EAC无损整轨(压缩包内含CD图片)

Zard

[1967.2.6-2007.5.27]

很多中国歌迷都是从动漫歌曲里认识ZARD的,她所演唱的灌篮高手ED 04「MY FRIEND」(我的朋友)和名侦探柯南OP 04「运命のルーレット廻して」(转动命运之轮)早已广为人知。其实,ZARD并不是专门演唱动漫歌曲的歌手,相反,ZARD是日本第一的女性乐队,但由于ZARD也仅仅是坂井泉水而已,所以坂井泉水在统计中也被列为日本第一女性艺人。与她的名气相反,Izumi本人“深居简出”,几乎从不在电视或杂志中露面,一生只参加过7次与电视\公开场合有关的活动,其余时间保持高度低调,就连 FANS CLUB也是才成立,所以人们很少能了解到她的情况,甚至她的年龄。充满神秘色彩成为她独特的宣传手法。有一次她在便利店附近的录音棚录制她的新专辑,一时肚子饿,就和工作人员上街吃宵夜,正巧当时店里正在播她的歌,最可笑的是竟没有人认出这位穿着T恤牛仔、没有化妆的女孩。尽管如此,每当她推出唱片的时候,必然会引起轰动,从第六张Single开始均打入了ORICON的十大,这一点在女歌手中无人能及。她在用自己的歌和出色的成绩说明了一切。ZARD(发音[ZA-DO])其实算是一个歌手的艺名(名字来源有多种说法,其中一种是取自于英文单词Wizard),而不是通常认为的Band。她叫Izumi Sakai——坂井泉水。

她是日本史上第七位销量的歌手(截至2008年11月付-4030.3万枚) 拥有TOP10单曲并列第三歌手(43作)

她是90年代日本销量最高的女歌手,是影响日本一个时代的歌手。

解压密码:诗然mjsunny

曲目列表:

1. 眠れない夜を抱いて

2. 誰かが待ってる

3. サヨナラ言えなくて

4. あの微笑みを忘れないで

5. 好きなように踊りたいの

6. Dangerous Tonight

7. こんなに愛しても

8. Why Don't You Leave Me Alone

9. 愛は眠ってる

10. 遠い日のNostalgia

11. So Together

Exact Audio Copy V1.0 beta 3 from 29. August 2011

EAC 抓取日志文件从16. 一月 2009, 0:09

ZARD / HOLD ME

使用驱动器  :HL-DT-STDVD+-RW GA10N   Adapter: 0  ID: 1

读取模式 : 暴发

读取偏移校正:               : 0

读取 Lead-In 和 Lead-Out : 否

用静音填充抓取中丢失偏移的采样       : 是

去除首尾静音块               : 否

在CRC 计算中使用了空样本       : 是

已用接口                  : Win NT 及 2000 本地 Win32 接口

间隙处理                  : 没检测到,因此追加到上一曲目

所用输出模式: : 内部 WAV 函数

样本格式    : 44.100 Hz; 16 Bit; 立体声

已抓取 CD 的 TOC

     音轨 |    起始    |    长度    |  起始扇区  |  结束扇区  

    --------------------------------------------

      1 |  0:00.00 |  4:27.45 |      0 |  20069

      2 |  4:27.45 |  3:55.17 |  20070 |  37711

      3 |  8:22.62 |  4:02.10 |  37712 |  55871

      4 | 12:24.72 |  4:25.45 |  55872 |  75791

      5 | 16:50.42 |  4:22.73 |  75792 |  95514

      6 | 21:13.40 |  4:13.10 |  95515 | 114499

      7 | 25:26.50 |  4:59.52 | 114500 | 136976

      8 | 30:26.27 |  3:23.33 | 136977 | 152234

      9 | 33:49.60 |  3:39.10 | 152235 | 168669

     10 | 37:28.70 |  5:48.45 | 168670 | 194814

     11 | 43:17.40 |  5:01.47 | 194815 | 217436

音轨  1

     文件名 C:\Documents and Settings\Administrator\桌面\01 音轨01.wav

     峰值电平 89.5 %

     抓取速度 9.5 X

     复制 CRC 56A98D3D

     复制成功

音轨  2

     文件名 C:\Documents and Settings\Administrator\桌面\02 音轨02.wav

     峰值电平 98.4 %

     抓取速度 12.6 X

     复制 CRC 5C68D538

     复制成功

音轨  3

     文件名 C:\Documents and Settings\Administrator\桌面\03 音轨03.wav

     峰值电平 96.9 %

     抓取速度 13.7 X

     复制 CRC A7EB0263

     复制成功

音轨  4

     文件名 C:\Documents and Settings\Administrator\桌面\04 音轨04.wav

     峰值电平 99.0 %

     抓取速度 14.8 X

     复制 CRC 984487ED

     复制成功

音轨  5

     文件名 C:\Documents and Settings\Administrator\桌面\05 音轨05.wav

     峰值电平 100.0 %

     抓取速度 15.9 X

     复制 CRC 44DAED8F

     复制成功

音轨  6

     文件名 C:\Documents and Settings\Administrator\桌面\06 音轨06.wav

     峰值电平 100.0 %

     抓取速度 16.9 X

     复制 CRC 2C06B723

     复制成功

音轨  7

     文件名 C:\Documents and Settings\Administrator\桌面\07 音轨07.wav

     峰值电平 95.2 %

     抓取速度 17.9 X

     复制 CRC 661CA5A3

     复制成功

音轨  8

     文件名 C:\Documents and Settings\Administrator\桌面\08 音轨08.wav

     峰值电平 97.3 %

     抓取速度 18.8 X

     复制 CRC EB384168

     复制成功

音轨  9

     文件名 C:\Documents and Settings\Administrator\桌面\09 音轨09.wav

     峰值电平 100.0 %

     抓取速度 19.5 X

     复制 CRC EB56F19B

     复制成功

音轨 10

     文件名 C:\Documents and Settings\Administrator\桌面\10 音轨10.wav

     峰值电平 100.0 %

     抓取速度 20.4 X

     复制 CRC 8F8C8A4F

     复制成功

音轨 11

     文件名 C:\Documents and Settings\Administrator\桌面\11 音轨11.wav

     峰值电平 96.6 %

     抓取速度 21.4 X

     复制 CRC 93C0E2A2

     复制成功

没有错误发生

状态报告结尾

------------------------------------------------------------

Exact Audio Copy V1.0 beta 3 from 29. August 2011

EAC 抓取日志文件从16. 一月 2009, 0:13

ZARD / HOLD ME

使用驱动器  :HL-DT-STDVD+-RW GA10N   Adapter: 0  ID: 1

读取模式 : 暴发

读取偏移校正:               : 0

读取 Lead-In 和 Lead-Out : 否

用静音填充抓取中丢失偏移的采样       : 是

去除首尾静音块               : 否

在CRC 计算中使用了空样本       : 是

已用接口                  : Win NT 及 2000 本地 Win32 接口

所用输出模式: : 内部 WAV 函数

样本格式    : 44.100 Hz; 16 Bit; 立体声

已抓取 CD 的 TOC

     音轨 |    起始    |    长度    |  起始扇区  |  结束扇区  

    --------------------------------------------

      1 |  0:00.00 |  4:27.45 |      0 |  20069

      2 |  4:27.45 |  3:55.17 |  20070 |  37711

      3 |  8:22.62 |  4:02.10 |  37712 |  55871

      4 | 12:24.72 |  4:25.45 |  55872 |  75791

      5 | 16:50.42 |  4:22.73 |  75792 |  95514

      6 | 21:13.40 |  4:13.10 |  95515 | 114499

      7 | 25:26.50 |  4:59.52 | 114500 | 136976

      8 | 30:26.27 |  3:23.33 | 136977 | 152234

      9 | 33:49.60 |  3:39.10 | 152235 | 168669

     10 | 37:28.70 |  5:48.45 | 168670 | 194814

     11 | 43:17.40 |  5:01.47 | 194815 | 217436

范围状态及错误

已选择范围

     文件名 C:\Documents and Settings\Administrator\桌面\ZARD - HOLD ME.wav

     计时问题 0:02:37

     峰值电平 100.0 %

     抓取速度 15.9 X

     复制 CRC 01F44DC4

     复制结束

没有错误发生

状态报告结尾

此帖售价 10 金钱,已有 2 人购买 [记录] [购买]
购买后,将显示帖子中所有出售内容。
若发现会员采用欺骗的方法获取财富,请立刻举报,我们会对会员处以2-N倍的罚金,严重者封掉ID!
此段为出售的内容,购买后显示


离线耶稣

发帖
7280
金钱
288041
威望
2624
贡献值
1719
交易币
11535
只看该作者 1楼 发表于: 10-01
我喜欢 thankssssss ImQ -kz?b  



离线jailim9300

发帖
302
金钱
11
威望
15
贡献值
12
交易币
351
只看该作者 2楼 发表于: 10-01
看看,谢谢了
离线耶稣

发帖
7280
金钱
288041
威望
2624
贡献值
1719
交易币
11535
只看该作者 3楼 发表于: 10-02
九块九包邮



快速回复
限100 字节
 
上一个 下一个