论坛风格切换切换到宽版
  • 7292阅读
  • 51回复

This Is It DVDRip 转制DVD刻录版放出(09-12-23) [复制链接]

上一主题 下一主题
离线131
 

发帖
1237
金钱
9291
威望
430
贡献值
239
交易币
868
只看楼主 倒序阅读 楼主  发表于: 2009-12-23
— 本帖被 mbwisme 执行加亮操作(2009-12-23) —
首先声明是fans自己基于DVDrip制作,不是官方,喜欢用DVD播放机看得可以下载尝鲜,画质和音质和DVDrip基本一样,家里有家庭影院的可以爽了。 C <d]0)  
1Q7]1fRu  
下载地址 国内网盘 3.14GB O jH"qi  
3b/J  
本部分内容设定了隐藏,需要回复后才能看到
x$z>.4  
QTU$mC]  
8Rnq &8A  
先放出截图 tdNAR|  
"sed{?  
.]/k#Hv  
oP:/%  
O`.IE? h#  
p%5(Qqmlk  
截图不清楚 看看数据吧  大家做个明白人 只是第一部分 fAD {sg  
C{YTHN n  
Cp#}x1{  
I:\VIDEO_TS\VTS_01_1.VOB {QT:1U \.  
   General D#11 N^-K  
      Complete name : I:\VIDEO_TS\VTS_01_1.VOB }1YQ?:@  
      Format : MPEG-PS <X]dR 6FT  
      File size : 1 024 MiB CoM?cS S  
      Duration : 37mn 25s (&qjY I  
      Overall bit rate : 3 826 Kbps b IZi3GmRF  
   Video #224 0zXF{5Up  
      ID : 224 (0xE0) <*DP G\6Ma  
      Format : MPEG Video x$24Nc1a'  
      Format version : Version 2 q%MLj./?[  
      Format profile : Main@Main axdRV1+s  
      Format settings, Matrix : Default "$|ne[b2  
      Duration : 37mn 25s Bc51 0I$c  
      Bit rate mode : Variable 3+iQct[  
      Bit rate : 3 226 Kbps oOHr~<  
      Nominal bit rate : 9 360 Kbps 3Uni{Z]Q)  
      Width : 720 pixels $Z4IPs  
      Height : 576 pixels
I07_o"3>qr  
      Display aspect ratio : 16:9 ;>B06v  
      Frame rate : 24.000 fps 73kL>u  
      Standard : PAL doV+u(J~  
      Colorimetry : 4:2:0 *p7_rY  
      Scan type : Progressive -XARew  
      Scan order : 2:2:2:2:2:2:2:2:2:2:2:3 Pulldown :]^FTnO  
      Bits/(Pixel*Frame) : 0.324 z+6%Ya&ls  
      Stream size : 863 MiB (84%) hZNA I  
   Audio #128 :pPn)j$  
      ID : 128 (0x80) I 6Mr[#*  
      Format : AC-3 7H5t!yk|9  
      Format/Info : Audio Coding 3 w00Ba^W  
      Duration : 37mn 25s MJ0UZxnl  
      Bit rate mode : Constant u#`FkuE\}  
      Bit rate : 448 Kbps ;IX*4E'4s  
      Channel(s) : 6 channels "/}cV5=Z  
      Channel positions : Front: L C R, Surround: L R, LFE +F3`?6UXz  
      Sampling rate : 48.0 KHz t?:Q  
      Stream size : 120 MiB (12%)
[ 此帖被131在2009-12-24 18:46重新编辑 ]
离线无神论者

发帖
28288
金钱
676982
威望
19309
贡献值
4651
交易币
7231
只看该作者 1楼 发表于: 2009-12-23
期待更好版本出现
我的微信号mjxiemeng

离线131

发帖
1237
金钱
9291
威望
430
贡献值
239
交易币
868
只看该作者 2楼 发表于: 2009-12-23
已经订了 明年的高清和DVD  到时候我在制作吧 呵呵 发一个DVD直接刻盘的文件 弥补一下
离线swsswy

发帖
5970
金钱
22157
威望
2173
贡献值
1231
交易币
7784
只看该作者 3楼 发表于: 2009-12-23
前排就坐   

杯具7k黨——
網速7k以下均可加入,可隨時交流慘痛的下載經驗
不管是下載下到昏頭,還是上傳上到頭大
歡迎悲慘的MJ資源收藏迷~~~
离线christinacc

发帖
12468
金钱
48722
威望
4068
贡献值
2411
交易币
19683
只看该作者 4楼 发表于: 2009-12-23
后排紧跟   
离线lifan_npl

发帖
2282
金钱
31025
威望
853
贡献值
430
交易币
2663
只看该作者 5楼 发表于: 2009-12-23
害了好多迈迷几个通宵没关电脑了  浪费国家好多电哦  只要弥补一下  哈哈哈哈哈   
我的淘宝店:
http://shop63152617.taobao.com  
离线131

发帖
1237
金钱
9291
威望
430
贡献值
239
交易币
868
只看该作者 6楼 发表于: 2009-12-23
哈哈  我以后会补上的  已经订了正版 到时候一定做种给大家  稍等上传完就可以共享了 先放出截图
离线zhangqun

发帖
1405
金钱
11953
威望
571
贡献值
151
交易币
1258
只看该作者 7楼 发表于: 2009-12-23
是国外网友用盗版TII制作的杜比5.1DVD?
离线erika96471
发帖
1369
金钱
9625
威望
653
贡献值
415
交易币
1643
只看该作者 8楼 发表于: 2009-12-23
能傳到MU嗎  
杯具7k黨——
網速7k以下均可加入,可隨時交流慘痛的下載經驗
不管是下載下到昏頭,還是上傳上到頭大
歡迎悲慘的MJ資源收藏迷~~~

离线131

发帖
1237
金钱
9291
威望
430
贡献值
239
交易币
868
只看该作者 9楼 发表于: 2009-12-23
米人  国内网通上传 估计会快一些吧 呵呵
快速回复
限100 字节
 
上一个 下一个