论坛风格切换切换到宽版
  • 4597阅读
  • 38回复

1996.HIStory演唱会.Brunei.480p.x264.25fps-MSZ压制[933MB]【百度盘】 [复制链接]

上一主题 下一主题
离线mjghosts
 

发帖
8256
金钱
219439
威望
9187
贡献值
2734
交易币
4791
只看楼主 倒序阅读 楼主  发表于: 2013-06-11
已更新版本2,请前往: !c+Nf2I7S  
http://www.mjsunny.com/read.php?tid=63199 0Jh^((i*  
9U_uw Rv2  
下载链接请直转! K 9ytot  
感谢片源提供:MJFANSZONE [4NJ]r M%  
K85;7R5  
与之前发布所采用的片源一样: 8IYn9<L  
http://www.mjsunny.com/read.php?tid=58950 %T hY6y(  
E880X<V)>  
本次更新版本的优势: Wj"\nT4  
- 文件体积与首发的1.14GB缩小到933MB,更适合压制版收藏。 /DG+8u  
- 音频方面采用较高品质的OGG压制。 9 )1 8  
- 调整了音画同步问题。
6>rgoT)6~  
B{UL(6\B  
uD=i-IHT  
"~R,%sYb(  
Unique ID                                : 179811627234256734304467570654732268568 (0x874675B077ED28B257C6D2996436B418) Zl5cHejM  
Complete name                            : C:\2013.06.25\[MJSHOWZONE]1996.HIStory演唱会.Brunei.480p.x264.25fps.mkv O)y|G%O  
Format                                   : Matroska .+|HJ(  
Format version                           : Version 2 .TcsXYL.`,  
File size                                : 934 MiB 3/rEXKS  
Duration                                 : 1h 55mn ; B4x>  
Overall bit rate mode                    : Variable C-i9F%..  
Overall bit rate                         : 1 132 Kbps ,$i2vGd  
Writing application                      : Kirara Encoder x=1Iuc;&3  
Writing library                          : Kirara Encoder
Video ETt7?,x@  
ID                                       : 1 en6Kdqe  
Format                                   : AVC LA!2!60R  
Format/Info                              : Advanced Video Codec > -P UY  
Format profile                           : High@L4.1 L5(7;  
Format settings, CABAC                   : Yes v:2*<;  
Format settings, ReFrames                : 4 frames s"hSn_m  
Codec ID                                 : V_MPEG4/ISO/AVC 'o D31\@I  
Duration                                 : 1h 55mn iME )Jl&  
Bit rate                                 : 1 013 Kbps RKIBFP8.  
Width                                    : 640 pixels DdU T"%  
Height                                   : 480 pixels 9%+Nzo(Fd  
Display aspect ratio                     : 4:3 (R'GrN>  
Frame rate mode                          : Constant UweXz.x7  
Frame rate                               : 25.000 fps ;rp("<g:>  
Color space                              : YUV {RG4m{#9  
Chroma subsampling                       : 4:2:0 ElFiR ;   
Bit depth                                : 8 bits ,, 8hU7P  
Scan type                                : Progressive 1/JtL>SKE  
Bits/(Pixel*Frame)                       : 0.132 D8OW|wVE  
Stream size                              : 836 MiB (90%) ^bD)Tg5K  
Writing library                          : x264 core 120 ILN Yh3  
Encoding settings                        : cabac=1 / ref=4 / deblock=1:0:0 / analyse=0x3:0x113 / me=hex / subme=7 / psy=1 / psy_rd=1.00:0.00 / mixed_ref=1 / me_range=16 / chroma_me=1 / trellis=0 / 8x8dct=1 / cqm=0 / deadzone=21,11 / fast_pskip=1 / chroma_qp_offset=-2 / threads=3 / sliced_threads=0 / nr=0 / decimate=1 / interlaced=0 / bluray_compat=0 / constrained_intra=0 / bframes=0 / weightp=2 / keyint=250 / keyint_min=25 / scenecut=40 / intra_refresh=0 / rc_lookahead=40 / rc=crf / mbtree=1 / crf=21.5 / qcomp=0.60 / qpmin=0 / qpmax=69 / qpstep=4 / ip_ratio=1.40 / aq=1:1.00 3^jkd)xw  
Default                                  : Yes =,MX%-2  
Forced                                   : No
Audio J!\Cs1 !f  
ID                                       : 2 U"qR6  
Format                                   : Vorbis ES4[@RX  
Format settings, Floor                   : 1 bjL8Wpk  
Codec ID                                 : A_VORBIS _?}[7K!~d  
Duration                                 : 1h 55mn No\3kRB4bi  
Bit rate mode                            : Variable G5oBe6\C  
Bit rate                                 : 96.0 Kbps _c z$w5`  
Channel(s)                               : 2 channels JEL.*[/  
Sampling rate                            : 48.0 KHz 7hzd.  
Compression mode                         : Lossy e{Y8m Xu  
Stream size                              : 79.2 MiB (8%) FjU -t/  
Writing library                          : libVorbis (Schaufenugget) (20101101 (Schaufenugget)) LykB2]T  
Default                                  : Yes srGF=1_  
Forced                                   : No +Oafo|%  
Writing application                      : Lavc53.42.0
{<P{uH\l  
mS9ITe M  
此帖售价 1 金钱,已有 34 人购买 [记录] [购买]
购买后,将显示帖子中所有出售内容。
若发现会员采用欺骗的方法获取财富,请立刻举报,我们会对会员处以2-N倍的罚金,严重者封掉ID!
此段为出售的内容,购买后显示
4条评分金钱+20威望+4
happylee 威望 +2 强烈支持自压, 这个一定收了! 2013-06-11
happylee 金钱 +10 强烈支持自压, 这个一定收了! 2013-06-11
reystytijyte 威望 +2 哎呦~我顶我顶顶我顶顶顶! 2013-06-11
reystytijyte 金钱 +10 哎呦~我顶我顶顶我顶顶顶! 2013-06-11
离线MJ之王

发帖
3558
金钱
195005
威望
3953
贡献值
1598
交易币
3248
只看该作者 1楼 发表于: 2013-06-11
哎呦~我顶我顶顶我顶顶顶!
离线薄荷

发帖
1448
金钱
3919
威望
276
贡献值
161
交易币
2041
只看该作者 3楼 发表于: 2013-06-11
很少看这场演唱会  赶紧下载  
离线jdh

发帖
5015
金钱
39552
威望
1117
贡献值
473
交易币
6264
只看该作者 4楼 发表于: 2013-06-12
感谢楼主分享。收藏了。
离线餠仠あ

发帖
94
金钱
313
威望
2
贡献值
1
交易币
99
只看该作者 5楼 发表于: 2013-06-12
支持自压!收了~~谢谢楼主啦

发帖
2894
金钱
59589
威望
727
贡献值
479
交易币
3807
只看该作者 6楼 发表于: 2013-06-12
好东西谢谢

发帖
706
金钱
3072
威望
203
贡献值
51
交易币
771
只看该作者 7楼 发表于: 2013-06-25
收下了!!

发帖
1641
金钱
242
威望
320
贡献值
153
交易币
1869
只看该作者 8楼 发表于: 2013-07-01
这么好的东西才1块?楼主真大方!!
离线流行王冠

发帖
672
金钱
660
威望
-9
贡献值
16
交易币
737
只看该作者 9楼 发表于: 2013-07-01
画质不清晰啊,求助楼主压制优化版
快速回复
限100 字节
 
上一个 下一个