论坛风格切换切换到宽版
  • 4231阅读
  • 38回复

1996.HIStory演唱会.Brunei.480p.x264.25fps-MSZ压制[933MB]【百度盘】 [复制链接]

上一主题 下一主题
离线mjghosts
 

发帖
8248
金钱
217799
威望
9174
贡献值
2723
交易币
4759
只看楼主 倒序阅读 楼主  发表于: 2013-06-11
已更新版本2,请前往: l-rnDl  
http://www.mjsunny.com/read.php?tid=63199 -=w.tJD  
( 9l|^w["  
下载链接请直转! C#R9Hlb  
感谢片源提供:MJFANSZONE \q>,c49a{  
x@=7M'vr%  
与之前发布所采用的片源一样: Tp7?:YY|  
http://www.mjsunny.com/read.php?tid=58950 NO1PGen  
C0M{zGT>}  
本次更新版本的优势: xjYFTb}!  
- 文件体积与首发的1.14GB缩小到933MB,更适合压制版收藏。 ;b^@o,=  
- 音频方面采用较高品质的OGG压制。 Syk^7l  
- 调整了音画同步问题。
>Vvc55z  
3]i1M%'i  
"'Q:%_;  
So:89T  
Unique ID                                : 179811627234256734304467570654732268568 (0x874675B077ED28B257C6D2996436B418) ]:;gk&P  
Complete name                            : C:\2013.06.25\[MJSHOWZONE]1996.HIStory演唱会.Brunei.480p.x264.25fps.mkv \0$?r4A  
Format                                   : Matroska |Bid(`t.  
Format version                           : Version 2 aF:I]]TfK~  
File size                                : 934 MiB Buo1o&&  
Duration                                 : 1h 55mn &zZSWNW  
Overall bit rate mode                    : Variable u1uY*p  
Overall bit rate                         : 1 132 Kbps U5klVl  
Writing application                      : Kirara Encoder U+K_eEI0_I  
Writing library                          : Kirara Encoder
Video u*M*Wp Y  
ID                                       : 1 ~"-wSAm  
Format                                   : AVC I=1tf;Bsi  
Format/Info                              : Advanced Video Codec e0D;]  
Format profile                           : High@L4.1 6)TFb,  
Format settings, CABAC                   : Yes a`T{ 5*@  
Format settings, ReFrames                : 4 frames w,\Ua&>4  
Codec ID                                 : V_MPEG4/ISO/AVC x>t:&Y M  
Duration                                 : 1h 55mn MP T[f  
Bit rate                                 : 1 013 Kbps [P[syi#]t  
Width                                    : 640 pixels [p]Ayo$~  
Height                                   : 480 pixels "xh]>_;&'  
Display aspect ratio                     : 4:3 BqR8%F  
Frame rate mode                          : Constant 2lGq6Au:  
Frame rate                               : 25.000 fps PPohpdd)  
Color space                              : YUV Jk`A}  
Chroma subsampling                       : 4:2:0 4Jw0m#UN1  
Bit depth                                : 8 bits =6? 3c\  
Scan type                                : Progressive dLv\H&  
Bits/(Pixel*Frame)                       : 0.132 [u~#F,_ow  
Stream size                              : 836 MiB (90%) |vzGFfRI  
Writing library                          : x264 core 120 Pj+XKDV]T  
Encoding settings                        : cabac=1 / ref=4 / deblock=1:0:0 / analyse=0x3:0x113 / me=hex / subme=7 / psy=1 / psy_rd=1.00:0.00 / mixed_ref=1 / me_range=16 / chroma_me=1 / trellis=0 / 8x8dct=1 / cqm=0 / deadzone=21,11 / fast_pskip=1 / chroma_qp_offset=-2 / threads=3 / sliced_threads=0 / nr=0 / decimate=1 / interlaced=0 / bluray_compat=0 / constrained_intra=0 / bframes=0 / weightp=2 / keyint=250 / keyint_min=25 / scenecut=40 / intra_refresh=0 / rc_lookahead=40 / rc=crf / mbtree=1 / crf=21.5 / qcomp=0.60 / qpmin=0 / qpmax=69 / qpstep=4 / ip_ratio=1.40 / aq=1:1.00 S9mj/GpL3  
Default                                  : Yes Xmtq~}K>  
Forced                                   : No
Audio #A?U_32z/2  
ID                                       : 2 K^9!Qp  
Format                                   : Vorbis VN*^pAzlF  
Format settings, Floor                   : 1 !k&<  
Codec ID                                 : A_VORBIS l^&#fz  
Duration                                 : 1h 55mn #VD[\#  
Bit rate mode                            : Variable 8W#whK2El  
Bit rate                                 : 96.0 Kbps {V8 v  
Channel(s)                               : 2 channels 7IjFSN>  
Sampling rate                            : 48.0 KHz "]`!#5j^WP  
Compression mode                         : Lossy :tNH Cx  
Stream size                              : 79.2 MiB (8%) WG< D+P  
Writing library                          : libVorbis (Schaufenugget) (20101101 (Schaufenugget)) HJM-;C](  
Default                                  : Yes p ^T0(\1  
Forced                                   : No r=<,`_@Y  
Writing application                      : Lavc53.42.0
$5|/X&"O)/  
|no '^  
此帖售价 1 金钱,已有 34 人购买 [记录] [购买]
购买后,将显示帖子中所有出售内容。
若发现会员采用欺骗的方法获取财富,请立刻举报,我们会对会员处以2-N倍的罚金,严重者封掉ID!
此段为出售的内容,购买后显示
4条评分金钱+20威望+4
happylee 威望 +2 强烈支持自压, 这个一定收了! 2013-06-11
happylee 金钱 +10 强烈支持自压, 这个一定收了! 2013-06-11
reystytijyte 威望 +2 哎呦~我顶我顶顶我顶顶顶! 2013-06-11
reystytijyte 金钱 +10 哎呦~我顶我顶顶我顶顶顶! 2013-06-11
离线MJ之王

发帖
3558
金钱
194673
威望
3953
贡献值
1598
交易币
3248
只看该作者 1楼 发表于: 2013-06-11
哎呦~我顶我顶顶我顶顶顶!
离线HappyLee

发帖
2692
金钱
102835
威望
2565
贡献值
1188
交易币
3806
只看该作者 2楼 发表于: 2013-06-11
强烈支持自压, 这个一定收了!
离线薄荷

发帖
1448
金钱
3919
威望
276
贡献值
161
交易币
2041
只看该作者 3楼 发表于: 2013-06-11
很少看这场演唱会  赶紧下载  
离线jdh

发帖
5006
金钱
38912
威望
1116
贡献值
473
交易币
6255
只看该作者 4楼 发表于: 2013-06-12
感谢楼主分享。收藏了。
离线餠仠あ

发帖
94
金钱
313
威望
2
贡献值
1
交易币
99
只看该作者 5楼 发表于: 2013-06-12
支持自压!收了~~谢谢楼主啦

发帖
2894
金钱
59573
威望
727
贡献值
479
交易币
3807
只看该作者 6楼 发表于: 2013-06-12
好东西谢谢

发帖
706
金钱
3072
威望
203
贡献值
51
交易币
771
只看该作者 7楼 发表于: 2013-06-25
收下了!!

发帖
1630
金钱
150
威望
320
贡献值
153
交易币
1858
只看该作者 8楼 发表于: 2013-07-01
这么好的东西才1块?楼主真大方!!
离线流行王冠

发帖
672
金钱
660
威望
-9
贡献值
16
交易币
737
只看该作者 9楼 发表于: 2013-07-01
画质不清晰啊,求助楼主压制优化版
快速回复
限100 字节
 
上一个 下一个