论坛风格切换切换到宽版
  • 4898阅读
  • 38回复

1996.HIStory演唱会.Brunei.480p.x264.25fps-MSZ压制[933MB]【百度盘】 [复制链接]

上一主题 下一主题
离线mjghosts
 

发帖
8261
金钱
219535
威望
9187
贡献值
2734
交易币
4796
只看楼主 倒序阅读 楼主  发表于: 2013-06-11
已更新版本2,请前往: TC-f%1(  
http://www.mjsunny.com/read.php?tid=63199 KC Xwn  
NyJnOw(  
下载链接请直转! >rwYDT#m]  
感谢片源提供:MJFANSZONE 4]UT+'RubX  
[:i sZG*  
与之前发布所采用的片源一样: v+tO$QZ`  
http://www.mjsunny.com/read.php?tid=58950 -Uf4v6A  
P $h;SK  
本次更新版本的优势: e<'U8|}hc{  
- 文件体积与首发的1.14GB缩小到933MB,更适合压制版收藏。 h Z#\t  
- 音频方面采用较高品质的OGG压制。 %)IrXz>Zh  
- 调整了音画同步问题。
^"`Z1)V  
b@-)Fy4d2  
a97Csxf;7  
{gIEZ{  
Unique ID                                : 179811627234256734304467570654732268568 (0x874675B077ED28B257C6D2996436B418) xL&PJ /'  
Complete name                            : C:\2013.06.25\[MJSHOWZONE]1996.HIStory演唱会.Brunei.480p.x264.25fps.mkv L`[F~$|  
Format                                   : Matroska ")\ *2d  
Format version                           : Version 2 nB}e1 /_y  
File size                                : 934 MiB I:/4t^%  
Duration                                 : 1h 55mn _&mc8ftT  
Overall bit rate mode                    : Variable #,Bj!'Q'-  
Overall bit rate                         : 1 132 Kbps lDU#7\5.  
Writing application                      : Kirara Encoder >;.*  
Writing library                          : Kirara Encoder
Video A xR\ ned  
ID                                       : 1 eb7UoZw  
Format                                   : AVC [R$liN99z;  
Format/Info                              : Advanced Video Codec ;l#?SYY  
Format profile                           : High@L4.1 5z[6rT=a  
Format settings, CABAC                   : Yes tpz=} q  
Format settings, ReFrames                : 4 frames Z0z)  
Codec ID                                 : V_MPEG4/ISO/AVC Vg) ^|  
Duration                                 : 1h 55mn :!hk~#yvJ9  
Bit rate                                 : 1 013 Kbps 95% :AQLV  
Width                                    : 640 pixels ;q^,[(8  
Height                                   : 480 pixels OT"lP(,  
Display aspect ratio                     : 4:3 `C ?a  
Frame rate mode                          : Constant ?/^VOj4&  
Frame rate                               : 25.000 fps L7[X|zmy*x  
Color space                              : YUV {bxhH)a'  
Chroma subsampling                       : 4:2:0 bv_AJ4gS  
Bit depth                                : 8 bits uJ7,rq  
Scan type                                : Progressive *Y^5M"AB_  
Bits/(Pixel*Frame)                       : 0.132 a#>t+.dd  
Stream size                              : 836 MiB (90%) R2'C s  
Writing library                          : x264 core 120 8HB?=a2Q<'  
Encoding settings                        : cabac=1 / ref=4 / deblock=1:0:0 / analyse=0x3:0x113 / me=hex / subme=7 / psy=1 / psy_rd=1.00:0.00 / mixed_ref=1 / me_range=16 / chroma_me=1 / trellis=0 / 8x8dct=1 / cqm=0 / deadzone=21,11 / fast_pskip=1 / chroma_qp_offset=-2 / threads=3 / sliced_threads=0 / nr=0 / decimate=1 / interlaced=0 / bluray_compat=0 / constrained_intra=0 / bframes=0 / weightp=2 / keyint=250 / keyint_min=25 / scenecut=40 / intra_refresh=0 / rc_lookahead=40 / rc=crf / mbtree=1 / crf=21.5 / qcomp=0.60 / qpmin=0 / qpmax=69 / qpstep=4 / ip_ratio=1.40 / aq=1:1.00 #`2GAM];7  
Default                                  : Yes eDvXU_yA  
Forced                                   : No
Audio Ebmqq#SHjX  
ID                                       : 2 oo"JMD)  
Format                                   : Vorbis 'Sm/t/g"|  
Format settings, Floor                   : 1 k0Oc,P`'*  
Codec ID                                 : A_VORBIS :z}~U3,JE  
Duration                                 : 1h 55mn % DHP  
Bit rate mode                            : Variable +X4ttv  
Bit rate                                 : 96.0 Kbps aa'0EU:  
Channel(s)                               : 2 channels p2M?pV  
Sampling rate                            : 48.0 KHz j.e`ip  
Compression mode                         : Lossy w96j,rEC  
Stream size                              : 79.2 MiB (8%) 4B%5-VQ  
Writing library                          : libVorbis (Schaufenugget) (20101101 (Schaufenugget)) 8O}A/*1FJ  
Default                                  : Yes -6*OF.Ag`  
Forced                                   : No ! S$oaCxM  
Writing application                      : Lavc53.42.0
}(hYG"5  
cC(ubUR  
此帖售价 1 金钱,已有 34 人购买 [记录] [购买]
购买后,将显示帖子中所有出售内容。
若发现会员采用欺骗的方法获取财富,请立刻举报,我们会对会员处以2-N倍的罚金,严重者封掉ID!
此段为出售的内容,购买后显示
4条评分金钱+20威望+4
happylee 威望 +2 强烈支持自压, 这个一定收了! 2013-06-11
happylee 金钱 +10 强烈支持自压, 这个一定收了! 2013-06-11
reystytijyte 威望 +2 哎呦~我顶我顶顶我顶顶顶! 2013-06-11
reystytijyte 金钱 +10 哎呦~我顶我顶顶我顶顶顶! 2013-06-11
离线MJ之王

发帖
3558
金钱
195005
威望
3953
贡献值
1598
交易币
3248
只看该作者 1楼 发表于: 2013-06-11
哎呦~我顶我顶顶我顶顶顶!
离线薄荷

发帖
1449
金钱
3897
威望
277
贡献值
162
交易币
2046
只看该作者 3楼 发表于: 2013-06-11
很少看这场演唱会  赶紧下载  
离线jdh

发帖
5016
金钱
40017
威望
1117
贡献值
473
交易币
6265
只看该作者 4楼 发表于: 2013-06-12
感谢楼主分享。收藏了。
离线餠仠あ

发帖
94
金钱
313
威望
2
贡献值
1
交易币
99
只看该作者 5楼 发表于: 2013-06-12
支持自压!收了~~谢谢楼主啦

发帖
2894
金钱
59605
威望
727
贡献值
479
交易币
3807
只看该作者 6楼 发表于: 2013-06-12
好东西谢谢

发帖
706
金钱
3072
威望
203
贡献值
51
交易币
771
只看该作者 7楼 发表于: 2013-06-25
收下了!!

发帖
1641
金钱
347
威望
320
贡献值
153
交易币
1869
只看该作者 8楼 发表于: 2013-07-01
这么好的东西才1块?楼主真大方!!
离线流行王冠

发帖
672
金钱
660
威望
-9
贡献值
16
交易币
737
只看该作者 9楼 发表于: 2013-07-01
画质不清晰啊,求助楼主压制优化版
快速回复
限100 字节
 
上一个 下一个