论坛风格切换切换到宽版
  • 5546阅读
  • 38回复

1996.HIStory演唱会.Brunei.480p.x264.25fps-MSZ压制[933MB]【百度盘】 [复制链接]

上一主题 下一主题
离线mjghosts
 

发帖
8279
金钱
220440
威望
9195
贡献值
2742
交易币
4818
只看楼主 倒序阅读 楼主  发表于: 2013-06-11
已更新版本2,请前往: ((Uw[8#2 `  
http://www.mjsunny.com/read.php?tid=63199 'u}OeS"f  
=[do([A  
下载链接请直转! O%s7}bR3  
感谢片源提供:MJFANSZONE *E|#g  
,5& Rra/  
与之前发布所采用的片源一样: *#.Ku(C+  
http://www.mjsunny.com/read.php?tid=58950 R^6]v`j;  
LG vPy  
本次更新版本的优势: RY}:&vWDk  
- 文件体积与首发的1.14GB缩小到933MB,更适合压制版收藏。 7&2CLh  
- 音频方面采用较高品质的OGG压制。 s;,ulME  
- 调整了音画同步问题。
fqZ+CzH  
l( ?Yx  
0:k ~  lz  
2`w\<h  
Unique ID                                : 179811627234256734304467570654732268568 (0x874675B077ED28B257C6D2996436B418) ^9I^A!w=  
Complete name                            : C:\2013.06.25\[MJSHOWZONE]1996.HIStory演唱会.Brunei.480p.x264.25fps.mkv {cBLm/C  
Format                                   : Matroska jZ>'q/  
Format version                           : Version 2 0IEFCDeCO  
File size                                : 934 MiB >AW=N  
Duration                                 : 1h 55mn `$\Y,9E}x  
Overall bit rate mode                    : Variable #={L!"3?e  
Overall bit rate                         : 1 132 Kbps Xze   
Writing application                      : Kirara Encoder L/GM~*Xp(O  
Writing library                          : Kirara Encoder
Video Md {,@ G  
ID                                       : 1 %i%Xi+{3  
Format                                   : AVC #s#z@F  
Format/Info                              : Advanced Video Codec oAyk  
Format profile                           : High@L4.1 a LmVOL{  
Format settings, CABAC                   : Yes ri JyH;)  
Format settings, ReFrames                : 4 frames t^CT^z  
Codec ID                                 : V_MPEG4/ISO/AVC ax^${s|{-  
Duration                                 : 1h 55mn bg HaheU  
Bit rate                                 : 1 013 Kbps iO!lG  
Width                                    : 640 pixels '!2t9B8XX  
Height                                   : 480 pixels T8441qo{>  
Display aspect ratio                     : 4:3 v$i%>tQ\  
Frame rate mode                          : Constant d*>k ]X@G  
Frame rate                               : 25.000 fps 0w['jh|,  
Color space                              : YUV !5OMAWNU@  
Chroma subsampling                       : 4:2:0 E E|zY%  
Bit depth                                : 8 bits d95N$n   
Scan type                                : Progressive *6D%mrK  
Bits/(Pixel*Frame)                       : 0.132 '}`hY1v  
Stream size                              : 836 MiB (90%) ~`>26BWQz  
Writing library                          : x264 core 120 WUWb5xA  
Encoding settings                        : cabac=1 / ref=4 / deblock=1:0:0 / analyse=0x3:0x113 / me=hex / subme=7 / psy=1 / psy_rd=1.00:0.00 / mixed_ref=1 / me_range=16 / chroma_me=1 / trellis=0 / 8x8dct=1 / cqm=0 / deadzone=21,11 / fast_pskip=1 / chroma_qp_offset=-2 / threads=3 / sliced_threads=0 / nr=0 / decimate=1 / interlaced=0 / bluray_compat=0 / constrained_intra=0 / bframes=0 / weightp=2 / keyint=250 / keyint_min=25 / scenecut=40 / intra_refresh=0 / rc_lookahead=40 / rc=crf / mbtree=1 / crf=21.5 / qcomp=0.60 / qpmin=0 / qpmax=69 / qpstep=4 / ip_ratio=1.40 / aq=1:1.00 S[hJ{0V  
Default                                  : Yes KYRm Ui#  
Forced                                   : No
Audio _/]:=_bf_z  
ID                                       : 2 IQlw 914  
Format                                   : Vorbis c6Yf"~TD0  
Format settings, Floor                   : 1 v/aPiFlw  
Codec ID                                 : A_VORBIS ^z*):e  
Duration                                 : 1h 55mn J$6-c' 8  
Bit rate mode                            : Variable ba(arGZ+{  
Bit rate                                 : 96.0 Kbps [K/O5_  
Channel(s)                               : 2 channels 5y1or  
Sampling rate                            : 48.0 KHz ioB|*D<U2  
Compression mode                         : Lossy q+YuVQ-fx  
Stream size                              : 79.2 MiB (8%) bjPka{PBj  
Writing library                          : libVorbis (Schaufenugget) (20101101 (Schaufenugget)) p]wP36<S!  
Default                                  : Yes K1:a]aU?Iu  
Forced                                   : No 2< p{z  
Writing application                      : Lavc53.42.0
N6h1|_o  
[#0Yt/G  
此帖售价 1 金钱,已有 35 人购买 [记录] [购买]
购买后,将显示帖子中所有出售内容。
若发现会员采用欺骗的方法获取财富,请立刻举报,我们会对会员处以2-N倍的罚金,严重者封掉ID!
此段为出售的内容,购买后显示
4条评分金钱+20威望+4
happylee 威望 +2 强烈支持自压, 这个一定收了! 2013-06-11
happylee 金钱 +10 强烈支持自压, 这个一定收了! 2013-06-11
reystytijyte 威望 +2 哎呦~我顶我顶顶我顶顶顶! 2013-06-11
reystytijyte 金钱 +10 哎呦~我顶我顶顶我顶顶顶! 2013-06-11
离线MJ之王

发帖
3558
金钱
196226
威望
3960
贡献值
1598
交易币
3248
只看该作者 1楼 发表于: 2013-06-11
哎呦~我顶我顶顶我顶顶顶!
离线HappyLee

发帖
2729
金钱
107535
威望
2763
贡献值
1395
交易币
3919
只看该作者 2楼 发表于: 2013-06-11
强烈支持自压, 这个一定收了!
离线薄荷

发帖
1449
金钱
3897
威望
277
贡献值
162
交易币
2046
只看该作者 3楼 发表于: 2013-06-11
很少看这场演唱会  赶紧下载  
离线jdh

发帖
5027
金钱
40808
威望
1117
贡献值
473
交易币
6276
只看该作者 4楼 发表于: 2013-06-12
感谢楼主分享。收藏了。
离线餠仠あ

发帖
94
金钱
313
威望
2
贡献值
1
交易币
99
只看该作者 5楼 发表于: 2013-06-12
支持自压!收了~~谢谢楼主啦

发帖
2894
金钱
59725
威望
727
贡献值
479
交易币
3807
只看该作者 6楼 发表于: 2013-06-12
好东西谢谢

发帖
706
金钱
3072
威望
203
贡献值
51
交易币
771
只看该作者 7楼 发表于: 2013-06-25
收下了!!

发帖
1648
金钱
27
威望
320
贡献值
153
交易币
1876
只看该作者 8楼 发表于: 2013-07-01
这么好的东西才1块?楼主真大方!!
离线流行王冠

发帖
672
金钱
660
威望
-9
贡献值
16
交易币
737
只看该作者 9楼 发表于: 2013-07-01
画质不清晰啊,求助楼主压制优化版
快速回复
限100 字节
 
上一个 下一个