论坛风格切换切换到宽版
  • 5946阅读
  • 63回复

1996.HIStory演唱会.Bucharest.480p.x264.29fps-MSZ压制【百度盘】 [复制链接]

上一主题 下一主题
离线mjghosts
 

发帖
8257
金钱
219480
威望
9187
贡献值
2734
交易币
4792
只看楼主 倒序阅读 楼主  发表于: 2013-06-11
下载链接请直转! 4lM)ZDg  
感谢片源提供:MJFANSZONE ot%^FvQ[c  
JD\yl[ac%  
不知道有多少人下载过当初我只在博客上提供过的这场mkv压制版本,接近1.4GB。 EN,PI~~F  
u"$=:GK  
源DVD各个部分歌曲音量大小有较大差异,音画不同步程度都不同,从DANGEROUS开始便有“爆音”感。在首发博客的版本(现已删除下载链接)没有对DVD作任何改动直接压制,可以说是十分粗糙的作品。 st_.~m!/  
QD8.C=2R  
此次发布的版本对以上的瑕疵都做过修正,花了将近1天时间。不过“爆音”问题实在太严重不能完全修复,只能将音量恒定化从而达到更佳的观赏效果。 kT-dQ32  
f6of8BOg  
或许有人会问“为什么不用michaelvideos.ro版作此场的压制版片源?它是目前公认最好的版本”,相信如果你们下载了之后会有所理解。
54lU~ "  
o [ Je  
@V\ u<n  
K'6NW:zp~  
Unique ID                                : 104773486274412591836118045072994130911 (0x4ED2A3B39C08D85C46976DE0D53CDBDF) 'VMov  
Complete name                            : C:\2013.06.25\[MJSHOWZONE]1996.HIStory演唱会.Bucharest.480p.x264.29fps.mkv X[SdDYMY  
Format                                   : Matroska e7_.Xr~[  
Format version                           : Version 2 A,'F`au  
File size                                : 1.19 GiB $q|-9B  
Duration                                 : 1h 56mn JI3x^[(Z  
Overall bit rate mode                    : Variable ?5IF;vk  
Overall bit rate                         : 1 451 Kbps sQ}E4Iq1#S  
Writing application                      : Kirara Encoder )K}-z+$)k  
Writing library                          : Kirara Encoder
Video 4@mK:v %  
ID                                       : 1 ke)}JU^"  
Format                                   : AVC $eq*@5B  
Format/Info                              : Advanced Video Codec -u$U~?|`  
Format profile                           : High@L4.1 6/3oW}O o  
Format settings, CABAC                   : Yes <-h[I&."  
Format settings, ReFrames                : 4 frames u~~H'*EM  
Codec ID                                 : V_MPEG4/ISO/AVC FokSg[)5  
Duration                                 : 1h 56mn @kPe/j/[1  
Bit rate                                 : 1 326 Kbps ] :SbvsPm  
Width                                    : 640 pixels wVmQE  
Height                                   : 480 pixels M{jJ>S{g  
Display aspect ratio                     : 4:3 B fu/w   
Frame rate mode                          : Constant _B?Hw[cc  
Frame rate                               : 29.970 fps U1)!X@F{  
Color space                              : YUV 0B]c`$"aD  
Chroma subsampling                       : 4:2:0 moD)^':.  
Bit depth                                : 8 bits %D49A-R  
Scan type                                : Progressive Ms=N+e$n  
Bits/(Pixel*Frame)                       : 0.144 hEA;5-m  
Stream size                              : 1.08 GiB (91%) Sw.Kl 0M  
Writing library                          : x264 core 120 9yK\<6}}QH  
Encoding settings                        : cabac=1 / ref=4 / deblock=1:0:0 / analyse=0x3:0x113 / me=hex / subme=7 / psy=1 / psy_rd=1.00:0.00 / mixed_ref=1 / me_range=16 / chroma_me=1 / trellis=0 / 8x8dct=1 / cqm=0 / deadzone=21,11 / fast_pskip=1 / chroma_qp_offset=-2 / threads=3 / sliced_threads=0 / nr=0 / decimate=1 / interlaced=0 / bluray_compat=0 / constrained_intra=0 / bframes=0 / weightp=2 / keyint=250 / keyint_min=25 / scenecut=40 / intra_refresh=0 / rc_lookahead=40 / rc=crf / mbtree=1 / crf=21.5 / qcomp=0.60 / qpmin=0 / qpmax=69 / qpstep=4 / ip_ratio=1.40 / aq=1:1.00 8 +mW  
Default                                  : Yes +,zV [\  
Forced                                   : No
Audio d-jZ5nl(  
ID                                       : 2 8I7JsCj  
Format                                   : Vorbis %F87"v~  
Format settings, Floor                   : 1 MP p    
Codec ID                                 : A_VORBIS zgl$ n  
Duration                                 : 1h 56mn u/apnAW@M  
Bit rate mode                            : Variable Ie}7#>S  
Bit rate                                 : 96.0 Kbps v)aV(Oa  
Channel(s)                               : 2 channels @o6!  
Sampling rate                            : 48.0 KHz \rY\wa  
Compression mode                         : Lossy YbF}>1/"  
Stream size                              : 80.3 MiB (7%) }O\g<ke:u  
Writing library                          : libVorbis (Schaufenugget) (20101101 (Schaufenugget)) NNBT.k3)  
Default                                  : Yes t!59upbN}3  
Forced                                   : No AZ SaI  
Writing application                      : Lavc53.42.0
ir5eR}H  
qE.3:bQ!`  
此帖售价 3 金钱,已有 47 人购买 [记录] [购买]
购买后,将显示帖子中所有出售内容。
若发现会员采用欺骗的方法获取财富,请立刻举报,我们会对会员处以2-N倍的罚金,严重者封掉ID!
此段为出售的内容,购买后显示
7条评分贡献值+5金钱+30威望+9
傻傻滴灰太狼 贡献值 +5 不错,品质好 2013-09-04
傻傻滴灰太狼 威望 +5 不错,品质好 2013-09-04
傻傻滴灰太狼 金钱 +10 不错,品质好 2013-09-04
reystytijyte 威望 +2 我顶再顶最后顶顶~~ 2013-06-11
reystytijyte 金钱 +10 我顶再顶最后顶顶~~ 2013-06-11
happylee 威望 +2 谢谢分享, 支持自压! 2013-06-11
happylee 金钱 +10 谢谢分享, 支持自压! 2013-06-11
离线HappyLee

发帖
2706
金钱
103873
威望
2591
贡献值
1204
交易币
3832
只看该作者 1楼 发表于: 2013-06-11
我在您的博客上见到过, 但因体积有点大所以没敢下载... 看截图,品质还是不错的^_^ x+TNF>%' D  
|}|;OG  
谢谢分享,支持自压^_^
离线bad25

发帖
76
金钱
-42
威望
-10
贡献值
1
交易币
81
只看该作者 2楼 发表于: 2013-06-11
品质感觉不错  下载看看
离线流行王冠

发帖
672
金钱
660
威望
-9
贡献值
16
交易币
737
只看该作者 3楼 发表于: 2013-06-11
果断拿下
离线MJ之王

发帖
3558
金钱
195005
威望
3953
贡献值
1598
交易币
3248
只看该作者 4楼 发表于: 2013-06-11
我顶再顶最后顶顶~~
离线michael0829

发帖
955
金钱
10274
威望
90
贡献值
70
交易币
1204
只看该作者 5楼 发表于: 2013-06-11
谢谢分享,这版本我没有下载过,谢谢了
I Love You Michael Jackson Forever!
I Just Can't Stop Loving You Michel!
离线我某人

发帖
251
金钱
190
威望
-60
贡献值
13
交易币
304
只看该作者 6楼 发表于: 2013-06-11
谢谢分享
离线MJ之王

发帖
3558
金钱
195005
威望
3953
贡献值
1598
交易币
3248
只看该作者 7楼 发表于: 2013-06-11
继续发好贴啊!!
MJJKING收藏站
博客地址: http://blog.sina.com.cn/mjjking
淘宝小店: http://mjzhiwang.taobao.com
离线MJ之王

发帖
3558
金钱
195005
威望
3953
贡献值
1598
交易币
3248
只看该作者 8楼 发表于: 2013-06-11
不懂怎么删除回复,只好说顶~
MJJKING收藏站
博客地址: http://blog.sina.com.cn/mjjking
淘宝小店: http://mjzhiwang.taobao.com
离线MJ之王

发帖
3558
金钱
195005
威望
3953
贡献值
1598
交易币
3248
只看该作者 9楼 发表于: 2013-06-11
哪里高级回复,和图片怎么搞~~ a5)JkC  
MJJKING收藏站
博客地址: http://blog.sina.com.cn/mjjking
淘宝小店: http://mjzhiwang.taobao.com
快速回复
限100 字节
 
上一个 下一个