论坛风格切换切换到宽版
  • 6398阅读
  • 63回复

1996.HIStory演唱会.Bucharest.480p.x264.29fps-MSZ压制【百度盘】 [复制链接]

上一主题 下一主题
离线mjghosts
 

发帖
8261
金钱
219535
威望
9187
贡献值
2734
交易币
4796
只看楼主 倒序阅读 楼主  发表于: 2013-06-11
下载链接请直转! \l%xuT  
感谢片源提供:MJFANSZONE wT1s;2%  
/?\3%<vn  
不知道有多少人下载过当初我只在博客上提供过的这场mkv压制版本,接近1.4GB。 .R9Z$Kbq  
+n3I\7G>  
源DVD各个部分歌曲音量大小有较大差异,音画不同步程度都不同,从DANGEROUS开始便有“爆音”感。在首发博客的版本(现已删除下载链接)没有对DVD作任何改动直接压制,可以说是十分粗糙的作品。 cs9^&N:w[  
I<SgKva;c  
此次发布的版本对以上的瑕疵都做过修正,花了将近1天时间。不过“爆音”问题实在太严重不能完全修复,只能将音量恒定化从而达到更佳的观赏效果。 vdQoJWuB  
Ia&R/I  
或许有人会问“为什么不用michaelvideos.ro版作此场的压制版片源?它是目前公认最好的版本”,相信如果你们下载了之后会有所理解。
)8Va%{j  
xo:kT)  
oFY!NMq}:  
4#U}bN  
Unique ID                                : 104773486274412591836118045072994130911 (0x4ED2A3B39C08D85C46976DE0D53CDBDF) s6H'}[E<  
Complete name                            : C:\2013.06.25\[MJSHOWZONE]1996.HIStory演唱会.Bucharest.480p.x264.29fps.mkv jm_-f  
Format                                   : Matroska 8fR(y~_gF  
Format version                           : Version 2 4<s.|W`  
File size                                : 1.19 GiB ^;C&  
Duration                                 : 1h 56mn Onmmcem  
Overall bit rate mode                    : Variable (IJNBJb  
Overall bit rate                         : 1 451 Kbps q76POytV|  
Writing application                      : Kirara Encoder L`NIYH<^  
Writing library                          : Kirara Encoder
Video "kg`TJf=  
ID                                       : 1  *kr/,_K  
Format                                   : AVC ^aFm6HS1  
Format/Info                              : Advanced Video Codec K}*ets1s}  
Format profile                           : High@L4.1 _Hb;)9y  
Format settings, CABAC                   : Yes 0D-`>_  
Format settings, ReFrames                : 4 frames \1EuHQ?  
Codec ID                                 : V_MPEG4/ISO/AVC .Po"qoGy  
Duration                                 : 1h 56mn Kg@'mG  
Bit rate                                 : 1 326 Kbps R!nf^*~  
Width                                    : 640 pixels H DVimoOq  
Height                                   : 480 pixels ZsGvv]P  
Display aspect ratio                     : 4:3 igO>)XbsM  
Frame rate mode                          : Constant %&ejO= r  
Frame rate                               : 29.970 fps `y8pwWo-o  
Color space                              : YUV MJn-] E  
Chroma subsampling                       : 4:2:0 U>5^:%3  
Bit depth                                : 8 bits V>6klA}o  
Scan type                                : Progressive fHt\KP  
Bits/(Pixel*Frame)                       : 0.144 n. %QWhUB  
Stream size                              : 1.08 GiB (91%) ]8$8QQc<<5  
Writing library                          : x264 core 120 /Vlc8G  
Encoding settings                        : cabac=1 / ref=4 / deblock=1:0:0 / analyse=0x3:0x113 / me=hex / subme=7 / psy=1 / psy_rd=1.00:0.00 / mixed_ref=1 / me_range=16 / chroma_me=1 / trellis=0 / 8x8dct=1 / cqm=0 / deadzone=21,11 / fast_pskip=1 / chroma_qp_offset=-2 / threads=3 / sliced_threads=0 / nr=0 / decimate=1 / interlaced=0 / bluray_compat=0 / constrained_intra=0 / bframes=0 / weightp=2 / keyint=250 / keyint_min=25 / scenecut=40 / intra_refresh=0 / rc_lookahead=40 / rc=crf / mbtree=1 / crf=21.5 / qcomp=0.60 / qpmin=0 / qpmax=69 / qpstep=4 / ip_ratio=1.40 / aq=1:1.00 XcR=4q|7  
Default                                  : Yes ;?h[WIy  
Forced                                   : No
Audio <'Q6\R}:vC  
ID                                       : 2 z 4u&#.bU  
Format                                   : Vorbis 2a d|v]  
Format settings, Floor                   : 1 ZR>BK,  
Codec ID                                 : A_VORBIS -FeXG#{)  
Duration                                 : 1h 56mn Koa9W >!  
Bit rate mode                            : Variable \C~X_/sg  
Bit rate                                 : 96.0 Kbps [6GYYu\  
Channel(s)                               : 2 channels ;hj lRQ\  
Sampling rate                            : 48.0 KHz  Y@,iDQ  
Compression mode                         : Lossy $5nMD=   
Stream size                              : 80.3 MiB (7%) ^WA7X9ed  
Writing library                          : libVorbis (Schaufenugget) (20101101 (Schaufenugget)) g*k)ws  
Default                                  : Yes 6St=r)_  
Forced                                   : No bWSN]]e1#  
Writing application                      : Lavc53.42.0
O'4G'H)   
qxZIH  
此帖售价 3 金钱,已有 47 人购买 [记录] [购买]
购买后,将显示帖子中所有出售内容。
若发现会员采用欺骗的方法获取财富,请立刻举报,我们会对会员处以2-N倍的罚金,严重者封掉ID!
此段为出售的内容,购买后显示
7条评分贡献值+5金钱+30威望+9
傻傻滴灰太狼 贡献值 +5 不错,品质好 2013-09-04
傻傻滴灰太狼 威望 +5 不错,品质好 2013-09-04
傻傻滴灰太狼 金钱 +10 不错,品质好 2013-09-04
reystytijyte 威望 +2 我顶再顶最后顶顶~~ 2013-06-11
reystytijyte 金钱 +10 我顶再顶最后顶顶~~ 2013-06-11
happylee 威望 +2 谢谢分享, 支持自压! 2013-06-11
happylee 金钱 +10 谢谢分享, 支持自压! 2013-06-11
离线HappyLee

发帖
2713
金钱
104283
威望
2605
贡献值
1212
交易币
3843
只看该作者 1楼 发表于: 2013-06-11
我在您的博客上见到过, 但因体积有点大所以没敢下载... 看截图,品质还是不错的^_^ g !^N#o  
?J2{6,}O*.  
谢谢分享,支持自压^_^
离线bad25

发帖
76
金钱
-42
威望
-10
贡献值
1
交易币
81
只看该作者 2楼 发表于: 2013-06-11
品质感觉不错  下载看看
离线流行王冠

发帖
672
金钱
660
威望
-9
贡献值
16
交易币
737
只看该作者 3楼 发表于: 2013-06-11
果断拿下
离线MJ之王

发帖
3558
金钱
195005
威望
3953
贡献值
1598
交易币
3248
只看该作者 4楼 发表于: 2013-06-11
我顶再顶最后顶顶~~
离线michael0829

发帖
958
金钱
10639
威望
90
贡献值
70
交易币
1207
只看该作者 5楼 发表于: 2013-06-11
谢谢分享,这版本我没有下载过,谢谢了
I Love You Michael Jackson Forever!
I Just Can't Stop Loving You Michel!
离线我某人

发帖
251
金钱
190
威望
-60
贡献值
13
交易币
304
只看该作者 6楼 发表于: 2013-06-11
谢谢分享
离线MJ之王

发帖
3558
金钱
195005
威望
3953
贡献值
1598
交易币
3248
只看该作者 7楼 发表于: 2013-06-11
继续发好贴啊!!
MJJKING收藏站
博客地址: http://blog.sina.com.cn/mjjking
淘宝小店: http://mjzhiwang.taobao.com
离线MJ之王

发帖
3558
金钱
195005
威望
3953
贡献值
1598
交易币
3248
只看该作者 8楼 发表于: 2013-06-11
不懂怎么删除回复,只好说顶~
MJJKING收藏站
博客地址: http://blog.sina.com.cn/mjjking
淘宝小店: http://mjzhiwang.taobao.com
离线MJ之王

发帖
3558
金钱
195005
威望
3953
贡献值
1598
交易币
3248
只看该作者 9楼 发表于: 2013-06-11
哪里高级回复,和图片怎么搞~~ s~X*U&}5  
MJJKING收藏站
博客地址: http://blog.sina.com.cn/mjjking
淘宝小店: http://mjzhiwang.taobao.com
快速回复
限100 字节
 
上一个 下一个