论坛风格切换切换到宽版
  • 7381阅读
  • 64回复

1996.HIStory演唱会.Bucharest.480p.x264.29fps-MSZ压制【百度盘】 [复制链接]

上一主题 下一主题
离线mjghosts
 

发帖
8278
金钱
220285
威望
9195
贡献值
2742
交易币
4817
只看楼主 倒序阅读 楼主  发表于: 2013-06-11
下载链接请直转! hj  
感谢片源提供:MJFANSZONE ?notxE7 ]  
90|7ArM_[  
不知道有多少人下载过当初我只在博客上提供过的这场mkv压制版本,接近1.4GB。 ?q(\=;Y  
TT50(_8  
源DVD各个部分歌曲音量大小有较大差异,音画不同步程度都不同,从DANGEROUS开始便有“爆音”感。在首发博客的版本(现已删除下载链接)没有对DVD作任何改动直接压制,可以说是十分粗糙的作品。 CPVjmRUF|  
]?Fi$3Lm  
此次发布的版本对以上的瑕疵都做过修正,花了将近1天时间。不过“爆音”问题实在太严重不能完全修复,只能将音量恒定化从而达到更佳的观赏效果。 'eo KZX+  
Pt@%4 :&-h  
或许有人会问“为什么不用michaelvideos.ro版作此场的压制版片源?它是目前公认最好的版本”,相信如果你们下载了之后会有所理解。
/n5F(5<  
:8 jhiB)  
Nc :({@I  
+2K:qvzZ  
Unique ID                                : 104773486274412591836118045072994130911 (0x4ED2A3B39C08D85C46976DE0D53CDBDF) 3' ~gvi I  
Complete name                            : C:\2013.06.25\[MJSHOWZONE]1996.HIStory演唱会.Bucharest.480p.x264.29fps.mkv @*0cMO;SpG  
Format                                   : Matroska :U d  
Format version                           : Version 2 RrhT'':[  
File size                                : 1.19 GiB Z<#hS=eY  
Duration                                 : 1h 56mn WEa2E?*  
Overall bit rate mode                    : Variable < AI;6/  
Overall bit rate                         : 1 451 Kbps ~"lJ'&J}  
Writing application                      : Kirara Encoder tp:\j@dB  
Writing library                          : Kirara Encoder
Video 4Hb $0l  
ID                                       : 1 RGIoI ]_  
Format                                   : AVC 3Wcy)y>2Ap  
Format/Info                              : Advanced Video Codec 1/ZR*f a  
Format profile                           : High@L4.1 ' )-M\'S$E  
Format settings, CABAC                   : Yes >p])it[q&$  
Format settings, ReFrames                : 4 frames }wwe}E-e  
Codec ID                                 : V_MPEG4/ISO/AVC aF8k/$u  
Duration                                 : 1h 56mn _7kM]">j  
Bit rate                                 : 1 326 Kbps d"~(T:=r  
Width                                    : 640 pixels fT Y/4(  
Height                                   : 480 pixels Wv K(G3  
Display aspect ratio                     : 4:3 |G=[5e^s[  
Frame rate mode                          : Constant rOl6lQW  
Frame rate                               : 29.970 fps _MYx%Z  
Color space                              : YUV 'pP-rdx  
Chroma subsampling                       : 4:2:0 <>4!XPo%J  
Bit depth                                : 8 bits !Qu PG/=X  
Scan type                                : Progressive @?2n]n6  
Bits/(Pixel*Frame)                       : 0.144 q#1X[A()  
Stream size                              : 1.08 GiB (91%) d><fu]'  
Writing library                          : x264 core 120 ^o%_W0_r  
Encoding settings                        : cabac=1 / ref=4 / deblock=1:0:0 / analyse=0x3:0x113 / me=hex / subme=7 / psy=1 / psy_rd=1.00:0.00 / mixed_ref=1 / me_range=16 / chroma_me=1 / trellis=0 / 8x8dct=1 / cqm=0 / deadzone=21,11 / fast_pskip=1 / chroma_qp_offset=-2 / threads=3 / sliced_threads=0 / nr=0 / decimate=1 / interlaced=0 / bluray_compat=0 / constrained_intra=0 / bframes=0 / weightp=2 / keyint=250 / keyint_min=25 / scenecut=40 / intra_refresh=0 / rc_lookahead=40 / rc=crf / mbtree=1 / crf=21.5 / qcomp=0.60 / qpmin=0 / qpmax=69 / qpstep=4 / ip_ratio=1.40 / aq=1:1.00  *q"G }  
Default                                  : Yes pv$tTWk  
Forced                                   : No
Audio xw%)rm<t  
ID                                       : 2 9H$g?';  
Format                                   : Vorbis Rrz'(KSDw  
Format settings, Floor                   : 1 8on[%Vk  
Codec ID                                 : A_VORBIS El1:?4;  
Duration                                 : 1h 56mn b.6ZfB,+G  
Bit rate mode                            : Variable g?$e^ls  
Bit rate                                 : 96.0 Kbps @!-aR u  
Channel(s)                               : 2 channels ->Q`'@'|P  
Sampling rate                            : 48.0 KHz /H.(d 4C  
Compression mode                         : Lossy vx PDC~3;  
Stream size                              : 80.3 MiB (7%) XTIu(f|d_;  
Writing library                          : libVorbis (Schaufenugget) (20101101 (Schaufenugget)) J2)-cY5G  
Default                                  : Yes )[e%wPu4e  
Forced                                   : No ;"d?_{>7  
Writing application                      : Lavc53.42.0
^4y(pcD  
pDLu+ }@  
此帖售价 3 金钱,已有 48 人购买 [记录] [购买]
购买后,将显示帖子中所有出售内容。
若发现会员采用欺骗的方法获取财富,请立刻举报,我们会对会员处以2-N倍的罚金,严重者封掉ID!
此段为出售的内容,购买后显示
7条评分贡献值+5金钱+30威望+9
傻傻滴灰太狼 贡献值 +5 不错,品质好 2013-09-04
傻傻滴灰太狼 威望 +5 不错,品质好 2013-09-04
傻傻滴灰太狼 金钱 +10 不错,品质好 2013-09-04
reystytijyte 威望 +2 我顶再顶最后顶顶~~ 2013-06-11
reystytijyte 金钱 +10 我顶再顶最后顶顶~~ 2013-06-11
happylee 威望 +2 谢谢分享, 支持自压! 2013-06-11
happylee 金钱 +10 谢谢分享, 支持自压! 2013-06-11
离线HappyLee

发帖
2728
金钱
107178
威望
2761
贡献值
1395
交易币
3918
只看该作者 1楼 发表于: 2013-06-11
我在您的博客上见到过, 但因体积有点大所以没敢下载... 看截图,品质还是不错的^_^ qPY OO  
m&(yx| a4+  
谢谢分享,支持自压^_^
离线bad25

发帖
76
金钱
-42
威望
-10
贡献值
1
交易币
81
只看该作者 2楼 发表于: 2013-06-11
品质感觉不错  下载看看
离线流行王冠

发帖
672
金钱
660
威望
-9
贡献值
16
交易币
737
只看该作者 3楼 发表于: 2013-06-11
果断拿下
离线MJ之王

发帖
3558
金钱
195934
威望
3960
贡献值
1598
交易币
3248
只看该作者 4楼 发表于: 2013-06-11
我顶再顶最后顶顶~~
离线michael0829

发帖
960
金钱
11724
威望
90
贡献值
70
交易币
1209
只看该作者 5楼 发表于: 2013-06-11
谢谢分享,这版本我没有下载过,谢谢了
I Love You Michael Jackson Forever!
I Just Can't Stop Loving You Michel!
离线我某人

发帖
251
金钱
190
威望
-60
贡献值
13
交易币
304
只看该作者 6楼 发表于: 2013-06-11
谢谢分享
离线MJ之王

发帖
3558
金钱
195934
威望
3960
贡献值
1598
交易币
3248
只看该作者 7楼 发表于: 2013-06-11
继续发好贴啊!!
MJJKING收藏站
博客地址: http://blog.sina.com.cn/mjjking
淘宝小店: http://mjzhiwang.taobao.com
离线MJ之王

发帖
3558
金钱
195934
威望
3960
贡献值
1598
交易币
3248
只看该作者 8楼 发表于: 2013-06-11
不懂怎么删除回复,只好说顶~
MJJKING收藏站
博客地址: http://blog.sina.com.cn/mjjking
淘宝小店: http://mjzhiwang.taobao.com
离线MJ之王

发帖
3558
金钱
195934
威望
3960
贡献值
1598
交易币
3248
只看该作者 9楼 发表于: 2013-06-11
哪里高级回复,和图片怎么搞~~ K2tOt7M!  
MJJKING收藏站
博客地址: http://blog.sina.com.cn/mjjking
淘宝小店: http://mjzhiwang.taobao.com
快速回复
限100 字节
 
上一个 下一个