论坛风格切换切换到宽版
  • 7522阅读
  • 64回复

1996.HIStory演唱会.Bucharest.480p.x264.29fps-MSZ压制【百度盘】 [复制链接]

上一主题 下一主题
离线mjghosts
 

发帖
8279
金钱
220938
威望
9195
贡献值
2742
交易币
4818
只看楼主 倒序阅读 楼主  发表于: 2013-06-11
下载链接请直转! J,\e@  
感谢片源提供:MJFANSZONE ;=WwJ Np~  
]CPF7Hf  
不知道有多少人下载过当初我只在博客上提供过的这场mkv压制版本,接近1.4GB。 MGY0^6yK5  
("{"8   
源DVD各个部分歌曲音量大小有较大差异,音画不同步程度都不同,从DANGEROUS开始便有“爆音”感。在首发博客的版本(现已删除下载链接)没有对DVD作任何改动直接压制,可以说是十分粗糙的作品。 P](8Qrl  
nxNHf3   
此次发布的版本对以上的瑕疵都做过修正,花了将近1天时间。不过“爆音”问题实在太严重不能完全修复,只能将音量恒定化从而达到更佳的观赏效果。 V7.g,  
=3`|D0E  
或许有人会问“为什么不用michaelvideos.ro版作此场的压制版片源?它是目前公认最好的版本”,相信如果你们下载了之后会有所理解。
C|h Uyo  
o\]U;#YD  
H5 V>d  
EW1,&H  
Unique ID                                : 104773486274412591836118045072994130911 (0x4ED2A3B39C08D85C46976DE0D53CDBDF) f*xr0l  
Complete name                            : C:\2013.06.25\[MJSHOWZONE]1996.HIStory演唱会.Bucharest.480p.x264.29fps.mkv XH@(V4J(.  
Format                                   : Matroska "qd|!:bE  
Format version                           : Version 2 EmR82^_:  
File size                                : 1.19 GiB 1dw{:X=j  
Duration                                 : 1h 56mn d;]m wLB0  
Overall bit rate mode                    : Variable )G Alj;9A$  
Overall bit rate                         : 1 451 Kbps ~!qnKM>[  
Writing application                      : Kirara Encoder ;?tH8jf>  
Writing library                          : Kirara Encoder
Video l`ZL^uT  
ID                                       : 1 ;Vs2 e  
Format                                   : AVC \<*F#3U1  
Format/Info                              : Advanced Video Codec GdI,&| /  
Format profile                           : High@L4.1 "aF2:E'  
Format settings, CABAC                   : Yes 19qH WU^0V  
Format settings, ReFrames                : 4 frames "Gp Tmu?  
Codec ID                                 : V_MPEG4/ISO/AVC VsL,t\67  
Duration                                 : 1h 56mn py:L-5  
Bit rate                                 : 1 326 Kbps Os-Z_zSl6  
Width                                    : 640 pixels PiM(QR  
Height                                   : 480 pixels ^UJIDg7zS  
Display aspect ratio                     : 4:3 f tTD-d  
Frame rate mode                          : Constant /C Xg$%\  
Frame rate                               : 29.970 fps hGY-d}npAJ  
Color space                              : YUV A?#i{R  
Chroma subsampling                       : 4:2:0 lqOpADLS3  
Bit depth                                : 8 bits qfl!>  
Scan type                                : Progressive `RSiZ%Al  
Bits/(Pixel*Frame)                       : 0.144 E*5aLT5!,  
Stream size                              : 1.08 GiB (91%) Tx K v!-1  
Writing library                          : x264 core 120 h SS9mQ  
Encoding settings                        : cabac=1 / ref=4 / deblock=1:0:0 / analyse=0x3:0x113 / me=hex / subme=7 / psy=1 / psy_rd=1.00:0.00 / mixed_ref=1 / me_range=16 / chroma_me=1 / trellis=0 / 8x8dct=1 / cqm=0 / deadzone=21,11 / fast_pskip=1 / chroma_qp_offset=-2 / threads=3 / sliced_threads=0 / nr=0 / decimate=1 / interlaced=0 / bluray_compat=0 / constrained_intra=0 / bframes=0 / weightp=2 / keyint=250 / keyint_min=25 / scenecut=40 / intra_refresh=0 / rc_lookahead=40 / rc=crf / mbtree=1 / crf=21.5 / qcomp=0.60 / qpmin=0 / qpmax=69 / qpstep=4 / ip_ratio=1.40 / aq=1:1.00 _VdJFjY?zc  
Default                                  : Yes D.{vuftu  
Forced                                   : No
Audio 2*w`l|Sx  
ID                                       : 2 6/wC StZ  
Format                                   : Vorbis h='&^1  
Format settings, Floor                   : 1 I_8 n>\u  
Codec ID                                 : A_VORBIS $> QJ%v9+  
Duration                                 : 1h 56mn [^a7l$fmi  
Bit rate mode                            : Variable NKFeND  
Bit rate                                 : 96.0 Kbps <^> nR3E  
Channel(s)                               : 2 channels = =pQ V[  
Sampling rate                            : 48.0 KHz oc-&}R4=  
Compression mode                         : Lossy &$T7eOiZ  
Stream size                              : 80.3 MiB (7%) Y#9bM $x7  
Writing library                          : libVorbis (Schaufenugget) (20101101 (Schaufenugget)) OD Ry  
Default                                  : Yes '?I3&lYz{  
Forced                                   : No k&[6Ld0~56  
Writing application                      : Lavc53.42.0
[q0^Bn}h  
7NOF^/nU  
此帖售价 3 金钱,已有 48 人购买 [记录] [购买]
购买后,将显示帖子中所有出售内容。
若发现会员采用欺骗的方法获取财富,请立刻举报,我们会对会员处以2-N倍的罚金,严重者封掉ID!
此段为出售的内容,购买后显示
7条评分贡献值+5金钱+30威望+9
傻傻滴灰太狼 贡献值 +5 不错,品质好 2013-09-04
傻傻滴灰太狼 威望 +5 不错,品质好 2013-09-04
傻傻滴灰太狼 金钱 +10 不错,品质好 2013-09-04
reystytijyte 威望 +2 我顶再顶最后顶顶~~ 2013-06-11
reystytijyte 金钱 +10 我顶再顶最后顶顶~~ 2013-06-11
happylee 威望 +2 谢谢分享, 支持自压! 2013-06-11
happylee 金钱 +10 谢谢分享, 支持自压! 2013-06-11
离线HappyLee

发帖
2735
金钱
108344
威望
2797
贡献值
1409
交易币
3933
只看该作者 1楼 发表于: 2013-06-11
我在您的博客上见到过, 但因体积有点大所以没敢下载... 看截图,品质还是不错的^_^ T6\d]  
|w>d]eA5  
谢谢分享,支持自压^_^
离线bad25

发帖
76
金钱
-42
威望
-10
贡献值
1
交易币
81
只看该作者 2楼 发表于: 2013-06-11
品质感觉不错  下载看看
离线流行王冠

发帖
672
金钱
660
威望
-9
贡献值
16
交易币
737
只看该作者 3楼 发表于: 2013-06-11
果断拿下
离线MJ之王

发帖
3558
金钱
197055
威望
3960
贡献值
1598
交易币
3248
只看该作者 4楼 发表于: 2013-06-11
我顶再顶最后顶顶~~
离线michael0829

发帖
960
金钱
12004
威望
90
贡献值
70
交易币
1209
只看该作者 5楼 发表于: 2013-06-11
谢谢分享,这版本我没有下载过,谢谢了
I Love You Michael Jackson Forever!
I Just Can't Stop Loving You Michel!
离线我某人

发帖
251
金钱
190
威望
-60
贡献值
13
交易币
304
只看该作者 6楼 发表于: 2013-06-11
谢谢分享
离线MJ之王

发帖
3558
金钱
197055
威望
3960
贡献值
1598
交易币
3248
只看该作者 7楼 发表于: 2013-06-11
继续发好贴啊!!
MJJKING收藏站
博客地址: http://blog.sina.com.cn/mjjking
淘宝小店: http://mjzhiwang.taobao.com
离线MJ之王

发帖
3558
金钱
197055
威望
3960
贡献值
1598
交易币
3248
只看该作者 8楼 发表于: 2013-06-11
不懂怎么删除回复,只好说顶~
MJJKING收藏站
博客地址: http://blog.sina.com.cn/mjjking
淘宝小店: http://mjzhiwang.taobao.com
离线MJ之王

发帖
3558
金钱
197055
威望
3960
贡献值
1598
交易币
3248
只看该作者 9楼 发表于: 2013-06-11
哪里高级回复,和图片怎么搞~~ ?H8w/{J   
MJJKING收藏站
博客地址: http://blog.sina.com.cn/mjjking
淘宝小店: http://mjzhiwang.taobao.com
快速回复
限100 字节
 
上一个 下一个