论坛风格切换切换到宽版
  • 7727阅读
  • 66回复

1996.HIStory演唱会.Manila.480p.x264.25fps-MSZ压制【百度盘】 [复制链接]

上一主题 下一主题
离线mjghosts
 

发帖
8278
金钱
220226
威望
9195
贡献值
2742
交易币
4817
只看楼主 倒序阅读 楼主  发表于: 2013-06-26
下载链接请直转! A nl1+  
片源:MJDVDSHOP 7#"NKxb  
^jL)<y4`  
收了不少版本的马尼拉历史,不过我认为目前为止除MJDVDSHOP版以外的都是浮云,因此我也就用了这个版本做片源,并且调整了此DVD版里最后两首GMA版的音量过大和音画不同步问题,希望最后出来的这个压制版可以令大家满意。 ~`e!$=  
y]{b4e  
X_X7fRC0  
qmpT G:+  
Unique ID                                : 174275531242697193377180627263769134863 (0x831C3F15580293A7C2445A57D799C70F) z@IG"D  
Complete name                            : G:\压制作品\[MJSHOWZONE]1996.HIStory演唱会.Manila.480p.x264.25fps.mkv U*K4qJ6U  
Format                                   : Matroska qh>An;:u  
Format version                           : Version 2 lW-G]V  
File size                                : 1.10 GiB 0aR.ct%  
Duration                                 : 1h 43mn :I?lT2+ea  
Overall bit rate mode                    : Variable ,.{M1D6'R`  
Overall bit rate                         : 1 524 Kbps a{7*um  
Writing application                      : Kirara Encoder ]2"UR_x  
Writing library                          : Kirara Encoder
Video A1B[5a*o!  
ID                                       : 1 \``w>Xy8  
Format                                   : AVC !4^Lv{1QZ  
Format/Info                              : Advanced Video Codec M3KK^YRN  
Format profile                           : High@L4.1 (@T{ [\  
Format settings, CABAC                   : Yes #bGYHN  
Format settings, ReFrames                : 4 frames hUi5~;Q5Fi  
Codec ID                                 : V_MPEG4/ISO/AVC l8M}82_  
Duration                                 : 1h 43mn #Z]Cq0=  
Bit rate                                 : 1 398 Kbps NV{= tAR  
Width                                    : 640 pixels _,F\%}  
Height                                   : 480 pixels Y._ACQG3  
Display aspect ratio                     : 4:3 [G+@[9hn%  
Frame rate mode                          : Constant 7]5+%[Dg!  
Frame rate                               : 25.000 fps w5-^Py  
Color space                              : YUV ):+^893)  
Chroma subsampling                       : 4:2:0 [=-,i#4  
Bit depth                                : 8 bits ga1b%5]v.  
Scan type                                : Progressive kiin78W  
Bits/(Pixel*Frame)                       : 0.182 \Ff]}4  
Stream size                              : 1.01 GiB (92%) [m x}n+~  
Writing library                          : x264 core 120 kd p*6ynD  
Encoding settings                        : cabac=1 / ref=4 / deblock=1:0:0 / analyse=0x3:0x113 / me=hex / subme=7 / psy=1 / psy_rd=1.00:0.00 / mixed_ref=1 / me_range=16 / chroma_me=1 / trellis=0 / 8x8dct=1 / cqm=0 / deadzone=21,11 / fast_pskip=1 / chroma_qp_offset=-2 / threads=3 / sliced_threads=0 / nr=0 / decimate=1 / interlaced=0 / bluray_compat=0 / constrained_intra=0 / bframes=0 / weightp=2 / keyint=250 / keyint_min=25 / scenecut=40 / intra_refresh=0 / rc_lookahead=40 / rc=crf / mbtree=1 / crf=21.5 / qcomp=0.60 / qpmin=0 / qpmax=69 / qpstep=4 / ip_ratio=1.40 / aq=1:1.00 e \kR/<L  
Default                                  : Yes I2z7}*<u  
Forced                                   : No
Audio DAN"&&  
ID                                       : 2  >qI:  
Format                                   : Vorbis phwq#AxQ   
Format settings, Floor                   : 1 ]?jmRk^ .  
Codec ID                                 : A_VORBIS K^I$05idi  
Duration                                 : 1h 43mn iIo>]\Pw  
Bit rate mode                            : Variable iVqF]2 >  
Bit rate                                 : 96.0 Kbps YWq{?'AaR  
Channel(s)                               : 2 channels `Uk jr MO  
Sampling rate                            : 48.0 KHz G_5NS<JE"S  
Compression mode                         : Lossy hn/SS  
Stream size                              : 71.0 MiB (6%) %N<>3c<8P  
Writing library                          : libVorbis (Schaufenugget) (20101101 (Schaufenugget)) S7hfwu&7F  
Default                                  : Yes XoiZ"zE  
Forced                                   : No ^A;ec h7I  
Writing application                      : Lavc53.42.0
eR8>5:V_  
Q[Tbdc%1EG  
此帖售价 5 金钱,已有 48 人购买 [记录] [购买]
购买后,将显示帖子中所有出售内容。
若发现会员采用欺骗的方法获取财富,请立刻举报,我们会对会员处以2-N倍的罚金,严重者封掉ID!
此段为出售的内容,购买后显示
4条评分金钱+20威望+4
傻傻滴灰太狼 威望 +2 收第三个 2014-02-22
傻傻滴灰太狼 金钱 +10 收第三个 2014-02-22
happylee 威望 +2 前排支持,压制辛苦了! 2013-06-26
happylee 金钱 +10 前排支持,压制辛苦了! 2013-06-26
离线zxcv16

发帖
2684
金钱
2794
威望
409
贡献值
135
交易币
2876
只看该作者 1楼 发表于: 2013-06-26
压制辛苦,支持你
离线薄荷

发帖
1449
金钱
3897
威望
277
贡献值
162
交易币
2046
只看该作者 2楼 发表于: 2013-06-26
收藏了,再看一次

内容来自Android手机客户端

离线ercan

发帖
623
金钱
2995
威望
236
贡献值
90
交易币
731
只看该作者 3楼 发表于: 2013-06-26
Thanks again for sharing !!!
离线MJ守护者

发帖
1444
金钱
25049
威望
779
贡献值
305
交易币
1895
只看该作者 4楼 发表于: 2013-06-26
其实想问一下。。为什么每次都说下载链接直转啊
KOPSKY:  blog.sina.com.cn/kopsky
离线mlpjj

发帖
107
金钱
5286
威望
56
贡献值
2
交易币
118
只看该作者 5楼 发表于: 2013-06-26
楼主辛苦了,谢谢
离线mjghosts

发帖
8278
金钱
220226
威望
9195
贡献值
2742
交易币
4817
只看该作者 6楼 发表于: 2013-06-26
回 mj守护者 的帖子
mj守护者:其实想问一下。。为什么每次都说下载链接直转啊[表情]  (2013-06-26 21:05)  eCd?.e0@j  
a"aV&t  
这个,你解压的时候就会明白了,呵呵。
离线MJ守护者

发帖
1444
金钱
25049
威望
779
贡献值
305
交易币
1895
只看该作者 7楼 发表于: 2013-06-26
是那个Welcome to www.mjsunny.com的TXT么 #u_-TWVt  
TUG3#PSnm*  
内容来自[短消息]
离线小禾的迈

发帖
1169
金钱
9794
威望
770
贡献值
254
交易币
1852
只看该作者 8楼 发表于: 2013-06-26
支持一下

当岁月褪去了所有的流言~美丽的天使已经不在人间
在你用梦想冶愈的世界里~世人已错过了爱你的流年
离线mjghosts

发帖
8278
金钱
220226
威望
9195
贡献值
2742
交易币
4817
只看该作者 9楼 发表于: 2013-06-26
回 mj守护者 的帖子
mj守护者:是那个Welcome to www.mjsunny.com的TXT么
内容来自[短消息]  (2013-06-26 21:46)  X~+AaI :~K  
j<,Ho4v}_  
嗯,就是这个原因而已。
快速回复
限100 字节
 
上一个 下一个