论坛风格切换切换到宽版
  • 7959阅读
  • 66回复

1996.HIStory演唱会.Manila.480p.x264.25fps-MSZ压制【百度盘】 [复制链接]

上一主题 下一主题
离线mjghosts
 

发帖
8279
金钱
220938
威望
9195
贡献值
2742
交易币
4818
只看楼主 倒序阅读 楼主  发表于: 2013-06-26
下载链接请直转! DH{^9HK  
片源:MJDVDSHOP 5"I8ric  
G[z4 $0f  
收了不少版本的马尼拉历史,不过我认为目前为止除MJDVDSHOP版以外的都是浮云,因此我也就用了这个版本做片源,并且调整了此DVD版里最后两首GMA版的音量过大和音画不同步问题,希望最后出来的这个压制版可以令大家满意。 6]5e(J{Fz  
K&>+<bJ_  
KO5! (vi@  
)xj!7:n)  
Unique ID                                : 174275531242697193377180627263769134863 (0x831C3F15580293A7C2445A57D799C70F) /r@~"R x'  
Complete name                            : G:\压制作品\[MJSHOWZONE]1996.HIStory演唱会.Manila.480p.x264.25fps.mkv :B"Y3~I  
Format                                   : Matroska l.`f^K=8  
Format version                           : Version 2 `M.\D  
File size                                : 1.10 GiB .P5OUK  
Duration                                 : 1h 43mn 7ts`uI<E@7  
Overall bit rate mode                    : Variable u/>+cT6}  
Overall bit rate                         : 1 524 Kbps wpI_yp  
Writing application                      : Kirara Encoder G%FLt[  
Writing library                          : Kirara Encoder
Video aPR XK1  
ID                                       : 1 oo-O>M#5  
Format                                   : AVC )j\9IdkU;y  
Format/Info                              : Advanced Video Codec iBh.&K{j  
Format profile                           : High@L4.1 6lob&+  
Format settings, CABAC                   : Yes w JF(&P  
Format settings, ReFrames                : 4 frames K^e4w`F|  
Codec ID                                 : V_MPEG4/ISO/AVC te;VGpv.  
Duration                                 : 1h 43mn Q9k;PJ`@  
Bit rate                                 : 1 398 Kbps s\e b  
Width                                    : 640 pixels /^$n&gI  
Height                                   : 480 pixels 8&SW Q  
Display aspect ratio                     : 4:3 !NMiWG4R  
Frame rate mode                          : Constant 5[]Yxl  
Frame rate                               : 25.000 fps Z|xgZG{  
Color space                              : YUV 0,B"p  
Chroma subsampling                       : 4:2:0 thz[h5C?C  
Bit depth                                : 8 bits |Mgzb0_IiQ  
Scan type                                : Progressive ]|u7P{Z"R  
Bits/(Pixel*Frame)                       : 0.182 ~[=d{M!$W  
Stream size                              : 1.01 GiB (92%) P=7X+}@  
Writing library                          : x264 core 120 C~pQJ@bF0  
Encoding settings                        : cabac=1 / ref=4 / deblock=1:0:0 / analyse=0x3:0x113 / me=hex / subme=7 / psy=1 / psy_rd=1.00:0.00 / mixed_ref=1 / me_range=16 / chroma_me=1 / trellis=0 / 8x8dct=1 / cqm=0 / deadzone=21,11 / fast_pskip=1 / chroma_qp_offset=-2 / threads=3 / sliced_threads=0 / nr=0 / decimate=1 / interlaced=0 / bluray_compat=0 / constrained_intra=0 / bframes=0 / weightp=2 / keyint=250 / keyint_min=25 / scenecut=40 / intra_refresh=0 / rc_lookahead=40 / rc=crf / mbtree=1 / crf=21.5 / qcomp=0.60 / qpmin=0 / qpmax=69 / qpstep=4 / ip_ratio=1.40 / aq=1:1.00 9|Ylv:sR  
Default                                  : Yes E~VV19Bv]/  
Forced                                   : No
Audio ?uU_N$x  
ID                                       : 2 gXU(0(Gq  
Format                                   : Vorbis (nXnP{yb  
Format settings, Floor                   : 1 =F}qT|K  
Codec ID                                 : A_VORBIS <&gs)BY  
Duration                                 : 1h 43mn W7gY$\1<&  
Bit rate mode                            : Variable d:>'c=y  
Bit rate                                 : 96.0 Kbps fA]sPh4Uag  
Channel(s)                               : 2 channels  7U1 M;@y  
Sampling rate                            : 48.0 KHz R4R\B  
Compression mode                         : Lossy o|vL:| 8Q  
Stream size                              : 71.0 MiB (6%) j~V $q/7S  
Writing library                          : libVorbis (Schaufenugget) (20101101 (Schaufenugget))  E>i<2  
Default                                  : Yes iR./9}Ze  
Forced                                   : No #Y3-P  
Writing application                      : Lavc53.42.0
/SS~IhUX  
.K(9=yh  
此帖售价 5 金钱,已有 48 人购买 [记录] [购买]
购买后,将显示帖子中所有出售内容。
若发现会员采用欺骗的方法获取财富,请立刻举报,我们会对会员处以2-N倍的罚金,严重者封掉ID!
此段为出售的内容,购买后显示
4条评分金钱+20威望+4
傻傻滴灰太狼 威望 +2 收第三个 2014-02-22
傻傻滴灰太狼 金钱 +10 收第三个 2014-02-22
happylee 威望 +2 前排支持,压制辛苦了! 2013-06-26
happylee 金钱 +10 前排支持,压制辛苦了! 2013-06-26
离线zxcv16

发帖
2684
金钱
2794
威望
409
贡献值
135
交易币
2876
只看该作者 1楼 发表于: 2013-06-26
压制辛苦,支持你
离线薄荷

发帖
1449
金钱
3897
威望
277
贡献值
162
交易币
2046
只看该作者 2楼 发表于: 2013-06-26
收藏了,再看一次

内容来自Android手机客户端

离线ercan

发帖
623
金钱
2995
威望
236
贡献值
90
交易币
731
只看该作者 3楼 发表于: 2013-06-26
Thanks again for sharing !!!
离线MJ守护者

发帖
1447
金钱
25178
威望
779
贡献值
305
交易币
1898
只看该作者 4楼 发表于: 2013-06-26
其实想问一下。。为什么每次都说下载链接直转啊
KOPSKY:  blog.sina.com.cn/kopsky
离线mlpjj

发帖
107
金钱
5286
威望
56
贡献值
2
交易币
118
只看该作者 5楼 发表于: 2013-06-26
楼主辛苦了,谢谢
离线mjghosts

发帖
8279
金钱
220938
威望
9195
贡献值
2742
交易币
4818
只看该作者 6楼 发表于: 2013-06-26
回 mj守护者 的帖子
mj守护者:其实想问一下。。为什么每次都说下载链接直转啊[表情]  (2013-06-26 21:05)  s4RqY*VK  
Ev adY  
这个,你解压的时候就会明白了,呵呵。
离线MJ守护者

发帖
1447
金钱
25178
威望
779
贡献值
305
交易币
1898
只看该作者 7楼 发表于: 2013-06-26
是那个Welcome to www.mjsunny.com的TXT么 .',d*H))E7  
@UK%l :L  
内容来自[短消息]
离线小禾的迈

发帖
1169
金钱
9794
威望
770
贡献值
254
交易币
1852
只看该作者 8楼 发表于: 2013-06-26
支持一下

当岁月褪去了所有的流言~美丽的天使已经不在人间
在你用梦想冶愈的世界里~世人已错过了爱你的流年
离线mjghosts

发帖
8279
金钱
220938
威望
9195
贡献值
2742
交易币
4818
只看该作者 9楼 发表于: 2013-06-26
回 mj守护者 的帖子
mj守护者:是那个Welcome to www.mjsunny.com的TXT么
内容来自[短消息]  (2013-06-26 21:46)  (~{7e/)r  
hdN3r{  
嗯,就是这个原因而已。
快速回复
限100 字节
 
上一个 下一个