论坛风格切换切换到宽版
  • 6548阅读
  • 66回复

1996.HIStory演唱会.Manila.480p.x264.25fps-MSZ压制【百度盘】 [复制链接]

上一主题 下一主题
离线mjghosts
 

发帖
8261
金钱
219535
威望
9187
贡献值
2734
交易币
4796
只看楼主 倒序阅读 楼主  发表于: 2013-06-26
下载链接请直转! 8}9B*m  
片源:MJDVDSHOP C:Tjue{G2  
70s.  
收了不少版本的马尼拉历史,不过我认为目前为止除MJDVDSHOP版以外的都是浮云,因此我也就用了这个版本做片源,并且调整了此DVD版里最后两首GMA版的音量过大和音画不同步问题,希望最后出来的这个压制版可以令大家满意。 6:Eu[PE~w  
.9r+LA{  
rof&O   
Ln~Z_!  
Unique ID                                : 174275531242697193377180627263769134863 (0x831C3F15580293A7C2445A57D799C70F) RZwjc<T  
Complete name                            : G:\压制作品\[MJSHOWZONE]1996.HIStory演唱会.Manila.480p.x264.25fps.mkv C?I vXPlV  
Format                                   : Matroska mc{gcZIm  
Format version                           : Version 2 Z' cQ< f  
File size                                : 1.10 GiB cM9z b6m  
Duration                                 : 1h 43mn be ^09'  
Overall bit rate mode                    : Variable /$]#L%   
Overall bit rate                         : 1 524 Kbps :`FL95  
Writing application                      : Kirara Encoder |$$gj[+^  
Writing library                          : Kirara Encoder
Video >FrF"u:kM  
ID                                       : 1 =P* YwLb  
Format                                   : AVC y^M ~zOe  
Format/Info                              : Advanced Video Codec F%Te0l  
Format profile                           : High@L4.1 \>8r)xC  
Format settings, CABAC                   : Yes 4';~@IBf  
Format settings, ReFrames                : 4 frames >]6 inS9  
Codec ID                                 : V_MPEG4/ISO/AVC ?]JTrv"zp  
Duration                                 : 1h 43mn %Se@8d8  
Bit rate                                 : 1 398 Kbps 'Q R @G  
Width                                    : 640 pixels %t*_Rtz\o  
Height                                   : 480 pixels #>I*c _-  
Display aspect ratio                     : 4:3 J>H$4t#HX  
Frame rate mode                          : Constant i|- 6  
Frame rate                               : 25.000 fps 1qEpQ.:](  
Color space                              : YUV ~EYsUC#B_  
Chroma subsampling                       : 4:2:0 *]L(,_:"  
Bit depth                                : 8 bits 0E6>P E;  
Scan type                                : Progressive /QA:`_</oh  
Bits/(Pixel*Frame)                       : 0.182 'U9l  
Stream size                              : 1.01 GiB (92%) q y]tuKZI  
Writing library                          : x264 core 120 cO&(&*J r  
Encoding settings                        : cabac=1 / ref=4 / deblock=1:0:0 / analyse=0x3:0x113 / me=hex / subme=7 / psy=1 / psy_rd=1.00:0.00 / mixed_ref=1 / me_range=16 / chroma_me=1 / trellis=0 / 8x8dct=1 / cqm=0 / deadzone=21,11 / fast_pskip=1 / chroma_qp_offset=-2 / threads=3 / sliced_threads=0 / nr=0 / decimate=1 / interlaced=0 / bluray_compat=0 / constrained_intra=0 / bframes=0 / weightp=2 / keyint=250 / keyint_min=25 / scenecut=40 / intra_refresh=0 / rc_lookahead=40 / rc=crf / mbtree=1 / crf=21.5 / qcomp=0.60 / qpmin=0 / qpmax=69 / qpstep=4 / ip_ratio=1.40 / aq=1:1.00 f WUFCbSU  
Default                                  : Yes E%B:6  
Forced                                   : No
Audio Tz PG(f  
ID                                       : 2 m %=] j<A  
Format                                   : Vorbis _4Ciai2Ql  
Format settings, Floor                   : 1 K!L0|W H%!  
Codec ID                                 : A_VORBIS q6A"+w,N  
Duration                                 : 1h 43mn p3Ey[kURp  
Bit rate mode                            : Variable ?}mbp4+j[  
Bit rate                                 : 96.0 Kbps 4!l%@R>O2  
Channel(s)                               : 2 channels =!?4$vW  
Sampling rate                            : 48.0 KHz JBvMe H5  
Compression mode                         : Lossy dTATJ)NH  
Stream size                              : 71.0 MiB (6%) F\)?Ntj)>@  
Writing library                          : libVorbis (Schaufenugget) (20101101 (Schaufenugget)) (^U 8wit/  
Default                                  : Yes kuQ+MQHs  
Forced                                   : No UA%tI2  
Writing application                      : Lavc53.42.0
v\#1&</qd^  
 f^vz  
此帖售价 5 金钱,已有 48 人购买 [记录] [购买]
购买后,将显示帖子中所有出售内容。
若发现会员采用欺骗的方法获取财富,请立刻举报,我们会对会员处以2-N倍的罚金,严重者封掉ID!
此段为出售的内容,购买后显示
4条评分金钱+20威望+4
傻傻滴灰太狼 威望 +2 收第三个 2014-02-22
傻傻滴灰太狼 金钱 +10 收第三个 2014-02-22
happylee 威望 +2 前排支持,压制辛苦了! 2013-06-26
happylee 金钱 +10 前排支持,压制辛苦了! 2013-06-26
离线zxcv16

发帖
2675
金钱
2928
威望
409
贡献值
135
交易币
2867
只看该作者 1楼 发表于: 2013-06-26
压制辛苦,支持你
离线薄荷

发帖
1449
金钱
3897
威望
277
贡献值
162
交易币
2046
只看该作者 2楼 发表于: 2013-06-26
收藏了,再看一次

内容来自Android手机客户端

离线ercan

发帖
623
金钱
3001
威望
236
贡献值
90
交易币
731
只看该作者 3楼 发表于: 2013-06-26
Thanks again for sharing !!!
离线MJ守护者

发帖
1444
金钱
25029
威望
779
贡献值
305
交易币
1895
只看该作者 4楼 发表于: 2013-06-26
其实想问一下。。为什么每次都说下载链接直转啊
KOPSKY:  blog.sina.com.cn/kopsky
离线mlpjj

发帖
107
金钱
5286
威望
56
贡献值
2
交易币
118
只看该作者 5楼 发表于: 2013-06-26
楼主辛苦了,谢谢
离线mjghosts

发帖
8261
金钱
219535
威望
9187
贡献值
2734
交易币
4796
只看该作者 6楼 发表于: 2013-06-26
回 mj守护者 的帖子
mj守护者:其实想问一下。。为什么每次都说下载链接直转啊[表情]  (2013-06-26 21:05)  c=YJ:&/5&  
cx]O#b6B.  
这个,你解压的时候就会明白了,呵呵。
离线MJ守护者

发帖
1444
金钱
25029
威望
779
贡献值
305
交易币
1895
只看该作者 7楼 发表于: 2013-06-26
是那个Welcome to www.mjsunny.com的TXT么 tb7Wr1$<  
+dm&XW >  
内容来自[短消息]
离线小禾的迈

发帖
1169
金钱
9794
威望
770
贡献值
254
交易币
1852
只看该作者 8楼 发表于: 2013-06-26
支持一下

当岁月褪去了所有的流言~美丽的天使已经不在人间
在你用梦想冶愈的世界里~世人已错过了爱你的流年
离线mjghosts

发帖
8261
金钱
219535
威望
9187
贡献值
2734
交易币
4796
只看该作者 9楼 发表于: 2013-06-26
回 mj守护者 的帖子
mj守护者:是那个Welcome to www.mjsunny.com的TXT么
内容来自[短消息]  (2013-06-26 21:46)  %ribxgmd  
sy+1xnz  
嗯,就是这个原因而已。
快速回复
限100 字节
 
上一个 下一个