论坛风格切换切换到宽版
  • 6881阅读
  • 55回复

1997.HIStory演唱会.Helsinki.480p.x264.25fps-MSZ压制【百度盘】 [复制链接]

上一主题 下一主题
离线mjghosts
 

发帖
8279
金钱
220938
威望
9195
贡献值
2742
交易币
4818
只看楼主 倒序阅读 楼主  发表于: 2013-07-06
下载链接请直转! *KvD$(ny  
片源:MJDVDSHOP(Frobodobo) i$E [@  
7m-%  
历史巡演96和97相隔仅一年,但就以我们目前可见的十来场TV版中,97年的4场画质要比96年的好不少。MJDVDSHOP赫尔辛基历史的高质量片源来自歌迷Frobodobo,实属经典,现提供一个小版本收藏。压制技术不怎么样,7G多的DVD片源现在是1.44G的MKV,片长134分钟,体积稍比标准VCD格式大一些。
9 5mf  
v,ssv{gU  
Os"('@jd>  
\A[l(aB  
Unique ID                                : 26820192619961833125798312978751097176 (0x142D6196DAAA38A7803962A5297F0958) <PpvVDy3  
Complete name                            : G:\压制作品\[MJSHOWZONE]1997.HIStory演唱会.Helsinki.480p.x264.25fps.mkv )SmnLvL  
Format                                   : Matroska SQ>i:D;  
Format version                           : Version 2 Z[. M>|  
File size                                : 1.45 GiB I$7eiW @  
Duration                                 : 2h 13mn Yb+A{`  
Overall bit rate mode                    : Variable !K>iSF<  
Overall bit rate                         : 1 546 Kbps T`EV uRJ  
Writing application                      : Kirara Encoder -* ,CMw  
Writing library                          : Kirara Encoder
Video K!-OUm5A  
ID                                       : 1 q\Y4vWg  
Format                                   : AVC c2npma]DZ  
Format/Info                              : Advanced Video Codec @tH9$J*Y<  
Format profile                           : High@L4.1 [^5\Ww  
Format settings, CABAC                   : Yes O `}EiyV  
Format settings, ReFrames                : 4 frames 4=zs&   
Codec ID                                 : V_MPEG4/ISO/AVC c8RJOc4X  
Duration                                 : 2h 13mn gY}In+S  
Bit rate                                 : 1 419 Kbps Z~'t'.=z  
Width                                    : 640 pixels 'K[ml ?_  
Height                                   : 480 pixels V&mkS  
Display aspect ratio                     : 4:3 ]HKt7 %,  
Frame rate mode                          : Constant `[ZswLE  
Frame rate                               : 25.000 fps y^2#;0W  
Color space                              : YUV {3Inj8a=?A  
Chroma subsampling                       : 4:2:0 ^[<BMk  
Bit depth                                : 8 bits -CPtYG[s  
Scan type                                : Progressive X[tt'5  
Bits/(Pixel*Frame)                       : 0.185 ^O|fw?,  
Stream size                              : 1.33 GiB (92%) w8lrpbLh  
Writing library                          : x264 core 120 |E+.y&0;  
Encoding settings                        : cabac=1 / ref=4 / deblock=1:0:0 / analyse=0x3:0x113 / me=hex / subme=7 / psy=1 / psy_rd=1.00:0.00 / mixed_ref=1 / me_range=16 / chroma_me=1 / trellis=0 / 8x8dct=1 / cqm=0 / deadzone=21,11 / fast_pskip=1 / chroma_qp_offset=-2 / threads=3 / sliced_threads=0 / nr=0 / decimate=1 / interlaced=0 / bluray_compat=0 / constrained_intra=0 / bframes=0 / weightp=2 / keyint=250 / keyint_min=25 / scenecut=40 / intra_refresh=0 / rc_lookahead=40 / rc=crf / mbtree=1 / crf=21.0 / qcomp=0.60 / qpmin=0 / qpmax=69 / qpstep=4 / ip_ratio=1.40 / aq=1:1.00 )KZMRAT-  
Default                                  : Yes aM5]cc%  
Forced                                   : No
Audio k^ <]:B  
ID                                       : 2 XFWpHe_ L  
Format                                   : Vorbis B[8bkFS>]  
Format settings, Floor                   : 1 :#:|:q.]  
Codec ID                                 : A_VORBIS 4Y(@ KUb  
Duration                                 : 2h 13mn Ki><~!L  
Bit rate mode                            : Variable AW5iwq6p  
Bit rate                                 : 96.0 Kbps rpKZ>S|7+)  
Channel(s)                               : 2 channels c`<2&ke  
Sampling rate                            : 48.0 KHz 8 #4K@nm5  
Compression mode                         : Lossy {JfQQP&FV  
Stream size                              : 92.0 MiB (6%) pyhXET '  
Writing library                          : libVorbis (Schaufenugget) (20101101 (Schaufenugget)) 3%*igpj\)  
Default                                  : Yes *duG/?>P  
Forced                                   : No q=t!COS  
Writing application                      : Lavc53.42.0
cH&)Iz`f  
GQt5GOt  
此帖售价 4 金钱,已有 47 人购买 [记录] [购买]
购买后,将显示帖子中所有出售内容。
若发现会员采用欺骗的方法获取财富,请立刻举报,我们会对会员处以2-N倍的罚金,严重者封掉ID!
此段为出售的内容,购买后显示
C@Wzg  
3条评分金钱+11威望+2
傻傻滴灰太狼 金钱 +1 这个可以有 2014-02-22
happylee 威望 +2 前排支持,压制辛苦了! 2013-07-06
happylee 金钱 +10 前排支持,压制辛苦了! 2013-07-06
离线HappyLee

发帖
2735
金钱
108344
威望
2797
贡献值
1409
交易币
3933
只看该作者 1楼 发表于: 2013-07-06
前排支持,压制辛苦了!
离线流行王冠

发帖
672
金钱
660
威望
-9
贡献值
16
交易币
737
只看该作者 2楼 发表于: 2013-07-06
辛苦了下载.
离线xthriller

发帖
1176
金钱
267
威望
127
贡献值
39
交易币
1285
只看该作者 3楼 发表于: 2013-07-06
没DVD,先把压制收了!!!
只有一个偶像,只有一个MJ

发帖
521
金钱
7193
威望
124
贡献值
33
交易币
55
只看该作者 4楼 发表于: 2013-07-06
不错不错,草爷俺来捧捧场
我的头像是个帅气的老爷爷!

离线cromwell

发帖
1836
金钱
37850
威望
439
贡献值
177
交易币
1042
只看该作者 5楼 发表于: 2013-07-06
幽灵是如此钟爱赫尔辛基这场啊
杯具7K党——
网速7K以下均可以加入,可随时交流惨痛的下载经验
不管是下载下到昏头,还是上传上到头大
欢迎悲惨的MJ资源收藏迷~~~
离线MJ守护者

发帖
1447
金钱
25178
威望
779
贡献值
305
交易币
1898
只看该作者 6楼 发表于: 2013-07-06
啊哈,比那个AVI小多了
KOPSKY:  blog.sina.com.cn/kopsky

发帖
706
金钱
3072
威望
203
贡献值
51
交易币
771
只看该作者 7楼 发表于: 2013-07-06
收了,谢谢!!
离线mjghosts

发帖
8279
金钱
220938
威望
9195
贡献值
2742
交易币
4818
只看该作者 8楼 发表于: 2013-07-06
回 cromwell 的帖子
莫非我的无厘头简介让你误会了?呵呵。这场除了MJ的滑步特赞以外没有太多吸引我的地方了。历史巡演看到现在最喜欢的是哥德堡的。
离线jerry黄哲

发帖
1102
金钱
8824
威望
19
贡献值
34
交易币
1243
只看该作者 9楼 发表于: 2013-07-06
哎哟不错哦
快速回复
限100 字节
 
上一个 下一个