论坛风格切换切换到宽版
  • 5427阅读
  • 55回复

1997.HIStory演唱会.Helsinki.480p.x264.25fps-MSZ压制【百度盘】 [复制链接]

上一主题 下一主题
离线mjghosts
 

发帖
8255
金钱
219223
威望
9187
贡献值
2734
交易币
4790
只看楼主 倒序阅读 楼主  发表于: 2013-07-06
下载链接请直转! [@_IUvf^.  
片源:MJDVDSHOP(Frobodobo) y 1I(^<qO=  
(?vKe5  
历史巡演96和97相隔仅一年,但就以我们目前可见的十来场TV版中,97年的4场画质要比96年的好不少。MJDVDSHOP赫尔辛基历史的高质量片源来自歌迷Frobodobo,实属经典,现提供一个小版本收藏。压制技术不怎么样,7G多的DVD片源现在是1.44G的MKV,片长134分钟,体积稍比标准VCD格式大一些。
;\],R.!  
N 6t`45  
p8X$yv  
,&aD U  
Unique ID                                : 26820192619961833125798312978751097176 (0x142D6196DAAA38A7803962A5297F0958) U\`yLsKvH`  
Complete name                            : G:\压制作品\[MJSHOWZONE]1997.HIStory演唱会.Helsinki.480p.x264.25fps.mkv ^#,cWG}z  
Format                                   : Matroska Fwfe5`9'  
Format version                           : Version 2 Wg C*bp{  
File size                                : 1.45 GiB YcJ2Arml  
Duration                                 : 2h 13mn rXR}]|;>  
Overall bit rate mode                    : Variable /,Sd  
Overall bit rate                         : 1 546 Kbps M B,P#7|  
Writing application                      : Kirara Encoder y|+ltAK  
Writing library                          : Kirara Encoder
Video {l7@<xZ??M  
ID                                       : 1 p3eJFg$  
Format                                   : AVC 8&=+Mw  
Format/Info                              : Advanced Video Codec LE Y Y{G?  
Format profile                           : High@L4.1 r`cCHZo/V  
Format settings, CABAC                   : Yes zF]hf P0Q  
Format settings, ReFrames                : 4 frames _jZDSz|Yb  
Codec ID                                 : V_MPEG4/ISO/AVC YQN=.Wtc  
Duration                                 : 2h 13mn 4kg9R^0  
Bit rate                                 : 1 419 Kbps 5Ij_$a  
Width                                    : 640 pixels RycEM|51V  
Height                                   : 480 pixels K5.C*|w  
Display aspect ratio                     : 4:3 .M! (|KE4  
Frame rate mode                          : Constant ]Pd*w`R  
Frame rate                               : 25.000 fps c"z%AzUV'  
Color space                              : YUV ld?M,Qd  
Chroma subsampling                       : 4:2:0 M)xK+f2_[  
Bit depth                                : 8 bits hB.dqv]^  
Scan type                                : Progressive %qQ(@TG  
Bits/(Pixel*Frame)                       : 0.185 ?4Lo"igAA  
Stream size                              : 1.33 GiB (92%) P2p^jm   
Writing library                          : x264 core 120 -0`hJ_(  
Encoding settings                        : cabac=1 / ref=4 / deblock=1:0:0 / analyse=0x3:0x113 / me=hex / subme=7 / psy=1 / psy_rd=1.00:0.00 / mixed_ref=1 / me_range=16 / chroma_me=1 / trellis=0 / 8x8dct=1 / cqm=0 / deadzone=21,11 / fast_pskip=1 / chroma_qp_offset=-2 / threads=3 / sliced_threads=0 / nr=0 / decimate=1 / interlaced=0 / bluray_compat=0 / constrained_intra=0 / bframes=0 / weightp=2 / keyint=250 / keyint_min=25 / scenecut=40 / intra_refresh=0 / rc_lookahead=40 / rc=crf / mbtree=1 / crf=21.0 / qcomp=0.60 / qpmin=0 / qpmax=69 / qpstep=4 / ip_ratio=1.40 / aq=1:1.00 J]0#M:w&  
Default                                  : Yes taQ[>x7b  
Forced                                   : No
Audio z aF0nov  
ID                                       : 2 X$9QW3.M  
Format                                   : Vorbis VK;x6*Y  
Format settings, Floor                   : 1 lrhAO"/1  
Codec ID                                 : A_VORBIS &8_;:  
Duration                                 : 2h 13mn k6'#  
Bit rate mode                            : Variable YeC,@d[  
Bit rate                                 : 96.0 Kbps T[h}A"yK;  
Channel(s)                               : 2 channels f=_?<I{  
Sampling rate                            : 48.0 KHz 4 uy@ {  
Compression mode                         : Lossy ).+xcv   
Stream size                              : 92.0 MiB (6%) xeYySM=  
Writing library                          : libVorbis (Schaufenugget) (20101101 (Schaufenugget)) =o{: -EKQF  
Default                                  : Yes v[, v{5b  
Forced                                   : No o^_W$4Fc  
Writing application                      : Lavc53.42.0
o]|oAN9  
*C3uMiz  
此帖售价 4 金钱,已有 47 人购买 [记录] [购买]
购买后,将显示帖子中所有出售内容。
若发现会员采用欺骗的方法获取财富,请立刻举报,我们会对会员处以2-N倍的罚金,严重者封掉ID!
此段为出售的内容,购买后显示
taWirq d9  
3条评分金钱+11威望+2
傻傻滴灰太狼 金钱 +1 这个可以有 2014-02-22
happylee 威望 +2 前排支持,压制辛苦了! 2013-07-06
happylee 金钱 +10 前排支持,压制辛苦了! 2013-07-06
离线流行王冠

发帖
672
金钱
660
威望
-9
贡献值
16
交易币
737
只看该作者 2楼 发表于: 2013-07-06
辛苦了下载.
离线xthriller

发帖
1175
金钱
284
威望
127
贡献值
39
交易币
1284
只看该作者 3楼 发表于: 2013-07-06
没DVD,先把压制收了!!!
只有一个偶像,只有一个MJ

发帖
521
金钱
7193
威望
124
贡献值
33
交易币
55
只看该作者 4楼 发表于: 2013-07-06
不错不错,草爷俺来捧捧场
我的头像是个帅气的老爷爷!

离线cromwell

发帖
1836
金钱
37850
威望
439
贡献值
177
交易币
1042
只看该作者 5楼 发表于: 2013-07-06
幽灵是如此钟爱赫尔辛基这场啊
杯具7K党——
网速7K以下均可以加入,可随时交流惨痛的下载经验
不管是下载下到昏头,还是上传上到头大
欢迎悲惨的MJ资源收藏迷~~~
离线MJ守护者

发帖
1443
金钱
24943
威望
768
贡献值
304
交易币
1890
只看该作者 6楼 发表于: 2013-07-06
啊哈,比那个AVI小多了
KOPSKY:  blog.sina.com.cn/kopsky

发帖
706
金钱
3072
威望
203
贡献值
51
交易币
771
只看该作者 7楼 发表于: 2013-07-06
收了,谢谢!!
离线mjghosts

发帖
8255
金钱
219223
威望
9187
贡献值
2734
交易币
4790
只看该作者 8楼 发表于: 2013-07-06
回 cromwell 的帖子
莫非我的无厘头简介让你误会了?呵呵。这场除了MJ的滑步特赞以外没有太多吸引我的地方了。历史巡演看到现在最喜欢的是哥德堡的。
离线jerry黄哲

发帖
1102
金钱
8824
威望
19
贡献值
34
交易币
1243
只看该作者 9楼 发表于: 2013-07-06
哎哟不错哦
快速回复
限100 字节
 
上一个 下一个