论坛风格切换切换到宽版
  • 5200阅读
  • 55回复

1997.HIStory演唱会.Helsinki.480p.x264.25fps-MSZ压制【百度盘】 [复制链接]

上一主题 下一主题
离线mjghosts
 

发帖
8247
金钱
217794
威望
9174
贡献值
2723
交易币
4758
只看楼主 倒序阅读 楼主  发表于: 2013-07-06
下载链接请直转! l#P)9$%  
片源:MJDVDSHOP(Frobodobo) ( yk^%  
fFD:E} >5  
历史巡演96和97相隔仅一年,但就以我们目前可见的十来场TV版中,97年的4场画质要比96年的好不少。MJDVDSHOP赫尔辛基历史的高质量片源来自歌迷Frobodobo,实属经典,现提供一个小版本收藏。压制技术不怎么样,7G多的DVD片源现在是1.44G的MKV,片长134分钟,体积稍比标准VCD格式大一些。
ZA@QP1  
:O:Rfmr~  
a/ !!Y@7  
D`]Lm24_]  
Unique ID                                : 26820192619961833125798312978751097176 (0x142D6196DAAA38A7803962A5297F0958) {~DYf*RZ  
Complete name                            : G:\压制作品\[MJSHOWZONE]1997.HIStory演唱会.Helsinki.480p.x264.25fps.mkv srfFJX7*  
Format                                   : Matroska '0g1v7Gx  
Format version                           : Version 2 2 g"_ *[  
File size                                : 1.45 GiB Dt,b\6  
Duration                                 : 2h 13mn ) |`eCzCB  
Overall bit rate mode                    : Variable IuDg-M[  
Overall bit rate                         : 1 546 Kbps 'Im7^!-d  
Writing application                      : Kirara Encoder iMRb` \KH  
Writing library                          : Kirara Encoder
Video p D!IB`cA4  
ID                                       : 1 :kSA^w8  
Format                                   : AVC jI@0jxF  
Format/Info                              : Advanced Video Codec RWmQP%A}aw  
Format profile                           : High@L4.1 quc?]rb  
Format settings, CABAC                   : Yes KquHc-fzqr  
Format settings, ReFrames                : 4 frames T/G1v;]  
Codec ID                                 : V_MPEG4/ISO/AVC p,}-8#K[  
Duration                                 : 2h 13mn zR h1  
Bit rate                                 : 1 419 Kbps b_-ESs]g  
Width                                    : 640 pixels NylN-X7[#  
Height                                   : 480 pixels qdh;zAMx  
Display aspect ratio                     : 4:3 6FG h=~{3,  
Frame rate mode                          : Constant ,eOOV@3C  
Frame rate                               : 25.000 fps '{XDhK  
Color space                              : YUV GdEkA  
Chroma subsampling                       : 4:2:0 \c>9f"jS_  
Bit depth                                : 8 bits 4;Z`u.1  
Scan type                                : Progressive xy46].x-  
Bits/(Pixel*Frame)                       : 0.185 +oBf\!{cW  
Stream size                              : 1.33 GiB (92%) [ik D4p=  
Writing library                          : x264 core 120 #9}KC 9f  
Encoding settings                        : cabac=1 / ref=4 / deblock=1:0:0 / analyse=0x3:0x113 / me=hex / subme=7 / psy=1 / psy_rd=1.00:0.00 / mixed_ref=1 / me_range=16 / chroma_me=1 / trellis=0 / 8x8dct=1 / cqm=0 / deadzone=21,11 / fast_pskip=1 / chroma_qp_offset=-2 / threads=3 / sliced_threads=0 / nr=0 / decimate=1 / interlaced=0 / bluray_compat=0 / constrained_intra=0 / bframes=0 / weightp=2 / keyint=250 / keyint_min=25 / scenecut=40 / intra_refresh=0 / rc_lookahead=40 / rc=crf / mbtree=1 / crf=21.0 / qcomp=0.60 / qpmin=0 / qpmax=69 / qpstep=4 / ip_ratio=1.40 / aq=1:1.00 GZ/.eYE  
Default                                  : Yes 2/=CrK  
Forced                                   : No
Audio &WN4/=QW-J  
ID                                       : 2 ir qlU  
Format                                   : Vorbis M|?qSFv:  
Format settings, Floor                   : 1 %\\l/{`eW  
Codec ID                                 : A_VORBIS jIK *psaV  
Duration                                 : 2h 13mn f% ZqK_CW  
Bit rate mode                            : Variable eHF#ME  
Bit rate                                 : 96.0 Kbps {2R b^K  
Channel(s)                               : 2 channels F)j-D(c4  
Sampling rate                            : 48.0 KHz Tc,Bv7:  
Compression mode                         : Lossy .6xP>!E}Q  
Stream size                              : 92.0 MiB (6%) ED"@!M`1  
Writing library                          : libVorbis (Schaufenugget) (20101101 (Schaufenugget)) 'j !!h4  
Default                                  : Yes `i8osX[&p  
Forced                                   : No R/waWz\D  
Writing application                      : Lavc53.42.0
j.uN`cU!  
sD1L P  
此帖售价 4 金钱,已有 47 人购买 [记录] [购买]
购买后,将显示帖子中所有出售内容。
若发现会员采用欺骗的方法获取财富,请立刻举报,我们会对会员处以2-N倍的罚金,严重者封掉ID!
此段为出售的内容,购买后显示
RU,f|hB 4  
3条评分金钱+11威望+2
傻傻滴灰太狼 金钱 +1 这个可以有 2014-02-22
happylee 威望 +2 前排支持,压制辛苦了! 2013-07-06
happylee 金钱 +10 前排支持,压制辛苦了! 2013-07-06
离线流行王冠

发帖
672
金钱
660
威望
-9
贡献值
16
交易币
737
只看该作者 2楼 发表于: 2013-07-06
辛苦了下载.
离线xthriller

发帖
1175
金钱
274
威望
127
贡献值
39
交易币
1284
只看该作者 3楼 发表于: 2013-07-06
没DVD,先把压制收了!!!
只有一个偶像,只有一个MJ

发帖
521
金钱
7193
威望
124
贡献值
33
交易币
55
只看该作者 4楼 发表于: 2013-07-06
不错不错,草爷俺来捧捧场
我的头像是个帅气的老爷爷!

离线cromwell

发帖
1836
金钱
37850
威望
439
贡献值
177
交易币
1042
只看该作者 5楼 发表于: 2013-07-06
幽灵是如此钟爱赫尔辛基这场啊
杯具7K党——
网速7K以下均可以加入,可随时交流惨痛的下载经验
不管是下载下到昏头,还是上传上到头大
欢迎悲惨的MJ资源收藏迷~~~
离线MJ守护者

发帖
1443
金钱
24943
威望
768
贡献值
304
交易币
1890
只看该作者 6楼 发表于: 2013-07-06
啊哈,比那个AVI小多了
KOPSKY:  blog.sina.com.cn/kopsky

发帖
706
金钱
3072
威望
203
贡献值
51
交易币
771
只看该作者 7楼 发表于: 2013-07-06
收了,谢谢!!
离线mjghosts

发帖
8247
金钱
217794
威望
9174
贡献值
2723
交易币
4758
只看该作者 8楼 发表于: 2013-07-06
回 cromwell 的帖子
莫非我的无厘头简介让你误会了?呵呵。这场除了MJ的滑步特赞以外没有太多吸引我的地方了。历史巡演看到现在最喜欢的是哥德堡的。
离线jerry黄哲

发帖
1102
金钱
8819
威望
19
贡献值
34
交易币
1243
只看该作者 9楼 发表于: 2013-07-06
哎哟不错哦
快速回复
限100 字节
 
上一个 下一个