论坛风格切换切换到宽版
  • 6767阅读
  • 59回复

1996.HIStory演唱会.Auckland.480p.x264.25fps-MSZ压制【百度盘】 [复制链接]

上一主题 下一主题
离线mjghosts
 

发帖
8279
金钱
220938
威望
9195
贡献值
2742
交易币
4818
只看楼主 倒序阅读 楼主  发表于: 2013-07-08
下载链接请直转! ; >3q@9\D  
片源:MJDVDSHOP
jZeY^T)f"  
3ny>5A!;2  
Orange橘子版奥克兰历史是目前最完整的版本,比2台版多了Come Together,D.S.,Dangerous(掉帽子了)三首歌,并且有全部过场间奏,总长137分钟。
k `JP  
Qd;P?W6  
}U3+xl6g  
i!g}PbC[  
Unique ID                                : 139875629068924532920855708868394793853 (0x693B10F5D9C91448F8999ECECBB2BB7D) !v/5 G_pr  
Complete name                            : G:\压制作品\[MJSHOWZONE]1996.HIStory演唱会.Auckland.480p.x264.25fps.mkv AsFn%8_I  
Format                                   : Matroska [/dGOl+  
Format version                           : Version 2 )m8ve)l  
File size                                : 1.34 GiB j{U#g8  
Duration                                 : 2h 17mn Ok0zgi  
Overall bit rate mode                    : Variable 34D7qR  
Overall bit rate                         : 1 401 Kbps \zdY$3z  
Writing application                      : Kirara Encoder .wdWs tQ  
Writing library                          : Kirara Encoder
Video +H4H$H  
ID                                       : 1 fPA5]a9  
Format                                   : AVC l_MF9.z&  
Format/Info                              : Advanced Video Codec [2l2w[7Rid  
Format profile                           : High@L4.1 oLh 2:c  
Format settings, CABAC                   : Yes |Q\O% cb  
Format settings, ReFrames                : 4 frames VHbQLJ0  
Codec ID                                 : V_MPEG4/ISO/AVC n]Z() "D  
Duration                                 : 2h 17mn !*1Kjg3  
Bit rate                                 : 1 277 Kbps N\nxo0sl  
Width                                    : 640 pixels vvwQ/iJO4Q  
Height                                   : 480 pixels A}l+BIt  
Display aspect ratio                     : 4:3 s.IYPH|pn  
Frame rate mode                          : Constant (ptk!u6  
Frame rate                               : 25.000 fps ;kfl5  
Color space                              : YUV k%Wj+\93 f  
Chroma subsampling                       : 4:2:0 }l<:^lX  
Bit depth                                : 8 bits r0/aw  
Scan type                                : Progressive aL^ 58My&  
Bits/(Pixel*Frame)                       : 0.166 ApTE:Fm1  
Stream size                              : 1.22 GiB (91%) cD ?'lB-  
Writing library                          : x264 core 120 _)ZxD--Qg  
Encoding settings                        : cabac=1 / ref=4 / deblock=1:0:0 / analyse=0x3:0x113 / me=hex / subme=7 / psy=1 / psy_rd=1.00:0.00 / mixed_ref=1 / me_range=16 / chroma_me=1 / trellis=0 / 8x8dct=1 / cqm=0 / deadzone=21,11 / fast_pskip=1 / chroma_qp_offset=-2 / threads=3 / sliced_threads=0 / nr=0 / decimate=1 / interlaced=0 / bluray_compat=0 / constrained_intra=0 / bframes=0 / weightp=2 / keyint=250 / keyint_min=25 / scenecut=40 / intra_refresh=0 / rc_lookahead=40 / rc=crf / mbtree=1 / crf=22.0 / qcomp=0.60 / qpmin=0 / qpmax=69 / qpstep=4 / ip_ratio=1.40 / aq=1:1.00 p:zRgwcn  
Default                                  : Yes <UwYI_OX  
Forced                                   : No
Audio YySo%\d  
ID                                       : 2 %+oqAY m+s  
Format                                   : Vorbis uH)?`I\zrd  
Format settings, Floor                   : 1 xlH3t&i7  
Codec ID                                 : A_VORBIS @w;$M]o1  
Duration                                 : 2h 17mn F"1tPWn  
Bit rate mode                            : Variable *qu5o5Q  
Bit rate                                 : 96.0 Kbps '$rCV,3q  
Channel(s)                               : 2 channels sPVE_n  
Sampling rate                            : 48.0 KHz G:y+yE4  
Compression mode                         : Lossy ?#fm-5WIi  
Stream size                              : 94.2 MiB (7%) W/b)OlG"2  
Writing library                          : libVorbis (Schaufenugget) (20101101 (Schaufenugget)) a s('ZD.9  
Default                                  : Yes zx,9x*g  
Forced                                   : No ,|}mo+rb-  
Writing application                      : Lavc53.42.0
Hk@Gkx_  
 7gZ}Qy  
此帖售价 3 金钱,已有 51 人购买 [记录] [购买]
购买后,将显示帖子中所有出售内容。
若发现会员采用欺骗的方法获取财富,请立刻举报,我们会对会员处以2-N倍的罚金,严重者封掉ID!
此段为出售的内容,购买后显示
2条评分金钱+10威望+2
happylee 威望 +2 支持自压! 2013-07-08
happylee 金钱 +10 支持自压! 2013-07-08
离线HappyLee

发帖
2735
金钱
108347
威望
2797
贡献值
1409
交易币
3933
只看该作者 1楼 发表于: 2013-07-08
支持自压,如果体积再小点我就直接收下了,呵呵^_^
离线mjghosts

发帖
8279
金钱
220938
威望
9195
贡献值
2742
交易币
4818
只看该作者 2楼 发表于: 2013-07-08
回 happylee 的帖子
happylee:支持自压,如果体积再小点我就直接收下了,呵呵^_^ (2013-07-08 12:46)  #C&';HB;y  
,FzkGB#  
呵呵,体积控制无能啊。
离线流行王冠

发帖
672
金钱
660
威望
-9
贡献值
16
交易币
737
只看该作者 3楼 发表于: 2013-07-08
谢谢辛苦le
离线HappyLee

发帖
2735
金钱
108347
威望
2797
贡献值
1409
交易币
3933
只看该作者 4楼 发表于: 2013-07-08
回 mjghosts 的帖子
mjghosts:呵呵,体积控制无能啊。(2013-07-08 12:49)嬀/color] $$T a  
$A)[s$  
理论来说,480p,品质22压制,只要稍加降噪滤镜就可以把品质控制在1 GB之内……不要紧,不用勉强,已经很不错了^_^

发帖
2894
金钱
59745
威望
727
贡献值
479
交易币
3807
只看该作者 5楼 发表于: 2013-07-08
果断收下(前几天刚下了个DVD的)

内容来自Android手机客户端

离线jerry黄哲

发帖
1102
金钱
8824
威望
19
贡献值
34
交易币
1243
只看该作者 6楼 发表于: 2013-07-08
great ..............................job
离线我某人

发帖
251
金钱
190
威望
-60
贡献值
13
交易币
304
只看该作者 7楼 发表于: 2013-07-08
感谢分享
离线mjisbad

发帖
1342
金钱
1574
威望
96
贡献值
21
交易币
1409
只看该作者 8楼 发表于: 2013-07-09
支持好资源压制

离线Eclipse

发帖
1142
金钱
2135
威望
543
贡献值
271
交易币
1663
只看该作者 9楼 发表于: 2013-07-09
上面的参数直接看不懂、、
快速回复
限100 字节
 
上一个 下一个