论坛风格切换切换到宽版
  • 5148阅读
  • 59回复

1996.HIStory演唱会.Auckland.480p.x264.25fps-MSZ压制【百度盘】 [复制链接]

上一主题 下一主题
离线mjghosts
 

发帖
8256
金钱
219439
威望
9187
贡献值
2734
交易币
4791
只看楼主 倒序阅读 楼主  发表于: 2013-07-08
下载链接请直转! zcio\P=^|B  
片源:MJDVDSHOP
z$(`{ o%a  
_5OxESE  
Orange橘子版奥克兰历史是目前最完整的版本,比2台版多了Come Together,D.S.,Dangerous(掉帽子了)三首歌,并且有全部过场间奏,总长137分钟。
k[*> nE  
Z8f?uF  
I-Am9\   
],'"iVh  
Unique ID                                : 139875629068924532920855708868394793853 (0x693B10F5D9C91448F8999ECECBB2BB7D) DJ1!Xuu  
Complete name                            : G:\压制作品\[MJSHOWZONE]1996.HIStory演唱会.Auckland.480p.x264.25fps.mkv <uo@k'   
Format                                   : Matroska B& 5Md.h  
Format version                           : Version 2 fW=eB'Sl  
File size                                : 1.34 GiB Q+O./1x*,  
Duration                                 : 2h 17mn ,Z8)DC=  
Overall bit rate mode                    : Variable z]&?}o  
Overall bit rate                         : 1 401 Kbps w=5<mw  
Writing application                      : Kirara Encoder RP k'1nD  
Writing library                          : Kirara Encoder
Video 8/lgM'Eux  
ID                                       : 1 xrv0%  
Format                                   : AVC dq0!.gBT2  
Format/Info                              : Advanced Video Codec {+EnJ"  
Format profile                           : High@L4.1 {vQ:4O!:  
Format settings, CABAC                   : Yes oqzWL~  
Format settings, ReFrames                : 4 frames RrdLh z2N  
Codec ID                                 : V_MPEG4/ISO/AVC {]$)dz5  
Duration                                 : 2h 17mn 4[)tO-v:Y  
Bit rate                                 : 1 277 Kbps T wzpq1  
Width                                    : 640 pixels s'bTP(wl9  
Height                                   : 480 pixels Z;njSw%:  
Display aspect ratio                     : 4:3 >]uu?!PU  
Frame rate mode                          : Constant /!qP=ngw9  
Frame rate                               : 25.000 fps 9'@G7*Yn  
Color space                              : YUV Sh?eb  
Chroma subsampling                       : 4:2:0 Vhr6bu]  
Bit depth                                : 8 bits ?'tRu !~  
Scan type                                : Progressive CxSh.$l  
Bits/(Pixel*Frame)                       : 0.166 [HL>Lp&A?  
Stream size                              : 1.22 GiB (91%) ).A9>^6?{  
Writing library                          : x264 core 120 7[!dm_  
Encoding settings                        : cabac=1 / ref=4 / deblock=1:0:0 / analyse=0x3:0x113 / me=hex / subme=7 / psy=1 / psy_rd=1.00:0.00 / mixed_ref=1 / me_range=16 / chroma_me=1 / trellis=0 / 8x8dct=1 / cqm=0 / deadzone=21,11 / fast_pskip=1 / chroma_qp_offset=-2 / threads=3 / sliced_threads=0 / nr=0 / decimate=1 / interlaced=0 / bluray_compat=0 / constrained_intra=0 / bframes=0 / weightp=2 / keyint=250 / keyint_min=25 / scenecut=40 / intra_refresh=0 / rc_lookahead=40 / rc=crf / mbtree=1 / crf=22.0 / qcomp=0.60 / qpmin=0 / qpmax=69 / qpstep=4 / ip_ratio=1.40 / aq=1:1.00 1 -C~C]&  
Default                                  : Yes oZ^,*  
Forced                                   : No
Audio l(}MM|ka  
ID                                       : 2 Nh}u]<B  
Format                                   : Vorbis &flRrJ  
Format settings, Floor                   : 1 WglpWp)  
Codec ID                                 : A_VORBIS Wq"-T.i  
Duration                                 : 2h 17mn &I(\:|`o  
Bit rate mode                            : Variable Yyr9Kj:  
Bit rate                                 : 96.0 Kbps SMJRoK3  
Channel(s)                               : 2 channels ';My"/ Z-  
Sampling rate                            : 48.0 KHz &/ED.K  
Compression mode                         : Lossy s=F[.X9lp  
Stream size                              : 94.2 MiB (7%) &R?to>xr \  
Writing library                          : libVorbis (Schaufenugget) (20101101 (Schaufenugget)) ,UNk]vd  
Default                                  : Yes ,\cV,$  
Forced                                   : No aq8./^  
Writing application                      : Lavc53.42.0
@ =~k[o  
) \TH'  
此帖售价 3 金钱,已有 51 人购买 [记录] [购买]
购买后,将显示帖子中所有出售内容。
若发现会员采用欺骗的方法获取财富,请立刻举报,我们会对会员处以2-N倍的罚金,严重者封掉ID!
此段为出售的内容,购买后显示
2条评分金钱+10威望+2
happylee 威望 +2 支持自压! 2013-07-08
happylee 金钱 +10 支持自压! 2013-07-08
离线mjghosts

发帖
8256
金钱
219439
威望
9187
贡献值
2734
交易币
4791
只看该作者 2楼 发表于: 2013-07-08
回 happylee 的帖子
happylee:支持自压,如果体积再小点我就直接收下了,呵呵^_^ (2013-07-08 12:46)  |(\T;~7'  
tDIQ=  
呵呵,体积控制无能啊。
离线流行王冠

发帖
672
金钱
660
威望
-9
贡献值
16
交易币
737
只看该作者 3楼 发表于: 2013-07-08
谢谢辛苦le
离线HappyLee

发帖
2705
金钱
103844
威望
2591
贡献值
1204
交易币
3831
只看该作者 4楼 发表于: 2013-07-08
回 mjghosts 的帖子
mjghosts:呵呵,体积控制无能啊。(2013-07-08 12:49)嬀/color] ]Idwy|eG  
*?d\Zcj85[  
理论来说,480p,品质22压制,只要稍加降噪滤镜就可以把品质控制在1 GB之内……不要紧,不用勉强,已经很不错了^_^

发帖
2894
金钱
59589
威望
727
贡献值
479
交易币
3807
只看该作者 5楼 发表于: 2013-07-08
果断收下(前几天刚下了个DVD的)

内容来自Android手机客户端

离线jerry黄哲

发帖
1102
金钱
8824
威望
19
贡献值
34
交易币
1243
只看该作者 6楼 发表于: 2013-07-08
great ..............................job
离线我某人

发帖
251
金钱
190
威望
-60
贡献值
13
交易币
304
只看该作者 7楼 发表于: 2013-07-08
感谢分享
离线mjisbad

发帖
1333
金钱
1727
威望
96
贡献值
21
交易币
1400
只看该作者 8楼 发表于: 2013-07-09
支持好资源压制

离线Eclipse

发帖
1141
金钱
2130
威望
543
贡献值
271
交易币
1662
只看该作者 9楼 发表于: 2013-07-09
上面的参数直接看不懂、、
快速回复
限100 字节
 
上一个 下一个