论坛风格切换切换到宽版
  • 4709阅读
  • 57回复

1996.HIStory演唱会.Auckland.480p.x264.25fps-MSZ压制【百度盘】 [复制链接]

上一主题 下一主题
离线mjghosts
 

发帖
8248
金钱
217821
威望
9174
贡献值
2723
交易币
4759
只看楼主 倒序阅读 楼主  发表于: 2013-07-08
下载链接请直转! A7R [~  
片源:MJDVDSHOP
Oid;s!-S6  
2#X>^LH  
Orange橘子版奥克兰历史是目前最完整的版本,比2台版多了Come Together,D.S.,Dangerous(掉帽子了)三首歌,并且有全部过场间奏,总长137分钟。
B4{F)Zb  
$GQ{Ai:VwF  
z_%}F':  
|?\2F   
Unique ID                                : 139875629068924532920855708868394793853 (0x693B10F5D9C91448F8999ECECBB2BB7D) ;aDYw [  
Complete name                            : G:\压制作品\[MJSHOWZONE]1996.HIStory演唱会.Auckland.480p.x264.25fps.mkv ql7N\COoq  
Format                                   : Matroska R<Ct{f!  
Format version                           : Version 2 ,e{1l   
File size                                : 1.34 GiB 0}- MWbG  
Duration                                 : 2h 17mn s:J QV  
Overall bit rate mode                    : Variable 6OZ n7:)Y  
Overall bit rate                         : 1 401 Kbps /U= ?D(>x  
Writing application                      : Kirara Encoder i}~U/.P   
Writing library                          : Kirara Encoder
Video "cGjHy\j`  
ID                                       : 1 z`!f'I--!  
Format                                   : AVC ^\w!D{Y7Q  
Format/Info                              : Advanced Video Codec ' [%?j?2r  
Format profile                           : High@L4.1 3u4P [   
Format settings, CABAC                   : Yes :</KgR0I  
Format settings, ReFrames                : 4 frames [q~3$mjQ  
Codec ID                                 : V_MPEG4/ISO/AVC ?, cI!c`  
Duration                                 : 2h 17mn ~/;shs<9EM  
Bit rate                                 : 1 277 Kbps 8 )= "Ee  
Width                                    : 640 pixels }kMKA.O"  
Height                                   : 480 pixels ZvSEa{  
Display aspect ratio                     : 4:3 s;xErH@RA  
Frame rate mode                          : Constant a@N 1"O  
Frame rate                               : 25.000 fps P*kC>lvSv  
Color space                              : YUV p0C|ECH  
Chroma subsampling                       : 4:2:0 _OJ19Ry  
Bit depth                                : 8 bits >0I\w$L  
Scan type                                : Progressive &Tk@2<5=  
Bits/(Pixel*Frame)                       : 0.166 t#=FFQOt  
Stream size                              : 1.22 GiB (91%) 7DIFJJE'  
Writing library                          : x264 core 120 vS G vv43G  
Encoding settings                        : cabac=1 / ref=4 / deblock=1:0:0 / analyse=0x3:0x113 / me=hex / subme=7 / psy=1 / psy_rd=1.00:0.00 / mixed_ref=1 / me_range=16 / chroma_me=1 / trellis=0 / 8x8dct=1 / cqm=0 / deadzone=21,11 / fast_pskip=1 / chroma_qp_offset=-2 / threads=3 / sliced_threads=0 / nr=0 / decimate=1 / interlaced=0 / bluray_compat=0 / constrained_intra=0 / bframes=0 / weightp=2 / keyint=250 / keyint_min=25 / scenecut=40 / intra_refresh=0 / rc_lookahead=40 / rc=crf / mbtree=1 / crf=22.0 / qcomp=0.60 / qpmin=0 / qpmax=69 / qpstep=4 / ip_ratio=1.40 / aq=1:1.00 YfVZ59l4y6  
Default                                  : Yes |:5[`  
Forced                                   : No
Audio >npFg@A  
ID                                       : 2 _r vO#h  
Format                                   : Vorbis <CGJ:% AY  
Format settings, Floor                   : 1 _:VIlg U  
Codec ID                                 : A_VORBIS gt Rs||  
Duration                                 : 2h 17mn ^THyohK  
Bit rate mode                            : Variable nx@ h  
Bit rate                                 : 96.0 Kbps B"2#}HM  
Channel(s)                               : 2 channels eX <@qa4<  
Sampling rate                            : 48.0 KHz \* SEj&9  
Compression mode                         : Lossy qt4^e7o  
Stream size                              : 94.2 MiB (7%) dn:/8~B"X  
Writing library                          : libVorbis (Schaufenugget) (20101101 (Schaufenugget)) >IE`, fe  
Default                                  : Yes |oV_7%mlu  
Forced                                   : No b]Z>P{ j  
Writing application                      : Lavc53.42.0
x`VA3nE9  
+z?SKc  
此帖售价 3 金钱,已有 49 人购买 [记录] [购买]
购买后,将显示帖子中所有出售内容。
若发现会员采用欺骗的方法获取财富,请立刻举报,我们会对会员处以2-N倍的罚金,严重者封掉ID!
此段为出售的内容,购买后显示
2条评分金钱+10威望+2
happylee 威望 +2 支持自压! 2013-07-08
happylee 金钱 +10 支持自压! 2013-07-08
离线HappyLee

发帖
2692
金钱
102835
威望
2565
贡献值
1188
交易币
3806
只看该作者 1楼 发表于: 2013-07-08
支持自压,如果体积再小点我就直接收下了,呵呵^_^
离线mjghosts

发帖
8248
金钱
217821
威望
9174
贡献值
2723
交易币
4759
只看该作者 2楼 发表于: 2013-07-08
回 happylee 的帖子
happylee:支持自压,如果体积再小点我就直接收下了,呵呵^_^ (2013-07-08 12:46)  xh2r?K@k>  
lEHx/#qt9  
呵呵,体积控制无能啊。
离线流行王冠

发帖
672
金钱
660
威望
-9
贡献值
16
交易币
737
只看该作者 3楼 发表于: 2013-07-08
谢谢辛苦le
离线HappyLee

发帖
2692
金钱
102835
威望
2565
贡献值
1188
交易币
3806
只看该作者 4楼 发表于: 2013-07-08
回 mjghosts 的帖子
mjghosts:呵呵,体积控制无能啊。(2013-07-08 12:49)嬀/color] 43h06X`  
yCR8c,'8  
理论来说,480p,品质22压制,只要稍加降噪滤镜就可以把品质控制在1 GB之内……不要紧,不用勉强,已经很不错了^_^

发帖
2894
金钱
59573
威望
727
贡献值
479
交易币
3807
只看该作者 5楼 发表于: 2013-07-08
果断收下(前几天刚下了个DVD的)

内容来自Android手机客户端

离线jerry黄哲

发帖
1102
金钱
8819
威望
19
贡献值
34
交易币
1243
只看该作者 6楼 发表于: 2013-07-08
great ..............................job
离线我某人

发帖
251
金钱
190
威望
-60
贡献值
13
交易币
304
只看该作者 7楼 发表于: 2013-07-08
感谢分享
离线mjisbad

发帖
1323
金钱
1849
威望
96
贡献值
21
交易币
1390
只看该作者 8楼 发表于: 2013-07-09
支持好资源压制

离线Eclipse

发帖
1140
金钱
2145
威望
543
贡献值
271
交易币
1661
只看该作者 9楼 发表于: 2013-07-09
上面的参数直接看不懂、、
快速回复
限100 字节
 
上一个 下一个