论坛风格切换切换到宽版
  • 6668阅读
  • 59回复

1996.HIStory演唱会.Auckland.480p.x264.25fps-MSZ压制【百度盘】 [复制链接]

上一主题 下一主题
离线mjghosts
 

发帖
8279
金钱
220430
威望
9195
贡献值
2742
交易币
4818
只看楼主 倒序阅读 楼主  发表于: 2013-07-08
下载链接请直转! HFWm}vA:  
片源:MJDVDSHOP
 !Ocg  
'6J$X-  
Orange橘子版奥克兰历史是目前最完整的版本,比2台版多了Come Together,D.S.,Dangerous(掉帽子了)三首歌,并且有全部过场间奏,总长137分钟。
-vAG5x/,  
,?~,"IQyi[  
pvxqeC9`  
7B"aFnK;[J  
Unique ID                                : 139875629068924532920855708868394793853 (0x693B10F5D9C91448F8999ECECBB2BB7D) Ap18qp  
Complete name                            : G:\压制作品\[MJSHOWZONE]1996.HIStory演唱会.Auckland.480p.x264.25fps.mkv q`zR6  
Format                                   : Matroska m]pvJJ@  
Format version                           : Version 2 v3#47F)  
File size                                : 1.34 GiB 8#-}3~l[  
Duration                                 : 2h 17mn >pHvBFa3G  
Overall bit rate mode                    : Variable 1uzfV)  
Overall bit rate                         : 1 401 Kbps Z6pDQ^Ii  
Writing application                      : Kirara Encoder ||NCVGJG  
Writing library                          : Kirara Encoder
Video M!@[lJ  
ID                                       : 1 "E#%x{d  
Format                                   : AVC kp"cHJNx  
Format/Info                              : Advanced Video Codec VQ`O;n6/`  
Format profile                           : High@L4.1 U {v_0\ES  
Format settings, CABAC                   : Yes 4f5$^uN$qA  
Format settings, ReFrames                : 4 frames @^@-A\7[KO  
Codec ID                                 : V_MPEG4/ISO/AVC \GP c_m:qL  
Duration                                 : 2h 17mn 54&2SU$kx  
Bit rate                                 : 1 277 Kbps :=@[FXD4  
Width                                    : 640 pixels 5E8P bV-l  
Height                                   : 480 pixels hJ :+*46  
Display aspect ratio                     : 4:3 . b"e`Bw_=  
Frame rate mode                          : Constant ;RI,zQ  
Frame rate                               : 25.000 fps b04~z&Xv  
Color space                              : YUV B#}RMFIj  
Chroma subsampling                       : 4:2:0 KN=Orx7Gy  
Bit depth                                : 8 bits y;H 3g#  
Scan type                                : Progressive g;pymz  
Bits/(Pixel*Frame)                       : 0.166 8VnZ@*  
Stream size                              : 1.22 GiB (91%) h4C B1K  
Writing library                          : x264 core 120 %rsW:nl  
Encoding settings                        : cabac=1 / ref=4 / deblock=1:0:0 / analyse=0x3:0x113 / me=hex / subme=7 / psy=1 / psy_rd=1.00:0.00 / mixed_ref=1 / me_range=16 / chroma_me=1 / trellis=0 / 8x8dct=1 / cqm=0 / deadzone=21,11 / fast_pskip=1 / chroma_qp_offset=-2 / threads=3 / sliced_threads=0 / nr=0 / decimate=1 / interlaced=0 / bluray_compat=0 / constrained_intra=0 / bframes=0 / weightp=2 / keyint=250 / keyint_min=25 / scenecut=40 / intra_refresh=0 / rc_lookahead=40 / rc=crf / mbtree=1 / crf=22.0 / qcomp=0.60 / qpmin=0 / qpmax=69 / qpstep=4 / ip_ratio=1.40 / aq=1:1.00 7iJl W&W  
Default                                  : Yes V2*b f`/V  
Forced                                   : No
Audio 4PdFq*A  
ID                                       : 2 laAG%lq/'  
Format                                   : Vorbis g7F>o76M  
Format settings, Floor                   : 1 Y9C]-zEv  
Codec ID                                 : A_VORBIS QeK~A@|F&  
Duration                                 : 2h 17mn l4; LV7Ji  
Bit rate mode                            : Variable vUW!  
Bit rate                                 : 96.0 Kbps p7z#4 GW  
Channel(s)                               : 2 channels ukN#>e+L1  
Sampling rate                            : 48.0 KHz D%Wr/6X  
Compression mode                         : Lossy Si;e_a  
Stream size                              : 94.2 MiB (7%) UZ y  
Writing library                          : libVorbis (Schaufenugget) (20101101 (Schaufenugget)) ':HV9]k  
Default                                  : Yes a+MC[aFr  
Forced                                   : No R(csJ4F  
Writing application                      : Lavc53.42.0
k%hif8y  
1y>P<[  
此帖售价 3 金钱,已有 51 人购买 [记录] [购买]
购买后,将显示帖子中所有出售内容。
若发现会员采用欺骗的方法获取财富,请立刻举报,我们会对会员处以2-N倍的罚金,严重者封掉ID!
此段为出售的内容,购买后显示
2条评分金钱+10威望+2
happylee 威望 +2 支持自压! 2013-07-08
happylee 金钱 +10 支持自压! 2013-07-08
离线HappyLee

发帖
2729
金钱
107501
威望
2761
贡献值
1395
交易币
3919
只看该作者 1楼 发表于: 2013-07-08
支持自压,如果体积再小点我就直接收下了,呵呵^_^
离线mjghosts

发帖
8279
金钱
220430
威望
9195
贡献值
2742
交易币
4818
只看该作者 2楼 发表于: 2013-07-08
回 happylee 的帖子
happylee:支持自压,如果体积再小点我就直接收下了,呵呵^_^ (2013-07-08 12:46)  }R+#>P  
-sv%A7i  
呵呵,体积控制无能啊。
离线流行王冠

发帖
672
金钱
660
威望
-9
贡献值
16
交易币
737
只看该作者 3楼 发表于: 2013-07-08
谢谢辛苦le
离线HappyLee

发帖
2729
金钱
107501
威望
2761
贡献值
1395
交易币
3919
只看该作者 4楼 发表于: 2013-07-08
回 mjghosts 的帖子
mjghosts:呵呵,体积控制无能啊。(2013-07-08 12:49)嬀/color] P*8DM3':  
\_zp4Xb2  
理论来说,480p,品质22压制,只要稍加降噪滤镜就可以把品质控制在1 GB之内……不要紧,不用勉强,已经很不错了^_^

发帖
2894
金钱
59725
威望
727
贡献值
479
交易币
3807
只看该作者 5楼 发表于: 2013-07-08
果断收下(前几天刚下了个DVD的)

内容来自Android手机客户端

离线jerry黄哲

发帖
1102
金钱
8824
威望
19
贡献值
34
交易币
1243
只看该作者 6楼 发表于: 2013-07-08
great ..............................job
离线我某人

发帖
251
金钱
190
威望
-60
贡献值
13
交易币
304
只看该作者 7楼 发表于: 2013-07-08
感谢分享
离线mjisbad

发帖
1341
金钱
1569
威望
96
贡献值
21
交易币
1408
只看该作者 8楼 发表于: 2013-07-09
支持好资源压制

离线Eclipse

发帖
1141
金钱
2130
威望
543
贡献值
271
交易币
1662
只看该作者 9楼 发表于: 2013-07-09
上面的参数直接看不懂、、
快速回复
限100 字节
 
上一个 下一个