论坛风格切换切换到宽版
  • 5009阅读
  • 46回复

1997.HIStory演唱会.Gothenburg.480p.x264.25fps-MSZ压制【百度盘】 [复制链接]

上一主题 下一主题
离线mjghosts
 

发帖
8256
金钱
219439
威望
9187
贡献值
2734
交易币
4791
只看楼主 倒序阅读 楼主  发表于: 2013-07-10
下载链接请直转!   2}9M7Z",2  
片源:michaelvideos.ro
"i\^GK=  
r:t3Kf`+E-  
97历史巡演-哥德堡站,131分钟全场完整记录。个人感觉这是四场97历史TV中状态较好的一场,也是目前为止我最喜欢观看的一场,极力推荐此压制版本。
:f0#4'f  
3oPyh $*  
NqN}] nu6  
% 3<7HY]~  
Unique ID                                : 17214648786303087126847698581970914992 (0xCF36BB6CB436C097177C7A961928EB0) *dx E (dP  
Complete name                            : G:\压制作品\[MJSHOWZONE]1997.HIStory演唱会.Gothenburg.480p.x264.25fps.mkv 55zy]|F"  
Format                                   : Matroska 9bUFxSH  
Format version                           : Version 2 /Uni6O)oc  
File size                                : 1.24 GiB Bh65qHQO  
Duration                                 : 2h 11mn "6i3'jc`  
Overall bit rate mode                    : Variable |+Tq[5&R  
Overall bit rate                         : 1 345 Kbps UYhxgPGsj  
Writing application                      : Kirara Encoder #1p\\Av  
Writing library                          : Kirara Encoder
Video X?'pcYSL  
ID                                       : 1 1;~| [C  
Format                                   : AVC pL ,l  
Format/Info                              : Advanced Video Codec 9`7>" [=P  
Format profile                           : High@L4.1 @jKB[S;JSn  
Format settings, CABAC                   : Yes I M G^L  
Format settings, ReFrames                : 4 frames BCh|^Pk  
Codec ID                                 : V_MPEG4/ISO/AVC A5Lzd  
Duration                                 : 2h 11mn H'&[kgnQ@  
Bit rate                                 : 1 222 Kbps V+t's*9o3  
Width                                    : 640 pixels 5 &0qr$  
Height                                   : 480 pixels WF<3 7"A@  
Display aspect ratio                     : 4:3 [gj>ey8T  
Frame rate mode                          : Constant 8k;il54#  
Frame rate                               : 25.000 fps \susLD  
Color space                              : YUV 9T0g%&  
Chroma subsampling                       : 4:2:0 ]88qjKL  
Bit depth                                : 8 bits %Rk DR  
Scan type                                : Progressive -,2CMS#N  
Bits/(Pixel*Frame)                       : 0.159 c7RQ7\  
Stream size                              : 1.12 GiB (91%) ~ 7<M6F  
Writing library                          : x264 core 120 ilAhw4A  
Encoding settings                        : cabac=1 / ref=4 / deblock=1:0:0 / analyse=0x3:0x113 / me=hex / subme=7 / psy=1 / psy_rd=1.00:0.00 / mixed_ref=1 / me_range=16 / chroma_me=1 / trellis=0 / 8x8dct=1 / cqm=0 / deadzone=21,11 / fast_pskip=1 / chroma_qp_offset=-2 / threads=3 / sliced_threads=0 / nr=0 / decimate=1 / interlaced=0 / bluray_compat=0 / constrained_intra=0 / bframes=0 / weightp=2 / keyint=250 / keyint_min=25 / scenecut=40 / intra_refresh=0 / rc_lookahead=40 / rc=crf / mbtree=1 / crf=21.0 / qcomp=0.60 / qpmin=0 / qpmax=69 / qpstep=4 / ip_ratio=1.40 / aq=1:1.00 w/*m_O\!  
Default                                  : Yes nlA:C>=  
Forced                                   : No
Audio lSc=c-iOv  
ID                                       : 2 nu(7Y YCM$  
Format                                   : Vorbis SYa O'c  
Format settings, Floor                   : 1 Sb(OG 6  
Codec ID                                 : A_VORBIS Ih OAMH1  
Duration                                 : 2h 11mn ^b.#4i (v  
Bit rate mode                            : Variable bF5"ab0  
Bit rate                                 : 96.0 Kbps &xUD (  
Channel(s)                               : 2 channels ?'_6M4UKa  
Sampling rate                            : 48.0 KHz dCe LW  
Compression mode                         : Lossy U_ l9CZ  
Stream size                              : 90.4 MiB (7%) eze%RjO}  
Writing library                          : libVorbis (Schaufenugget) (20101101 (Schaufenugget)) #'0Yzh]qc  
Default                                  : Yes "c|Rpzs[  
Forced                                   : No hS&l4 \I'Z  
Writing application                      : Lavc53.42.0
A+3SLB  
Eku  9u  
此帖售价 5 金钱,已有 41 人购买 [记录] [购买]
购买后,将显示帖子中所有出售内容。
若发现会员采用欺骗的方法获取财富,请立刻举报,我们会对会员处以2-N倍的罚金,严重者封掉ID!
此段为出售的内容,购买后显示
4条评分金钱+20威望+4
傻傻滴灰太狼 威望 +2 开始收压制 2014-02-22
傻傻滴灰太狼 金钱 +10 开始收压制 2014-02-22
happylee 威望 +2 收了,感谢压制! 2013-07-10
happylee 金钱 +10 收了,感谢压制! 2013-07-10
离线jerry黄哲

发帖
1102
金钱
8824
威望
19
贡献值
34
交易币
1243
只看该作者 1楼 发表于: 2013-07-10
好东西、

发帖
762
金钱
24869
威望
1113
贡献值
416
交易币
1569
只看该作者 2楼 发表于: 2013-07-10
离线xthriller

发帖
1176
金钱
289
威望
127
贡献值
39
交易币
1285
只看该作者 3楼 发表于: 2013-07-10
好压!
只有一个偶像,只有一个MJ
离线jabvhno

发帖
290
金钱
1055
威望
62
贡献值
25
交易币
391
只看该作者 4楼 发表于: 2013-07-10
大小适合,很好
[img][/img]

发帖
2894
金钱
59589
威望
727
贡献值
479
交易币
3807
只看该作者 5楼 发表于: 2013-07-10
真棒,昨天刚说今天就传上来了。

内容来自Android手机客户端

离线流行王冠

发帖
672
金钱
660
威望
-9
贡献值
16
交易币
737
只看该作者 6楼 发表于: 2013-07-10
希望楼主压制一下汉城历史,谢谢
离线jerry黄哲

发帖
1102
金钱
8824
威望
19
贡献值
34
交易币
1243
只看该作者 7楼 发表于: 2013-07-10
回 蓝白色的香蕉 的帖子
蓝白色的香蕉:真棒,昨天刚说今天就传上来了。 (2013-07-10 11:15)  ^+yz}YFM  
y-hTTd"{  
我想要2场阿姆斯特丹压制的、之前下了dvd、还想要压制、、、

发帖
854
金钱
5134
威望
172
贡献值
42
交易币
1028
只看该作者 9楼 发表于: 2013-07-10
很清晰!
快速回复
限100 字节
 
上一个 下一个