论坛风格切换切换到宽版
  • 4848阅读
  • 46回复

1997.HIStory演唱会.Gothenburg.480p.x264.25fps-MSZ压制【百度盘】 [复制链接]

上一主题 下一主题
离线mjghosts
 

发帖
8255
金钱
219223
威望
9187
贡献值
2734
交易币
4790
只看楼主 倒序阅读 楼主  发表于: 2013-07-10
下载链接请直转!   by,3A  
片源:michaelvideos.ro
OO,EUOh-T:  
gebL6oc%  
97历史巡演-哥德堡站,131分钟全场完整记录。个人感觉这是四场97历史TV中状态较好的一场,也是目前为止我最喜欢观看的一场,极力推荐此压制版本。
8VC%4+.FF  
}2Y`Lr  
rdAy '38g  
u Qg$hS  
Unique ID                                : 17214648786303087126847698581970914992 (0xCF36BB6CB436C097177C7A961928EB0) ' hdLQ\J  
Complete name                            : G:\压制作品\[MJSHOWZONE]1997.HIStory演唱会.Gothenburg.480p.x264.25fps.mkv u0qTP]  
Format                                   : Matroska )XoMOz  
Format version                           : Version 2 us.IdG  
File size                                : 1.24 GiB ,)VAKrSg  
Duration                                 : 2h 11mn |A+,M"F?  
Overall bit rate mode                    : Variable IfY?P(P  
Overall bit rate                         : 1 345 Kbps TJZ arNc$  
Writing application                      : Kirara Encoder (aq-aum-I  
Writing library                          : Kirara Encoder
Video $ P2*qpqy  
ID                                       : 1  w U1[/  
Format                                   : AVC vjA!+_I6  
Format/Info                              : Advanced Video Codec [e{D  
Format profile                           : High@L4.1 [lu+"V,<LJ  
Format settings, CABAC                   : Yes V0%a/Hi v  
Format settings, ReFrames                : 4 frames f>&*%[fw  
Codec ID                                 : V_MPEG4/ISO/AVC (Bv~6tj~J  
Duration                                 : 2h 11mn 1{1mL-I;  
Bit rate                                 : 1 222 Kbps 0sCWIGU W  
Width                                    : 640 pixels B$7Cjv  
Height                                   : 480 pixels 6 B7 F  
Display aspect ratio                     : 4:3 R0|4KT-i  
Frame rate mode                          : Constant <UTO\w%  
Frame rate                               : 25.000 fps ID<[=es6  
Color space                              : YUV kxmsrQ>av  
Chroma subsampling                       : 4:2:0 +"|TPKas  
Bit depth                                : 8 bits 1Ve~P"w  
Scan type                                : Progressive Gh<#wa['}  
Bits/(Pixel*Frame)                       : 0.159 Pu'NSNT  
Stream size                              : 1.12 GiB (91%) Q!I><u  
Writing library                          : x264 core 120 IYr}%:P)  
Encoding settings                        : cabac=1 / ref=4 / deblock=1:0:0 / analyse=0x3:0x113 / me=hex / subme=7 / psy=1 / psy_rd=1.00:0.00 / mixed_ref=1 / me_range=16 / chroma_me=1 / trellis=0 / 8x8dct=1 / cqm=0 / deadzone=21,11 / fast_pskip=1 / chroma_qp_offset=-2 / threads=3 / sliced_threads=0 / nr=0 / decimate=1 / interlaced=0 / bluray_compat=0 / constrained_intra=0 / bframes=0 / weightp=2 / keyint=250 / keyint_min=25 / scenecut=40 / intra_refresh=0 / rc_lookahead=40 / rc=crf / mbtree=1 / crf=21.0 / qcomp=0.60 / qpmin=0 / qpmax=69 / qpstep=4 / ip_ratio=1.40 / aq=1:1.00 st>%U9  
Default                                  : Yes 5,\|XQA5!  
Forced                                   : No
Audio A7T(p7pP  
ID                                       : 2 &v feBth  
Format                                   : Vorbis Wq?vAnLbk  
Format settings, Floor                   : 1 pIKfTkSqH  
Codec ID                                 : A_VORBIS aY DM)b}  
Duration                                 : 2h 11mn l7Wdbx5x0  
Bit rate mode                            : Variable y(Em+YTD  
Bit rate                                 : 96.0 Kbps &z>iqm"Ww  
Channel(s)                               : 2 channels c(!pcB8  
Sampling rate                            : 48.0 KHz ~K ('t9|  
Compression mode                         : Lossy 9"}5jq4*  
Stream size                              : 90.4 MiB (7%) w8#ji 1gX  
Writing library                          : libVorbis (Schaufenugget) (20101101 (Schaufenugget)) c<{~j~+  
Default                                  : Yes `H9 !Z$7G  
Forced                                   : No U}l=1B  
Writing application                      : Lavc53.42.0
N,*'")k9  
V}FH5z |  
此帖售价 5 金钱,已有 41 人购买 [记录] [购买]
购买后,将显示帖子中所有出售内容。
若发现会员采用欺骗的方法获取财富,请立刻举报,我们会对会员处以2-N倍的罚金,严重者封掉ID!
此段为出售的内容,购买后显示
4条评分金钱+20威望+4
傻傻滴灰太狼 威望 +2 开始收压制 2014-02-22
傻傻滴灰太狼 金钱 +10 开始收压制 2014-02-22
happylee 威望 +2 收了,感谢压制! 2013-07-10
happylee 金钱 +10 收了,感谢压制! 2013-07-10
离线jerry黄哲

发帖
1102
金钱
8824
威望
19
贡献值
34
交易币
1243
只看该作者 1楼 发表于: 2013-07-10
好东西、

发帖
762
金钱
24869
威望
1113
贡献值
416
交易币
1569
只看该作者 2楼 发表于: 2013-07-10
离线xthriller

发帖
1175
金钱
284
威望
127
贡献值
39
交易币
1284
只看该作者 3楼 发表于: 2013-07-10
好压!
只有一个偶像,只有一个MJ
离线jabvhno

发帖
290
金钱
1055
威望
62
贡献值
25
交易币
391
只看该作者 4楼 发表于: 2013-07-10
大小适合,很好
[img][/img]

发帖
2894
金钱
59589
威望
727
贡献值
479
交易币
3807
只看该作者 5楼 发表于: 2013-07-10
真棒,昨天刚说今天就传上来了。

内容来自Android手机客户端

离线流行王冠

发帖
672
金钱
660
威望
-9
贡献值
16
交易币
737
只看该作者 6楼 发表于: 2013-07-10
希望楼主压制一下汉城历史,谢谢
离线jerry黄哲

发帖
1102
金钱
8824
威望
19
贡献值
34
交易币
1243
只看该作者 7楼 发表于: 2013-07-10
回 蓝白色的香蕉 的帖子
蓝白色的香蕉:真棒,昨天刚说今天就传上来了。 (2013-07-10 11:15)  SR&'38UCe  
mX QVL.P\  
我想要2场阿姆斯特丹压制的、之前下了dvd、还想要压制、、、

发帖
854
金钱
5134
威望
172
贡献值
42
交易币
1028
只看该作者 9楼 发表于: 2013-07-10
很清晰!
快速回复
限100 字节
 
上一个 下一个