论坛风格切换切换到宽版
  • 5375阅读
  • 46回复

1997.HIStory演唱会.Gothenburg.480p.x264.25fps-MSZ压制【百度盘】 [复制链接]

上一主题 下一主题
离线mjghosts
 

发帖
8261
金钱
219535
威望
9187
贡献值
2734
交易币
4796
只看楼主 倒序阅读 楼主  发表于: 2013-07-10
下载链接请直转!   L B<UC?e  
片源:michaelvideos.ro
6.UKB<sV  
#\0TxG5'QA  
97历史巡演-哥德堡站,131分钟全场完整记录。个人感觉这是四场97历史TV中状态较好的一场,也是目前为止我最喜欢观看的一场,极力推荐此压制版本。
y* rY~U#3  
b+_hI)T  
8eN%sm  
%-k(&T3&  
Unique ID                                : 17214648786303087126847698581970914992 (0xCF36BB6CB436C097177C7A961928EB0) <qr^Nyo4  
Complete name                            : G:\压制作品\[MJSHOWZONE]1997.HIStory演唱会.Gothenburg.480p.x264.25fps.mkv .dt#2a_5q  
Format                                   : Matroska T4vogoy  
Format version                           : Version 2 TdNsyr}JG  
File size                                : 1.24 GiB jm4)gmC  
Duration                                 : 2h 11mn wXP_]-  
Overall bit rate mode                    : Variable /(y4V  
Overall bit rate                         : 1 345 Kbps <` #,AVH  
Writing application                      : Kirara Encoder 5 Xk~,%-C  
Writing library                          : Kirara Encoder
Video 5sG ]3z+1  
ID                                       : 1 :O5Tr03z  
Format                                   : AVC "vv$%^  
Format/Info                              : Advanced Video Codec muW`pm  
Format profile                           : High@L4.1 }]uB? +c  
Format settings, CABAC                   : Yes R~U2/6V  
Format settings, ReFrames                : 4 frames a.5zdoH_  
Codec ID                                 : V_MPEG4/ISO/AVC pE9aT5 L  
Duration                                 : 2h 11mn 9\\@I =;  
Bit rate                                 : 1 222 Kbps DW'0j$;  
Width                                    : 640 pixels }TXp<E"\  
Height                                   : 480 pixels 5$ (b3]  
Display aspect ratio                     : 4:3 r"Hbr Qn  
Frame rate mode                          : Constant *!wO:< -  
Frame rate                               : 25.000 fps vTe$77n  
Color space                              : YUV ai<MsQQ:=  
Chroma subsampling                       : 4:2:0 {7ZtOe  
Bit depth                                : 8 bits ]%WD} 4e  
Scan type                                : Progressive #buV;!_!E?  
Bits/(Pixel*Frame)                       : 0.159 `K@df<}%*,  
Stream size                              : 1.12 GiB (91%) g~$GE},,  
Writing library                          : x264 core 120 + 8K1]'t$  
Encoding settings                        : cabac=1 / ref=4 / deblock=1:0:0 / analyse=0x3:0x113 / me=hex / subme=7 / psy=1 / psy_rd=1.00:0.00 / mixed_ref=1 / me_range=16 / chroma_me=1 / trellis=0 / 8x8dct=1 / cqm=0 / deadzone=21,11 / fast_pskip=1 / chroma_qp_offset=-2 / threads=3 / sliced_threads=0 / nr=0 / decimate=1 / interlaced=0 / bluray_compat=0 / constrained_intra=0 / bframes=0 / weightp=2 / keyint=250 / keyint_min=25 / scenecut=40 / intra_refresh=0 / rc_lookahead=40 / rc=crf / mbtree=1 / crf=21.0 / qcomp=0.60 / qpmin=0 / qpmax=69 / qpstep=4 / ip_ratio=1.40 / aq=1:1.00 #<PA- y  
Default                                  : Yes SceCucT  
Forced                                   : No
Audio >`rNT|rg  
ID                                       : 2 E;GR;i{t  
Format                                   : Vorbis N|Cy!E=d  
Format settings, Floor                   : 1 "<jEI /  
Codec ID                                 : A_VORBIS 7N59B z  
Duration                                 : 2h 11mn ?:''VM.  
Bit rate mode                            : Variable \gI:`>- x  
Bit rate                                 : 96.0 Kbps }MavI'  
Channel(s)                               : 2 channels  n wZr3r  
Sampling rate                            : 48.0 KHz K%TKQ<R|  
Compression mode                         : Lossy L5k>;|SA  
Stream size                              : 90.4 MiB (7%) h^_taAdS`  
Writing library                          : libVorbis (Schaufenugget) (20101101 (Schaufenugget)) 7" STS7_  
Default                                  : Yes ]z q_gV8k  
Forced                                   : No ExP25T  
Writing application                      : Lavc53.42.0
  6[|<  
]vkHU6d  
此帖售价 5 金钱,已有 41 人购买 [记录] [购买]
购买后,将显示帖子中所有出售内容。
若发现会员采用欺骗的方法获取财富,请立刻举报,我们会对会员处以2-N倍的罚金,严重者封掉ID!
此段为出售的内容,购买后显示
4条评分金钱+20威望+4
傻傻滴灰太狼 威望 +2 开始收压制 2014-02-22
傻傻滴灰太狼 金钱 +10 开始收压制 2014-02-22
happylee 威望 +2 收了,感谢压制! 2013-07-10
happylee 金钱 +10 收了,感谢压制! 2013-07-10
离线jerry黄哲

发帖
1102
金钱
8824
威望
19
贡献值
34
交易币
1243
只看该作者 1楼 发表于: 2013-07-10
好东西、

发帖
762
金钱
24869
威望
1113
贡献值
416
交易币
1569
只看该作者 2楼 发表于: 2013-07-10
离线xthriller

发帖
1176
金钱
267
威望
127
贡献值
39
交易币
1285
只看该作者 3楼 发表于: 2013-07-10
好压!
只有一个偶像,只有一个MJ
离线jabvhno

发帖
290
金钱
1055
威望
62
贡献值
25
交易币
391
只看该作者 4楼 发表于: 2013-07-10
大小适合,很好
[img][/img]

发帖
2894
金钱
59605
威望
727
贡献值
479
交易币
3807
只看该作者 5楼 发表于: 2013-07-10
真棒,昨天刚说今天就传上来了。

内容来自Android手机客户端

离线流行王冠

发帖
672
金钱
660
威望
-9
贡献值
16
交易币
737
只看该作者 6楼 发表于: 2013-07-10
希望楼主压制一下汉城历史,谢谢
离线jerry黄哲

发帖
1102
金钱
8824
威望
19
贡献值
34
交易币
1243
只看该作者 7楼 发表于: 2013-07-10
回 蓝白色的香蕉 的帖子
蓝白色的香蕉:真棒,昨天刚说今天就传上来了。 (2013-07-10 11:15)  ^]}+ s(  
'jAX&7G`  
我想要2场阿姆斯特丹压制的、之前下了dvd、还想要压制、、、

发帖
855
金钱
5152
威望
173
贡献值
43
交易币
1033
只看该作者 9楼 发表于: 2013-07-10
很清晰!
快速回复
限100 字节
 
上一个 下一个