论坛风格切换切换到宽版
  • 3904阅读
  • 38回复

1984.Victory演唱会.Dallas.480p.x264.29fps-MSZ压制【百度盘】 [复制链接]

上一主题 下一主题
离线mjghosts
 

发帖
8256
金钱
219439
威望
9187
贡献值
2734
交易币
4791
只看楼主 倒序阅读 楼主  发表于: 2013-07-12
— 本帖被 xzwpp 执行锁定操作(2018-02-16) —
下载链接请直转 3q CHh  
片源:ScaryHeaven
zS?n>ElI  
vu ?3$  
用某老外(ScaryHeaven)发布的DVD9版压制,目前画质最佳的达拉斯胜利演唱会版本,流畅度好,色彩比其它版本自然,但总体质量还是一般。
&_YtY47  
;'hi9L  
-HN%B?}. x  
qf)C%3gXI  
Unique ID                                : 175636520793606622342323188923933308431 (0x84225D0C87A21BB7CDAE01297CBAB60F) p6 <}3m$  
Complete name                            : C:\[MJSHOWZONE]1984.Victory演唱会.Dallas.480p.x264.29fps.mkv pY, O_ t$  
Format                                   : Matroska zfirb  
Format version                           : Version 2 4uX,uEa  
File size                                : 725 MiB j=FMYd8$y  
Duration                                 : 1h 39mn _IC,9bbg  
Overall bit rate mode                    : Variable c1PViko,>  
Overall bit rate                         : 1 014 Kbps ?_8%h`z  
Writing application                      : Kirara Encoder v'h3CaA9j  
Writing library                          : Kirara Encoder
Video nG!&u1*  
ID                                       : 1 mVa?aWpez  
Format                                   : AVC  <V7SSm  
Format/Info                              : Advanced Video Codec 3fm;r5  
Format profile                           : High@L4.1 o<Xc,mP  
Format settings, CABAC                   : Yes f#'8"ff*1  
Format settings, ReFrames                : 4 frames !'Pk jP  
Codec ID                                 : V_MPEG4/ISO/AVC o G (0i  
Duration                                 : 1h 39mn /!^L69um  
Bit rate                                 : 898 Kbps _=o1?R  
Width                                    : 640 pixels fndK/~?]H  
Height                                   : 480 pixels 0|.7Kz^  
Display aspect ratio                     : 4:3 }V\P,ck  
Frame rate mode                          : Constant .tZjdNE(h  
Frame rate                               : 29.970 fps Bv2z4D4f+  
Color space                              : YUV (! xg$Kz@  
Chroma subsampling                       : 4:2:0 +CsI,Uf4*  
Bit depth                                : 8 bits :*mA,2s  
Scan type                                : Progressive "WF( 6z#  
Bits/(Pixel*Frame)                       : 0.098 :'5G_4y)h  
Stream size                              : 642 MiB (89%) u~' m7  
Writing library                          : x264 core 120 ^m6k@VM  
Encoding settings                        : cabac=1 / ref=4 / deblock=1:0:0 / analyse=0x3:0x113 / me=hex / subme=7 / psy=1 / psy_rd=1.00:0.00 / mixed_ref=1 / me_range=16 / chroma_me=1 / trellis=0 / 8x8dct=1 / cqm=0 / deadzone=21,11 / fast_pskip=1 / chroma_qp_offset=-2 / threads=3 / sliced_threads=0 / nr=0 / decimate=1 / interlaced=0 / bluray_compat=0 / constrained_intra=0 / bframes=0 / weightp=2 / keyint=250 / keyint_min=25 / scenecut=40 / intra_refresh=0 / rc_lookahead=40 / rc=crf / mbtree=1 / crf=21.0 / qcomp=0.60 / qpmin=0 / qpmax=69 / qpstep=4 / ip_ratio=1.40 / aq=1:1.00 IUh5r(d 68  
Default                                  : Yes J{nyo1A  
Forced                                   : No
Audio F<PWBs%  
ID                                       : 2 TEaD-mY3  
Format                                   : Vorbis 6e$sA (a=i  
Format settings, Floor                   : 1 !1a|5 xrn  
Codec ID                                 : A_VORBIS RE`J"&  
Duration                                 : 1h 39mn v@$evmA  
Bit rate mode                            : Variable Y^c,mK^  
Bit rate                                 : 96.0 Kbps j,|1y5f  
Channel(s)                               : 2 channels 5O;a/q8"  
Sampling rate                            : 48.0 KHz hSx+ {4PZ  
Compression mode                         : Lossy N1s $3Ul  
Stream size                              : 68.6 MiB (9%) LRCS)UBY(.  
Writing library                          : libVorbis (Schaufenugget) (20101101 (Schaufenugget)) VJ6>3  
Default                                  : Yes F)E7(Un`8  
Forced                                   : No 9?}rpA`P  
Writing application                      : Lavc53.42.0 J++sTQ(!?  
0IPhVG~#  
>Rki[SNb-b  
此帖售价 3 金钱,已有 37 人购买 [记录] [购买]
购买后,将显示帖子中所有出售内容。
若发现会员采用欺骗的方法获取财富,请立刻举报,我们会对会员处以2-N倍的罚金,严重者封掉ID!
此段为出售的内容,购买后显示
3条评分金钱+11威望+2
傻傻滴灰太狼 金钱 +1 这个优化版就是有点黑 2014-02-22
happylee 威望 +2 好压制,辛苦了,收了! 2013-07-12
happylee 金钱 +10 好压制,辛苦了,收了! 2013-07-12
离线流行王冠

发帖
672
金钱
660
威望
-9
贡献值
16
交易币
737
只看该作者 1楼 发表于: 2013-07-12
请求另一版本

发帖
2894
金钱
59589
威望
727
贡献值
479
交易币
3807
只看该作者 2楼 发表于: 2013-07-12
给力,有j5串烧和与你共舞吗

内容来自Android手机客户端

离线HappyLee

发帖
2705
金钱
103844
威望
2591
贡献值
1204
交易币
3831
只看该作者 3楼 发表于: 2013-07-12
好压制,辛苦了,收了!
离线923169333mj

发帖
857
金钱
15
威望
151
贡献值
58
交易币
1071
只看该作者 4楼 发表于: 2013-07-12
昨晚就在想 求一个 达拉斯的  没想到........  幽灵 就是 给力啊
离线MJ之王

发帖
3558
金钱
194905
威望
3953
贡献值
1598
交易币
3248
只看该作者 5楼 发表于: 2013-07-12
幽灵本来就是给力滴
MJJKING收藏站
博客地址: http://blog.sina.com.cn/mjjking
淘宝小店: http://mjzhiwang.taobao.com
离线mjlove98

发帖
2585
金钱
4080
威望
197
贡献值
123
交易币
2663
只看该作者 6楼 发表于: 2013-07-12
辛苦了,收了!
离线superlovemj

发帖
724
金钱
16152
威望
216
贡献值
91
交易币
966
只看该作者 7楼 发表于: 2013-07-12
感谢分享,保存一份。
我在不同阶段有过不同的偶像
而MJ却是永恒不变的
离线星火相传

发帖
451
金钱
4801
威望
159
贡献值
48
交易币
336
只看该作者 8楼 发表于: 2013-07-12
收了。以前下过一个3GB的达拉斯,太占空间了,移动硬盘都快满了。。速下,替换
离线love迈扣

发帖
232
金钱
922
威望
94
贡献值
25
交易币
246
只看该作者 9楼 发表于: 2013-07-12
比我在电驴上下的好很多