论坛风格切换切换到宽版
  • 5208阅读
  • 38回复

1984.Victory演唱会.Dallas.480p.x264.29fps-MSZ压制【百度盘】 [复制链接]

上一主题 下一主题
离线mjghosts
 

发帖
8279
金钱
221629
威望
9195
贡献值
2742
交易币
4818
只看楼主 倒序阅读 楼主  发表于: 2013-07-12
— 本帖被 xzwpp 执行锁定操作(2018-02-16) —
下载链接请直转 .+9hm|  
片源:ScaryHeaven
&L ;ocd$  
M!UTqf7XL  
用某老外(ScaryHeaven)发布的DVD9版压制,目前画质最佳的达拉斯胜利演唱会版本,流畅度好,色彩比其它版本自然,但总体质量还是一般。
QU"WpkO  
4xy\  
|Wh3a#  
m|a9T#B(  
Unique ID                                : 175636520793606622342323188923933308431 (0x84225D0C87A21BB7CDAE01297CBAB60F) F^i3e31*t  
Complete name                            : C:\[MJSHOWZONE]1984.Victory演唱会.Dallas.480p.x264.29fps.mkv 7FB?t<x  
Format                                   : Matroska [BWq9uE  
Format version                           : Version 2 !NXjax\r  
File size                                : 725 MiB 6x+ujUBkK  
Duration                                 : 1h 39mn }0'=}BE  
Overall bit rate mode                    : Variable 'o AmA=  
Overall bit rate                         : 1 014 Kbps ]\E"oZ  
Writing application                      : Kirara Encoder d?,'$$aB  
Writing library                          : Kirara Encoder
Video C{exvLQ  
ID                                       : 1 7]=&Q4e4  
Format                                   : AVC ^T=9j.e'ja  
Format/Info                              : Advanced Video Codec +m=b "g  
Format profile                           : High@L4.1 !xs}CxEyA  
Format settings, CABAC                   : Yes ^y<^hKjV  
Format settings, ReFrames                : 4 frames v%tjZ5x  
Codec ID                                 : V_MPEG4/ISO/AVC qv!(In>u  
Duration                                 : 1h 39mn -[mmT'sS  
Bit rate                                 : 898 Kbps :;$MUOps  
Width                                    : 640 pixels $^x=i;>aK.  
Height                                   : 480 pixels ;,y_^-h;  
Display aspect ratio                     : 4:3 YwVA].p@TI  
Frame rate mode                          : Constant e=Ox~2S  
Frame rate                               : 29.970 fps ko%mZ0Y  
Color space                              : YUV qlhc"}5x }  
Chroma subsampling                       : 4:2:0 _L,~WYRo  
Bit depth                                : 8 bits V_i&@<J  
Scan type                                : Progressive ]& D dy&V  
Bits/(Pixel*Frame)                       : 0.098 ch# )XomN  
Stream size                              : 642 MiB (89%) ,Uh^e]pC  
Writing library                          : x264 core 120 4KH'S'eR  
Encoding settings                        : cabac=1 / ref=4 / deblock=1:0:0 / analyse=0x3:0x113 / me=hex / subme=7 / psy=1 / psy_rd=1.00:0.00 / mixed_ref=1 / me_range=16 / chroma_me=1 / trellis=0 / 8x8dct=1 / cqm=0 / deadzone=21,11 / fast_pskip=1 / chroma_qp_offset=-2 / threads=3 / sliced_threads=0 / nr=0 / decimate=1 / interlaced=0 / bluray_compat=0 / constrained_intra=0 / bframes=0 / weightp=2 / keyint=250 / keyint_min=25 / scenecut=40 / intra_refresh=0 / rc_lookahead=40 / rc=crf / mbtree=1 / crf=21.0 / qcomp=0.60 / qpmin=0 / qpmax=69 / qpstep=4 / ip_ratio=1.40 / aq=1:1.00 4 95Y<x}=  
Default                                  : Yes .1(_7!m@  
Forced                                   : No
Audio taDe^Ist j  
ID                                       : 2 \: ZDY(>1  
Format                                   : Vorbis u.E>d9  
Format settings, Floor                   : 1 "= 2\kZ  
Codec ID                                 : A_VORBIS r@JMf)a]  
Duration                                 : 1h 39mn } ew{WD  
Bit rate mode                            : Variable ]prw=rD  
Bit rate                                 : 96.0 Kbps SN|!FW.*:  
Channel(s)                               : 2 channels e O~p"d-|  
Sampling rate                            : 48.0 KHz [#wt3<d`)  
Compression mode                         : Lossy .NWsr*Tel  
Stream size                              : 68.6 MiB (9%) Vuy%7H  
Writing library                          : libVorbis (Schaufenugget) (20101101 (Schaufenugget)) ;7[DFlS\P  
Default                                  : Yes Z9H2! Cp  
Forced                                   : No nzO -\`40  
Writing application                      : Lavc53.42.0 -~sW@u)O  
EAh|$~X  
UQI!/6F  
此帖售价 3 金钱,已有 37 人购买 [记录] [购买]
购买后,将显示帖子中所有出售内容。
若发现会员采用欺骗的方法获取财富,请立刻举报,我们会对会员处以2-N倍的罚金,严重者封掉ID!
此段为出售的内容,购买后显示
3条评分金钱+11威望+2
傻傻滴灰太狼 金钱 +1 这个优化版就是有点黑 2014-02-22
happylee 威望 +2 好压制,辛苦了,收了! 2013-07-12
happylee 金钱 +10 好压制,辛苦了,收了! 2013-07-12
离线流行王冠

发帖
672
金钱
660
威望
-9
贡献值
16
交易币
737
只看该作者 1楼 发表于: 2013-07-12
请求另一版本

发帖
2895
金钱
59732
威望
727
贡献值
479
交易币
3808
只看该作者 2楼 发表于: 2013-07-12
给力,有j5串烧和与你共舞吗

内容来自Android手机客户端

离线HappyLee

发帖
2744
金钱
109693
威望
2861
贡献值
1443
交易币
3970
只看该作者 3楼 发表于: 2013-07-12
好压制,辛苦了,收了!
离线923169333mj

发帖
866
金钱
33
威望
151
贡献值
58
交易币
1080
只看该作者 4楼 发表于: 2013-07-12
昨晚就在想 求一个 达拉斯的  没想到........  幽灵 就是 给力啊
离线MJ之王

发帖
3558
金钱
198532
威望
3962
贡献值
1598
交易币
3248
只看该作者 5楼 发表于: 2013-07-12
幽灵本来就是给力滴
MJJKING收藏站
博客地址: http://blog.sina.com.cn/mjjking
淘宝小店: http://mjzhiwang.taobao.com
离线mjlove98

发帖
2627
金钱
3430
威望
197
贡献值
123
交易币
2705
只看该作者 6楼 发表于: 2013-07-12
辛苦了,收了!
离线superlovemj

发帖
731
金钱
16239
威望
216
贡献值
91
交易币
973
只看该作者 7楼 发表于: 2013-07-12
感谢分享,保存一份。
我在不同阶段有过不同的偶像
而MJ却是永恒不变的
离线星火相传

发帖
451
金钱
4811
威望
159
贡献值
48
交易币
336
只看该作者 8楼 发表于: 2013-07-12
收了。以前下过一个3GB的达拉斯,太占空间了,移动硬盘都快满了。。速下,替换
离线love迈扣

发帖
398
金钱
56
威望
72
贡献值
25
交易币
190
只看该作者 9楼 发表于: 2013-07-12
比我在电驴上下的好很多