论坛风格切换切换到宽版
  • 3804阅读
  • 38回复

1984.Victory演唱会.Dallas.480p.x264.29fps-MSZ压制【百度盘】 [复制链接]

上一主题 下一主题
离线mjghosts
 

发帖
8255
金钱
219218
威望
9187
贡献值
2734
交易币
4790
只看楼主 倒序阅读 楼主  发表于: 2013-07-12
— 本帖被 xzwpp 执行锁定操作(2018-02-16) —
下载链接请直转 dW=D]  
片源:ScaryHeaven
2O)Kn q  
B6!<@* BI  
用某老外(ScaryHeaven)发布的DVD9版压制,目前画质最佳的达拉斯胜利演唱会版本,流畅度好,色彩比其它版本自然,但总体质量还是一般。
%RD7=Z-z  
u4*]jt;H  
Qj~W-^/ -  
uRq#pYn@  
Unique ID                                : 175636520793606622342323188923933308431 (0x84225D0C87A21BB7CDAE01297CBAB60F) I9j+x ])  
Complete name                            : C:\[MJSHOWZONE]1984.Victory演唱会.Dallas.480p.x264.29fps.mkv Qc =lf$  
Format                                   : Matroska M0IqQM57N  
Format version                           : Version 2 GHsdLe=t0#  
File size                                : 725 MiB +mQC:B7>  
Duration                                 : 1h 39mn eRqexqO!  
Overall bit rate mode                    : Variable SIBIh-L  
Overall bit rate                         : 1 014 Kbps j]F3[gpc  
Writing application                      : Kirara Encoder ^VYZ %  
Writing library                          : Kirara Encoder
Video E$yf2Q~k  
ID                                       : 1 SVEA  
Format                                   : AVC X|lmH{kf  
Format/Info                              : Advanced Video Codec J3}C T  
Format profile                           : High@L4.1 >U Ich  
Format settings, CABAC                   : Yes Ty`=U>K|  
Format settings, ReFrames                : 4 frames T[9jTO?W2  
Codec ID                                 : V_MPEG4/ISO/AVC [-94=|S @  
Duration                                 : 1h 39mn 73Zs/  
Bit rate                                 : 898 Kbps bIl0rx[`  
Width                                    : 640 pixels hr"+0KeX  
Height                                   : 480 pixels 8[P6c;\  
Display aspect ratio                     : 4:3 ~=gH7V  
Frame rate mode                          : Constant }@0.  
Frame rate                               : 29.970 fps ?U[nYp}"v  
Color space                              : YUV k  5kX  
Chroma subsampling                       : 4:2:0 %iFIY=W  
Bit depth                                : 8 bits ~l(tl[  
Scan type                                : Progressive oa|*-nw  
Bits/(Pixel*Frame)                       : 0.098 kF~e3A7C  
Stream size                              : 642 MiB (89%) WC;a  
Writing library                          : x264 core 120 I`>%2mP[C  
Encoding settings                        : cabac=1 / ref=4 / deblock=1:0:0 / analyse=0x3:0x113 / me=hex / subme=7 / psy=1 / psy_rd=1.00:0.00 / mixed_ref=1 / me_range=16 / chroma_me=1 / trellis=0 / 8x8dct=1 / cqm=0 / deadzone=21,11 / fast_pskip=1 / chroma_qp_offset=-2 / threads=3 / sliced_threads=0 / nr=0 / decimate=1 / interlaced=0 / bluray_compat=0 / constrained_intra=0 / bframes=0 / weightp=2 / keyint=250 / keyint_min=25 / scenecut=40 / intra_refresh=0 / rc_lookahead=40 / rc=crf / mbtree=1 / crf=21.0 / qcomp=0.60 / qpmin=0 / qpmax=69 / qpstep=4 / ip_ratio=1.40 / aq=1:1.00 JNCtsfd  
Default                                  : Yes < R%6L&  
Forced                                   : No
Audio Xh!Pg)|E  
ID                                       : 2 z*1K<w8  
Format                                   : Vorbis -2d&Aq4m)  
Format settings, Floor                   : 1 essW,2,rjC  
Codec ID                                 : A_VORBIS ZeV)/g,w  
Duration                                 : 1h 39mn EV$n>.  
Bit rate mode                            : Variable D3ad2vH  
Bit rate                                 : 96.0 Kbps E~^'w.1  
Channel(s)                               : 2 channels H skN(Ho  
Sampling rate                            : 48.0 KHz Bs}>#I  
Compression mode                         : Lossy _TF>c:m3  
Stream size                              : 68.6 MiB (9%) jfamuu7  
Writing library                          : libVorbis (Schaufenugget) (20101101 (Schaufenugget)) bk]|C!7$  
Default                                  : Yes K2 2Xo<3  
Forced                                   : No `>Cx!sYhV  
Writing application                      : Lavc53.42.0 >.|gmo>b  
7}k8-:a%  
O [/~V=  
此帖售价 3 金钱,已有 37 人购买 [记录] [购买]
购买后,将显示帖子中所有出售内容。
若发现会员采用欺骗的方法获取财富,请立刻举报,我们会对会员处以2-N倍的罚金,严重者封掉ID!
此段为出售的内容,购买后显示
3条评分金钱+11威望+2
傻傻滴灰太狼 金钱 +1 这个优化版就是有点黑 2014-02-22
happylee 威望 +2 好压制,辛苦了,收了! 2013-07-12
happylee 金钱 +10 好压制,辛苦了,收了! 2013-07-12
离线流行王冠

发帖
672
金钱
660
威望
-9
贡献值
16
交易币
737
只看该作者 1楼 发表于: 2013-07-12
请求另一版本

发帖
2894
金钱
59589
威望
727
贡献值
479
交易币
3807
只看该作者 2楼 发表于: 2013-07-12
给力,有j5串烧和与你共舞吗

内容来自Android手机客户端

离线HappyLee

发帖
2703
金钱
103619
威望
2591
贡献值
1204
交易币
3829
只看该作者 3楼 发表于: 2013-07-12
好压制,辛苦了,收了!
离线923169333mj

发帖
857
金钱
15
威望
151
贡献值
58
交易币
1071
只看该作者 4楼 发表于: 2013-07-12
昨晚就在想 求一个 达拉斯的  没想到........  幽灵 就是 给力啊
离线MJ之王

发帖
3558
金钱
194905
威望
3953
贡献值
1598
交易币
3248
只看该作者 5楼 发表于: 2013-07-12
幽灵本来就是给力滴
MJJKING收藏站
博客地址: http://blog.sina.com.cn/mjjking
淘宝小店: http://mjzhiwang.taobao.com
离线mjlove98

发帖
2581
金钱
4098
威望
197
贡献值
123
交易币
2659
只看该作者 6楼 发表于: 2013-07-12
辛苦了,收了!
离线superlovemj

发帖
724
金钱
16142
威望
216
贡献值
91
交易币
966
只看该作者 7楼 发表于: 2013-07-12
感谢分享,保存一份。
我在不同阶段有过不同的偶像
而MJ却是永恒不变的
离线星火相传

发帖
451
金钱
4801
威望
159
贡献值
48
交易币
336
只看该作者 8楼 发表于: 2013-07-12
收了。以前下过一个3GB的达拉斯,太占空间了,移动硬盘都快满了。。速下,替换
离线love迈扣

发帖
232
金钱
922
威望
94
贡献值
25
交易币
246
只看该作者 9楼 发表于: 2013-07-12
比我在电驴上下的好很多