论坛风格切换切换到宽版
  • 4136阅读
  • 38回复

1984.Victory演唱会.Dallas.480p.x264.29fps-MSZ压制【百度盘】 [复制链接]

上一主题 下一主题
离线mjghosts
 

发帖
8261
金钱
219535
威望
9187
贡献值
2734
交易币
4796
只看楼主 倒序阅读 楼主  发表于: 2013-07-12
— 本帖被 xzwpp 执行锁定操作(2018-02-16) —
下载链接请直转 .}L-c>o"o  
片源:ScaryHeaven
Gvt;Q,hH  
>|UrxJ7  
用某老外(ScaryHeaven)发布的DVD9版压制,目前画质最佳的达拉斯胜利演唱会版本,流畅度好,色彩比其它版本自然,但总体质量还是一般。
Yj^avO=;  
rm5T=fNJ  
yL.PGF1(  
(dLE<\E  
Unique ID                                : 175636520793606622342323188923933308431 (0x84225D0C87A21BB7CDAE01297CBAB60F) V#-qKV  
Complete name                            : C:\[MJSHOWZONE]1984.Victory演唱会.Dallas.480p.x264.29fps.mkv 0]h8)EW  
Format                                   : Matroska },Re5W nl  
Format version                           : Version 2 fzkCI  
File size                                : 725 MiB Jm);|#y  
Duration                                 : 1h 39mn guUr1Ij  
Overall bit rate mode                    : Variable QNa}M{5>h  
Overall bit rate                         : 1 014 Kbps $!l2=^\3  
Writing application                      : Kirara Encoder CyK$XDHa  
Writing library                          : Kirara Encoder
Video H/@M  
ID                                       : 1 $?/Xk%d+  
Format                                   : AVC "{ QHWZ  
Format/Info                              : Advanced Video Codec YqY6\ mo  
Format profile                           : High@L4.1 y~A7pzBZ=  
Format settings, CABAC                   : Yes WtdkA Sj  
Format settings, ReFrames                : 4 frames mN'9|`>V>  
Codec ID                                 : V_MPEG4/ISO/AVC R.YGmT'2  
Duration                                 : 1h 39mn *r?51*J  
Bit rate                                 : 898 Kbps yxP?O@(  
Width                                    : 640 pixels ot+~|Dl  
Height                                   : 480 pixels XX[Wwt  
Display aspect ratio                     : 4:3 5 EuJ  
Frame rate mode                          : Constant .sR&9FH  
Frame rate                               : 29.970 fps vlN. OQ  
Color space                              : YUV iM/0Yp-v'>  
Chroma subsampling                       : 4:2:0 8kc'|F\  
Bit depth                                : 8 bits i|,A1c"*  
Scan type                                : Progressive UO!6&k>c  
Bits/(Pixel*Frame)                       : 0.098 _]ttKT(  
Stream size                              : 642 MiB (89%) #:zPpMAl  
Writing library                          : x264 core 120 {]Iu">*  
Encoding settings                        : cabac=1 / ref=4 / deblock=1:0:0 / analyse=0x3:0x113 / me=hex / subme=7 / psy=1 / psy_rd=1.00:0.00 / mixed_ref=1 / me_range=16 / chroma_me=1 / trellis=0 / 8x8dct=1 / cqm=0 / deadzone=21,11 / fast_pskip=1 / chroma_qp_offset=-2 / threads=3 / sliced_threads=0 / nr=0 / decimate=1 / interlaced=0 / bluray_compat=0 / constrained_intra=0 / bframes=0 / weightp=2 / keyint=250 / keyint_min=25 / scenecut=40 / intra_refresh=0 / rc_lookahead=40 / rc=crf / mbtree=1 / crf=21.0 / qcomp=0.60 / qpmin=0 / qpmax=69 / qpstep=4 / ip_ratio=1.40 / aq=1:1.00 ,k!f`  
Default                                  : Yes BXv)zE=j  
Forced                                   : No
Audio =pOY+S|  
ID                                       : 2 g):jZU]b  
Format                                   : Vorbis 4H? Ma|,  
Format settings, Floor                   : 1 uPv?Hq  
Codec ID                                 : A_VORBIS F_ Cz  
Duration                                 : 1h 39mn 6b01xu(A[  
Bit rate mode                            : Variable -XG$ 0  
Bit rate                                 : 96.0 Kbps EoCwS  
Channel(s)                               : 2 channels !`=?<Fl  
Sampling rate                            : 48.0 KHz 'oL[rO~j  
Compression mode                         : Lossy J vsB^F.4  
Stream size                              : 68.6 MiB (9%) ,peE'   
Writing library                          : libVorbis (Schaufenugget) (20101101 (Schaufenugget)) /n:fxdhe  
Default                                  : Yes ^D[;JV  
Forced                                   : No W%cPX0  
Writing application                      : Lavc53.42.0 TaT&x_v^~a  
a<.@+sj{  
9 `&D  
此帖售价 3 金钱,已有 37 人购买 [记录] [购买]
购买后,将显示帖子中所有出售内容。
若发现会员采用欺骗的方法获取财富,请立刻举报,我们会对会员处以2-N倍的罚金,严重者封掉ID!
此段为出售的内容,购买后显示
3条评分金钱+11威望+2
傻傻滴灰太狼 金钱 +1 这个优化版就是有点黑 2014-02-22
happylee 威望 +2 好压制,辛苦了,收了! 2013-07-12
happylee 金钱 +10 好压制,辛苦了,收了! 2013-07-12
离线流行王冠

发帖
672
金钱
660
威望
-9
贡献值
16
交易币
737
只看该作者 1楼 发表于: 2013-07-12
请求另一版本

发帖
2894
金钱
59605
威望
727
贡献值
479
交易币
3807
只看该作者 2楼 发表于: 2013-07-12
给力,有j5串烧和与你共舞吗

内容来自Android手机客户端

离线HappyLee

发帖
2707
金钱
103914
威望
2591
贡献值
1204
交易币
3833
只看该作者 3楼 发表于: 2013-07-12
好压制,辛苦了,收了!
离线923169333mj

发帖
857
金钱
20
威望
151
贡献值
58
交易币
1071
只看该作者 4楼 发表于: 2013-07-12
昨晚就在想 求一个 达拉斯的  没想到........  幽灵 就是 给力啊
离线MJ之王

发帖
3558
金钱
195005
威望
3953
贡献值
1598
交易币
3248
只看该作者 5楼 发表于: 2013-07-12
幽灵本来就是给力滴
MJJKING收藏站
博客地址: http://blog.sina.com.cn/mjjking
淘宝小店: http://mjzhiwang.taobao.com
离线mjlove98

发帖
2589
金钱
4045
威望
197
贡献值
123
交易币
2667
只看该作者 6楼 发表于: 2013-07-12
辛苦了,收了!
离线superlovemj

发帖
724
金钱
16167
威望
216
贡献值
91
交易币
966
只看该作者 7楼 发表于: 2013-07-12
感谢分享,保存一份。
我在不同阶段有过不同的偶像
而MJ却是永恒不变的
离线星火相传

发帖
451
金钱
4806
威望
159
贡献值
48
交易币
336
只看该作者 8楼 发表于: 2013-07-12
收了。以前下过一个3GB的达拉斯,太占空间了,移动硬盘都快满了。。速下,替换
离线love迈扣

发帖
232
金钱
930
威望
94
贡献值
25
交易币
246
只看该作者 9楼 发表于: 2013-07-12
比我在电驴上下的好很多