论坛风格切换切换到宽版
  • 4782阅读
  • 38回复

1984.Victory演唱会.Dallas.480p.x264.29fps-MSZ压制【百度盘】 [复制链接]

上一主题 下一主题
离线mjghosts
 

发帖
8279
金钱
220440
威望
9195
贡献值
2742
交易币
4818
只看楼主 倒序阅读 楼主  发表于: 2013-07-12
— 本帖被 xzwpp 执行锁定操作(2018-02-16) —
下载链接请直转 9U*vnLB  
片源:ScaryHeaven
Uo ,3 lMr  
IWgC6)n@n  
用某老外(ScaryHeaven)发布的DVD9版压制,目前画质最佳的达拉斯胜利演唱会版本,流畅度好,色彩比其它版本自然,但总体质量还是一般。
y;jyfc$ `  
=3p h:t  
Y# #J  
f@mM&e=f  
Unique ID                                : 175636520793606622342323188923933308431 (0x84225D0C87A21BB7CDAE01297CBAB60F) dEiX! k$#  
Complete name                            : C:\[MJSHOWZONE]1984.Victory演唱会.Dallas.480p.x264.29fps.mkv 4 C:YEX~  
Format                                   : Matroska r/e&}!  
Format version                           : Version 2 mR^D55k  
File size                                : 725 MiB yBoZ@9Do  
Duration                                 : 1h 39mn uFqH_04  
Overall bit rate mode                    : Variable  JeA}d  
Overall bit rate                         : 1 014 Kbps 4aRYz\yT=  
Writing application                      : Kirara Encoder 4c% :?H@2  
Writing library                          : Kirara Encoder
Video Q,$x6YwE  
ID                                       : 1 Oe273Y^e  
Format                                   : AVC v<) }T5~r  
Format/Info                              : Advanced Video Codec m$^7sFD$  
Format profile                           : High@L4.1 _)|!.r&)63  
Format settings, CABAC                   : Yes 1>2397  
Format settings, ReFrames                : 4 frames h{m]n!  
Codec ID                                 : V_MPEG4/ISO/AVC 0L6L_;o  
Duration                                 : 1h 39mn d. a>(G  
Bit rate                                 : 898 Kbps @bPJ}C  
Width                                    : 640 pixels E|6|m8  
Height                                   : 480 pixels ~}5(J,1!  
Display aspect ratio                     : 4:3 Mqpo S  
Frame rate mode                          : Constant k.0C*3'  
Frame rate                               : 29.970 fps DXiD>1(q  
Color space                              : YUV D9Z5g3s7R  
Chroma subsampling                       : 4:2:0 @Q^;qMy  
Bit depth                                : 8 bits LiRY -;8=  
Scan type                                : Progressive <uvshZ v  
Bits/(Pixel*Frame)                       : 0.098 M~6I-HexT|  
Stream size                              : 642 MiB (89%) 4D13K.h`O  
Writing library                          : x264 core 120 oW_WW$+N  
Encoding settings                        : cabac=1 / ref=4 / deblock=1:0:0 / analyse=0x3:0x113 / me=hex / subme=7 / psy=1 / psy_rd=1.00:0.00 / mixed_ref=1 / me_range=16 / chroma_me=1 / trellis=0 / 8x8dct=1 / cqm=0 / deadzone=21,11 / fast_pskip=1 / chroma_qp_offset=-2 / threads=3 / sliced_threads=0 / nr=0 / decimate=1 / interlaced=0 / bluray_compat=0 / constrained_intra=0 / bframes=0 / weightp=2 / keyint=250 / keyint_min=25 / scenecut=40 / intra_refresh=0 / rc_lookahead=40 / rc=crf / mbtree=1 / crf=21.0 / qcomp=0.60 / qpmin=0 / qpmax=69 / qpstep=4 / ip_ratio=1.40 / aq=1:1.00 _=MWt_A '3  
Default                                  : Yes |`nVr>QF&  
Forced                                   : No
Audio ($s{em4L  
ID                                       : 2 rXPXO=F1/  
Format                                   : Vorbis gUp0RPs  
Format settings, Floor                   : 1 (R-Q9F+;  
Codec ID                                 : A_VORBIS R 6Em^A/>  
Duration                                 : 1h 39mn B}X#oA  
Bit rate mode                            : Variable rRYf.~UH@P  
Bit rate                                 : 96.0 Kbps +bW|Q>u  
Channel(s)                               : 2 channels ?miM15XI  
Sampling rate                            : 48.0 KHz Sj?sw]3  
Compression mode                         : Lossy u7WM6X  
Stream size                              : 68.6 MiB (9%) y>|XpImZ  
Writing library                          : libVorbis (Schaufenugget) (20101101 (Schaufenugget)) ecpUp39\  
Default                                  : Yes 9PK-r;2  
Forced                                   : No z/k~+-6O  
Writing application                      : Lavc53.42.0 ^Lsc`<xC  
nA>*IU[  
2y^U k,g  
此帖售价 3 金钱,已有 37 人购买 [记录] [购买]
购买后,将显示帖子中所有出售内容。
若发现会员采用欺骗的方法获取财富,请立刻举报,我们会对会员处以2-N倍的罚金,严重者封掉ID!
此段为出售的内容,购买后显示
3条评分金钱+11威望+2
傻傻滴灰太狼 金钱 +1 这个优化版就是有点黑 2014-02-22
happylee 威望 +2 好压制,辛苦了,收了! 2013-07-12
happylee 金钱 +10 好压制,辛苦了,收了! 2013-07-12
离线流行王冠

发帖
672
金钱
660
威望
-9
贡献值
16
交易币
737
只看该作者 1楼 发表于: 2013-07-12
请求另一版本

发帖
2894
金钱
59725
威望
727
贡献值
479
交易币
3807
只看该作者 2楼 发表于: 2013-07-12
给力,有j5串烧和与你共舞吗

内容来自Android手机客户端

离线HappyLee

发帖
2729
金钱
107535
威望
2763
贡献值
1395
交易币
3919
只看该作者 3楼 发表于: 2013-07-12
好压制,辛苦了,收了!
离线923169333mj

发帖
865
金钱
8
威望
151
贡献值
58
交易币
1079
只看该作者 4楼 发表于: 2013-07-12
昨晚就在想 求一个 达拉斯的  没想到........  幽灵 就是 给力啊
离线MJ之王

发帖
3558
金钱
196226
威望
3960
贡献值
1598
交易币
3248
只看该作者 5楼 发表于: 2013-07-12
幽灵本来就是给力滴
MJJKING收藏站
博客地址: http://blog.sina.com.cn/mjjking
淘宝小店: http://mjzhiwang.taobao.com
离线mjlove98

发帖
2619
金钱
3433
威望
197
贡献值
123
交易币
2697
只看该作者 6楼 发表于: 2013-07-12
辛苦了,收了!
离线superlovemj

发帖
727
金钱
16204
威望
216
贡献值
91
交易币
969
只看该作者 7楼 发表于: 2013-07-12
感谢分享,保存一份。
我在不同阶段有过不同的偶像
而MJ却是永恒不变的
离线星火相传

发帖
451
金钱
4806
威望
159
贡献值
48
交易币
336
只看该作者 8楼 发表于: 2013-07-12
收了。以前下过一个3GB的达拉斯,太占空间了,移动硬盘都快满了。。速下,替换
离线love迈扣

发帖
296
金钱
44
威望
87
贡献值
25
交易币
247
只看该作者 9楼 发表于: 2013-07-12
比我在电驴上下的好很多