论坛风格切换切换到宽版
  • 3879阅读
  • 36回复

1984.Victory演唱会.Kansas.480p.x264.25fps-MSZ压制【百度盘】 [复制链接]

上一主题 下一主题
离线mjghosts
 

发帖
8248
金钱
217821
威望
9174
贡献值
2723
交易币
4759
只看楼主 倒序阅读 楼主  发表于: 2013-07-12
— 本帖被 xzwpp 执行锁定操作(2018-02-16) —
下载链接请直转 [-Tt11  
片源:MJFANSZONE
< Gy!i/  
I cA\3j  
DVD片源来自迈迷国度,论坛曾经发布过一个“音质画质加强版”,与此DVD挺相似的,不过我没有下载过所以不清楚版本是否一样。 ySK Yqt z  
hPi :31-0  
由于画质不太理想,所以就以业余版演唱会般的压缩配置进行压制,但画面损失不大。喜下,不喜勿下。
-5,y 1_M  
y#Za|nt  
5A]LNA4i  
~v(M6dz~vk  
Unique ID                                : 322184724322056640827578133249749954161 (0xF26285546EEB2A8E016D128F003C2E71) (=tF2YBV  
Complete name                            : C:\[MJSHOWZONE]1984.Victory演唱会.Kansas.480p.x264.25fps.mkv I;.! hV>E  
Format                                   : Matroska k#:@fH4{PA  
Format version                           : Version 2 I1 R\Ts@  
File size                                : 424 MiB i&'^9"Z)O  
Duration                                 : 1h 12mn L!b0y7yR  
Overall bit rate mode                    : Variable ic{.#R.BY  
Overall bit rate                         : 824 Kbps #b"5L2D`y'  
Writing application                      : Kirara Encoder >&Ui*  
Writing library                          : Kirara Encoder
Video am'p^Z @  
ID                                       : 1 ]T3BDgu%&  
Format                                   : AVC T.w}6? 2  
Format/Info                              : Advanced Video Codec xX&>5 "  
Format profile                           : High@L4.1 >]XaUQ-  
Format settings, CABAC                   : Yes o!l3.5m2d  
Format settings, ReFrames                : 4 frames $6&GAJe  
Codec ID                                 : V_MPEG4/ISO/AVC At[n<8_|  
Duration                                 : 1h 12mn K,C $J I  
Bit rate                                 : 711 Kbps Sv ~1XL W  
Width                                    : 640 pixels Q1ABnacR  
Height                                   : 480 pixels 2 ) /k`Na  
Display aspect ratio                     : 4:3 w1"gl0ga$  
Frame rate mode                          : Constant ^;CR0.4  
Frame rate                               : 25.000 fps T?]kF-   
Color space                              : YUV %M;_(jda  
Chroma subsampling                       : 4:2:0 ej"o?1l@  
Bit depth                                : 8 bits {Z?$Co^R  
Scan type                                : Progressive Q&.IlVB[  
Bits/(Pixel*Frame)                       : 0.093 ]2xx+P#Y  
Stream size                              : 366 MiB (86%) BudWbZ5>Ep  
Writing library                          : x264 core 120 =~W0~lxX  
Encoding settings                        : cabac=1 / ref=4 / deblock=1:0:0 / analyse=0x3:0x113 / me=hex / subme=7 / psy=1 / psy_rd=1.00:0.00 / mixed_ref=1 / me_range=16 / chroma_me=1 / trellis=0 / 8x8dct=1 / cqm=0 / deadzone=21,11 / fast_pskip=1 / chroma_qp_offset=-2 / threads=3 / sliced_threads=0 / nr=0 / decimate=1 / interlaced=0 / bluray_compat=0 / constrained_intra=0 / bframes=0 / weightp=2 / keyint=250 / keyint_min=25 / scenecut=40 / intra_refresh=0 / rc_lookahead=40 / rc=crf / mbtree=1 / crf=25.0 / qcomp=0.60 / qpmin=0 / qpmax=69 / qpstep=4 / ip_ratio=1.40 / aq=1:1.00 SP D207  
Default                                  : Yes g@k#J"Q '[  
Forced                                   : No
Audio Kixr6\  
ID                                       : 2 _/N'I7g  
Format                                   : Vorbis C$'D]fX  
Format settings, Floor                   : 1 P+;CE|J`X  
Codec ID                                 : A_VORBIS iBtjd`V*  
Duration                                 : 1h 12mn StdS$XW  
Bit rate mode                            : Variable B \_d5WJ<  
Bit rate                                 : 96.0 Kbps cz7 CrK~5  
Channel(s)                               : 2 channels #4P3xa  
Sampling rate                            : 48.0 KHz l?o-!M{  
Compression mode                         : Lossy hr_9;,EPh  
Stream size                              : 49.5 MiB (12%) .0Iun+nUD  
Writing library                          : libVorbis (Schaufenugget) (20101101 (Schaufenugget)) ~$&:NB1~q  
Default                                  : Yes n2xLgK=  
Forced                                   : No >op:0on]}  
Writing application                      : Lavc53.42.0
u{OS6Ky  
tT@w%Sz57N  
此帖售价 3 金钱,已有 31 人购买 [记录] [购买]
购买后,将显示帖子中所有出售内容。
若发现会员采用欺骗的方法获取财富,请立刻举报,我们会对会员处以2-N倍的罚金,严重者封掉ID!
此段为出售的内容,购买后显示
3条评分金钱+11威望+2
傻傻滴灰太狼 金钱 +1 应该可以看 2014-02-22
reystytijyte 威望 +2 吖广压制,质量有保证!😄 2013-07-12
reystytijyte 金钱 +10 吖广压制,质量有保证!😄 2013-07-12
离线MJ之王

发帖
3558
金钱
194673
威望
3953
贡献值
1598
交易币
3248
只看该作者 1楼 发表于: 2013-07-12
吖广压制,质量有保证!😄
离线星火相传

发帖
451
金钱
4801
威望
159
贡献值
48
交易币
336
只看该作者 2楼 发表于: 2013-07-12
顶一下压制的。victory tour 以前也收过一些,但画质真心。。。。。希望压过后会好一些

发帖
2894
金钱
59573
威望
727
贡献值
479
交易币
3807
只看该作者 3楼 发表于: 2013-07-12
离线HappyLee

发帖
2692
金钱
102835
威望
2565
贡献值
1188
交易币
3806
只看该作者 4楼 发表于: 2013-07-12
奇怪,这次怎么会用品质25压制?以前不是一般都在用品质21或22吗? :j|IP)-f  
辛苦了,支持一下!
离线mjghosts

发帖
8248
金钱
217821
威望
9174
贡献值
2723
交易币
4759
只看该作者 5楼 发表于: 2013-07-12
回 happylee 的帖子
画质不理想而且费码率所以当作业余版处理了,呵呵。
离线mjlove98

发帖
2562
金钱
4352
威望
197
贡献值
123
交易币
2640
只看该作者 6楼 发表于: 2013-07-12
谢谢,支持一下楼主。
离线czyabcde

发帖
734
金钱
11898
威望
65
贡献值
38
交易币
868
只看该作者 7楼 发表于: 2013-07-12
不错哦

欢迎分流,请勿盗链
离线mjisbad

发帖
1323
金钱
1849
威望
96
贡献值
21
交易币
1390
只看该作者 8楼 发表于: 2013-07-12
支持一下高质量压制

离线superlovemj

发帖
721
金钱
16143
威望
216
贡献值
91
交易币
963
只看该作者 9楼 发表于: 2013-07-12
这场也一并收了,今天收获2场,感谢。
我在不同阶段有过不同的偶像
而MJ却是永恒不变的