论坛风格切换切换到宽版
  • 5136阅读
  • 36回复

1984.Victory演唱会.Kansas.480p.x264.25fps-MSZ压制【百度盘】 [复制链接]

上一主题 下一主题
离线mjghosts
 

发帖
8279
金钱
220938
威望
9195
贡献值
2742
交易币
4818
只看楼主 倒序阅读 楼主  发表于: 2013-07-12
— 本帖被 xzwpp 执行锁定操作(2018-02-16) —
下载链接请直转 KtD XB>  
片源:MJFANSZONE
KpC!C9  
G124! ^  
DVD片源来自迈迷国度,论坛曾经发布过一个“音质画质加强版”,与此DVD挺相似的,不过我没有下载过所以不清楚版本是否一样。 |cgc^S/~H  
7ygz52  
由于画质不太理想,所以就以业余版演唱会般的压缩配置进行压制,但画面损失不大。喜下,不喜勿下。
X3'd~!a)  
]z8Th5a?o  
)M* Sg?L  
l ;S_J^S  
Unique ID                                : 322184724322056640827578133249749954161 (0xF26285546EEB2A8E016D128F003C2E71) 08/Tk+  
Complete name                            : C:\[MJSHOWZONE]1984.Victory演唱会.Kansas.480p.x264.25fps.mkv -Gjz+cRns  
Format                                   : Matroska Y$_^f*sFn  
Format version                           : Version 2 2 ,krVb?<  
File size                                : 424 MiB :s1.TQ;Y(  
Duration                                 : 1h 12mn ~MP/[,j`  
Overall bit rate mode                    : Variable "]W,,A-  
Overall bit rate                         : 824 Kbps &{q<  
Writing application                      : Kirara Encoder `JyI`@,!  
Writing library                          : Kirara Encoder
Video U G4I @@=  
ID                                       : 1 R G~GVf  
Format                                   : AVC 3GrIHiC r  
Format/Info                              : Advanced Video Codec |io)?`pj  
Format profile                           : High@L4.1 W$W w/mcl+  
Format settings, CABAC                   : Yes KOoV'YSC[(  
Format settings, ReFrames                : 4 frames FF0~i+5  
Codec ID                                 : V_MPEG4/ISO/AVC -9Ygn_M  
Duration                                 : 1h 12mn [+="I &  
Bit rate                                 : 711 Kbps p*Yx1er1  
Width                                    : 640 pixels KHGUR(\Rd6  
Height                                   : 480 pixels +}Mm5^6*  
Display aspect ratio                     : 4:3 m\E=I5*/  
Frame rate mode                          : Constant @\M^Zuo  
Frame rate                               : 25.000 fps c#>:U,j  
Color space                              : YUV ln":j?`  
Chroma subsampling                       : 4:2:0 B__e*d:)!m  
Bit depth                                : 8 bits oq b(w+<  
Scan type                                : Progressive ~y whl'"k  
Bits/(Pixel*Frame)                       : 0.093 D=Yr/qc?  
Stream size                              : 366 MiB (86%) ,DEcCHr,  
Writing library                          : x264 core 120 VN$7r  
Encoding settings                        : cabac=1 / ref=4 / deblock=1:0:0 / analyse=0x3:0x113 / me=hex / subme=7 / psy=1 / psy_rd=1.00:0.00 / mixed_ref=1 / me_range=16 / chroma_me=1 / trellis=0 / 8x8dct=1 / cqm=0 / deadzone=21,11 / fast_pskip=1 / chroma_qp_offset=-2 / threads=3 / sliced_threads=0 / nr=0 / decimate=1 / interlaced=0 / bluray_compat=0 / constrained_intra=0 / bframes=0 / weightp=2 / keyint=250 / keyint_min=25 / scenecut=40 / intra_refresh=0 / rc_lookahead=40 / rc=crf / mbtree=1 / crf=25.0 / qcomp=0.60 / qpmin=0 / qpmax=69 / qpstep=4 / ip_ratio=1.40 / aq=1:1.00 ,4B8?0sH|  
Default                                  : Yes AVfF<E/  
Forced                                   : No
Audio T[c-E*{hR  
ID                                       : 2 9}tl @  
Format                                   : Vorbis [/l&:)5W>  
Format settings, Floor                   : 1 BN&}g}N  
Codec ID                                 : A_VORBIS 2^w{Hcf  
Duration                                 : 1h 12mn :_=YH+bZ  
Bit rate mode                            : Variable K8_\U0 K  
Bit rate                                 : 96.0 Kbps :2')`xT  
Channel(s)                               : 2 channels y0/FyQs  
Sampling rate                            : 48.0 KHz Q:T9&_|  
Compression mode                         : Lossy U3UA  
Stream size                              : 49.5 MiB (12%) pK"Z9y&  
Writing library                          : libVorbis (Schaufenugget) (20101101 (Schaufenugget)) N|ZGc{?  
Default                                  : Yes dy'lM ;@-  
Forced                                   : No .3cD.']%  
Writing application                      : Lavc53.42.0
SM1[)jZ-  
%K7wScz7  
此帖售价 3 金钱,已有 31 人购买 [记录] [购买]
购买后,将显示帖子中所有出售内容。
若发现会员采用欺骗的方法获取财富,请立刻举报,我们会对会员处以2-N倍的罚金,严重者封掉ID!
此段为出售的内容,购买后显示
3条评分金钱+11威望+2
傻傻滴灰太狼 金钱 +1 应该可以看 2014-02-22
reystytijyte 威望 +2 吖广压制,质量有保证!😄 2013-07-12
reystytijyte 金钱 +10 吖广压制,质量有保证!😄 2013-07-12
离线MJ之王

发帖
3558
金钱
196925
威望
3960
贡献值
1598
交易币
3248
只看该作者 1楼 发表于: 2013-07-12
吖广压制,质量有保证!😄
离线星火相传

发帖
451
金钱
4806
威望
159
贡献值
48
交易币
336
只看该作者 2楼 发表于: 2013-07-12
顶一下压制的。victory tour 以前也收过一些,但画质真心。。。。。希望压过后会好一些

发帖
2894
金钱
59725
威望
727
贡献值
479
交易币
3807
只看该作者 3楼 发表于: 2013-07-12
离线HappyLee

发帖
2735
金钱
108320
威望
2797
贡献值
1409
交易币
3933
只看该作者 4楼 发表于: 2013-07-12
奇怪,这次怎么会用品质25压制?以前不是一般都在用品质21或22吗? :M _N  
辛苦了,支持一下!
离线mjghosts

发帖
8279
金钱
220938
威望
9195
贡献值
2742
交易币
4818
只看该作者 5楼 发表于: 2013-07-12
回 happylee 的帖子
画质不理想而且费码率所以当作业余版处理了,呵呵。
离线mjlove98

发帖
2622
金钱
3439
威望
197
贡献值
123
交易币
2700
只看该作者 6楼 发表于: 2013-07-12
谢谢,支持一下楼主。
离线czyabcde

发帖
734
金钱
11916
威望
65
贡献值
38
交易币
868
只看该作者 7楼 发表于: 2013-07-12
不错哦

欢迎分流,请勿盗链
离线mjisbad

发帖
1342
金钱
1574
威望
96
贡献值
21
交易币
1409
只看该作者 8楼 发表于: 2013-07-12
支持一下高质量压制

离线superlovemj

发帖
727
金钱
16209
威望
216
贡献值
91
交易币
969
只看该作者 9楼 发表于: 2013-07-12
这场也一并收了,今天收获2场,感谢。
我在不同阶段有过不同的偶像
而MJ却是永恒不变的