论坛风格切换切换到宽版
  • 4419阅读
  • 36回复

1984.Victory演唱会.Kansas.480p.x264.25fps-MSZ压制【百度盘】 [复制链接]

上一主题 下一主题
离线mjghosts
 

发帖
8261
金钱
219535
威望
9187
贡献值
2734
交易币
4796
只看楼主 倒序阅读 楼主  发表于: 2013-07-12
— 本帖被 xzwpp 执行锁定操作(2018-02-16) —
下载链接请直转 ],].zlN  
片源:MJFANSZONE
zbPqYhJzA  
Xn ;AZu^'R  
DVD片源来自迈迷国度,论坛曾经发布过一个“音质画质加强版”,与此DVD挺相似的,不过我没有下载过所以不清楚版本是否一样。 <a+Z;>  
syK^<xa  
由于画质不太理想,所以就以业余版演唱会般的压缩配置进行压制,但画面损失不大。喜下,不喜勿下。
:~^ (g$Z  
A5w6]:f2  
n'w.; q  
;9g2?-svw  
Unique ID                                : 322184724322056640827578133249749954161 (0xF26285546EEB2A8E016D128F003C2E71) $, '*f?d  
Complete name                            : C:\[MJSHOWZONE]1984.Victory演唱会.Kansas.480p.x264.25fps.mkv G*v,GR  
Format                                   : Matroska Mb7I[5v  
Format version                           : Version 2 pY$Q  
File size                                : 424 MiB !5?<% *  
Duration                                 : 1h 12mn W`*r>`krVJ  
Overall bit rate mode                    : Variable W|(1Y D  
Overall bit rate                         : 824 Kbps K'I#W lg  
Writing application                      : Kirara Encoder RY*U"G0#w  
Writing library                          : Kirara Encoder
Video {2 "zVt#h  
ID                                       : 1 N$:8 ,9.z  
Format                                   : AVC Pd]|:W< E  
Format/Info                              : Advanced Video Codec *s iFj CN<  
Format profile                           : High@L4.1  qA5r  
Format settings, CABAC                   : Yes 1hNq8*|  
Format settings, ReFrames                : 4 frames yyy|Pw4:Z  
Codec ID                                 : V_MPEG4/ISO/AVC tcog'nAz  
Duration                                 : 1h 12mn Fh9h,' V"  
Bit rate                                 : 711 Kbps 4x[S\,20  
Width                                    : 640 pixels OprkR  
Height                                   : 480 pixels g_COp "!~9  
Display aspect ratio                     : 4:3 4d;8`66O  
Frame rate mode                          : Constant fPW@{~t  
Frame rate                               : 25.000 fps a-L;*  
Color space                              : YUV aPbE;" f  
Chroma subsampling                       : 4:2:0 GYUn6P  
Bit depth                                : 8 bits hSyql  
Scan type                                : Progressive [-oc>; `=l  
Bits/(Pixel*Frame)                       : 0.093 XFV!S#yEZ  
Stream size                              : 366 MiB (86%) =^50FI|  
Writing library                          : x264 core 120 ,f;}|d:r  
Encoding settings                        : cabac=1 / ref=4 / deblock=1:0:0 / analyse=0x3:0x113 / me=hex / subme=7 / psy=1 / psy_rd=1.00:0.00 / mixed_ref=1 / me_range=16 / chroma_me=1 / trellis=0 / 8x8dct=1 / cqm=0 / deadzone=21,11 / fast_pskip=1 / chroma_qp_offset=-2 / threads=3 / sliced_threads=0 / nr=0 / decimate=1 / interlaced=0 / bluray_compat=0 / constrained_intra=0 / bframes=0 / weightp=2 / keyint=250 / keyint_min=25 / scenecut=40 / intra_refresh=0 / rc_lookahead=40 / rc=crf / mbtree=1 / crf=25.0 / qcomp=0.60 / qpmin=0 / qpmax=69 / qpstep=4 / ip_ratio=1.40 / aq=1:1.00 qVwIo.g!  
Default                                  : Yes gn".u!9j  
Forced                                   : No
Audio ?|B&M\}g  
ID                                       : 2 ve2u=eQ1  
Format                                   : Vorbis =CVBBuVy  
Format settings, Floor                   : 1 +<3X J7D  
Codec ID                                 : A_VORBIS p\aaJ  
Duration                                 : 1h 12mn :;fHDU|  
Bit rate mode                            : Variable Jk=I^%~  
Bit rate                                 : 96.0 Kbps V"G*N<q  
Channel(s)                               : 2 channels 9}F*P669f  
Sampling rate                            : 48.0 KHz 'yG4 LF  
Compression mode                         : Lossy A5R<p+t6  
Stream size                              : 49.5 MiB (12%) @ H7d_S  
Writing library                          : libVorbis (Schaufenugget) (20101101 (Schaufenugget)) {NFr]LGOp  
Default                                  : Yes vyX\'r.~7  
Forced                                   : No RcM/!,B  
Writing application                      : Lavc53.42.0
C=)A6 ;=se  
{/(D$"j(S  
此帖售价 3 金钱,已有 31 人购买 [记录] [购买]
购买后,将显示帖子中所有出售内容。
若发现会员采用欺骗的方法获取财富,请立刻举报,我们会对会员处以2-N倍的罚金,严重者封掉ID!
此段为出售的内容,购买后显示
3条评分金钱+11威望+2
傻傻滴灰太狼 金钱 +1 应该可以看 2014-02-22
reystytijyte 威望 +2 吖广压制,质量有保证!😄 2013-07-12
reystytijyte 金钱 +10 吖广压制,质量有保证!😄 2013-07-12
离线MJ之王

发帖
3558
金钱
195005
威望
3953
贡献值
1598
交易币
3248
只看该作者 1楼 发表于: 2013-07-12
吖广压制,质量有保证!😄
离线星火相传

发帖
451
金钱
4806
威望
159
贡献值
48
交易币
336
只看该作者 2楼 发表于: 2013-07-12
顶一下压制的。victory tour 以前也收过一些,但画质真心。。。。。希望压过后会好一些

发帖
2894
金钱
59605
威望
727
贡献值
479
交易币
3807
只看该作者 3楼 发表于: 2013-07-12
离线HappyLee

发帖
2707
金钱
103914
威望
2591
贡献值
1204
交易币
3833
只看该作者 4楼 发表于: 2013-07-12
奇怪,这次怎么会用品质25压制?以前不是一般都在用品质21或22吗? Y`_X@Q  
辛苦了,支持一下!
离线mjghosts

发帖
8261
金钱
219535
威望
9187
贡献值
2734
交易币
4796
只看该作者 5楼 发表于: 2013-07-12
回 happylee 的帖子
画质不理想而且费码率所以当作业余版处理了,呵呵。
离线mjlove98

发帖
2589
金钱
4045
威望
197
贡献值
123
交易币
2667
只看该作者 6楼 发表于: 2013-07-12
谢谢,支持一下楼主。
离线czyabcde

发帖
734
金钱
11898
威望
65
贡献值
38
交易币
868
只看该作者 7楼 发表于: 2013-07-12
不错哦

欢迎分流,请勿盗链
离线mjisbad

发帖
1334
金钱
1712
威望
96
贡献值
21
交易币
1401
只看该作者 8楼 发表于: 2013-07-12
支持一下高质量压制

离线superlovemj

发帖
724
金钱
16167
威望
216
贡献值
91
交易币
966
只看该作者 9楼 发表于: 2013-07-12
这场也一并收了,今天收获2场,感谢。
我在不同阶段有过不同的偶像
而MJ却是永恒不变的