论坛风格切换切换到宽版
  • 3704阅读
  • 30回复

1996.HIStory演唱会.Seoul.480p.x264.29fps-MSZ压制【百度盘】 [复制链接]

上一主题 下一主题
离线mjghosts
 

发帖
8256
金钱
219439
威望
9187
贡献值
2734
交易币
4791
只看楼主 倒序阅读 楼主  发表于: 2013-07-14
zmhc\M ?z  
下载链接请直转! w+6P x#  
片源:ppz2001(官方录像带转制)
2Hd\>{*  
0`E G-Hw  
继续发些压制,目标是将已有VHS-DVD版本的历史巡演都做一个压制发布。 :E-$:\V0}k  
这次的韩国历史压制片源选取做了很长时间的思想挣扎,最终还是选择了阳光会员ppz2001分享的官方录像带转制版本,原因就是此版的音画都相对较高,不存在影响观赏的时间码,亦不存在画面亮度和噪点过重难以控制码率的情况,在模拟信号年代的韩国历史最具代表性的莫过于此版本了。在此再次感谢他!
/xUF@%rT  
U,!qNi}  
}Nr6oUn  
v7pu  
Unique ID                                : 301792192354127562466990938337283787198 (0xE30B0FE0C928646C6D43AF200265C9BE) -F?97&G$  
Complete name                            : G:\压制作品\[MJSHOWZONE]1996.HIStory演唱会.Seoul.480p.x264.29fps-ppz2001.mkv K+|XI|1p  
Format                                   : Matroska .#~!w!T  
Format version                           : Version 2 2FZ T  
File size                                : 1.18 GiB +@]k[9  
Duration                                 : 1h 59mn s<LnUF1b  
Overall bit rate mode                    : Variable qqo#H O  
Overall bit rate                         : 1 422 Kbps V'#R1x"3  
Writing application                      : Kirara Encoder tl /i  
Writing library                          : Kirara Encoder
Video 2~\SUGW-  
ID                                       : 1 9,~7,Py}  
Format                                   : AVC qJT/4 8lf_  
Format/Info                              : Advanced Video Codec mST8+R@S  
Format profile                           : High@L4.1 p%meuWV%5  
Format settings, CABAC                   : Yes =q]!"yU[d  
Format settings, ReFrames                : 4 frames [5~mP`He  
Codec ID                                 : V_MPEG4/ISO/AVC nyi!D   
Duration                                 : 1h 59mn ;x\oY6:  
Bit rate                                 : 1 298 Kbps Dj96t5R  
Width                                    : 640 pixels 9r]|P}yuS  
Height                                   : 480 pixels c$ZV vu  
Display aspect ratio                     : 4:3 ;WSW&2  
Frame rate mode                          : Constant hNN[djR  
Frame rate                               : 29.970 fps AVpg  
Color space                              : YUV mF*x&^ie  
Chroma subsampling                       : 4:2:0 >-A@6Qe_  
Bit depth                                : 8 bits qG6s.TcG  
Scan type                                : Progressive &-ro pY  
Bits/(Pixel*Frame)                       : 0.141 v=N?(6T  
Stream size                              : 1.08 GiB (91%) 7{|QkTgC  
Writing library                          : x264 core 120 <gp?}Lk  
Encoding settings                        : cabac=1 / ref=4 / deblock=1:0:0 / analyse=0x3:0x113 / me=hex / subme=7 / psy=1 / psy_rd=1.00:0.00 / mixed_ref=1 / me_range=16 / chroma_me=1 / trellis=0 / 8x8dct=1 / cqm=0 / deadzone=21,11 / fast_pskip=1 / chroma_qp_offset=-2 / threads=3 / sliced_threads=0 / nr=0 / decimate=1 / interlaced=0 / bluray_compat=0 / constrained_intra=0 / bframes=0 / weightp=2 / keyint=250 / keyint_min=25 / scenecut=40 / intra_refresh=0 / rc_lookahead=40 / rc=crf / mbtree=1 / crf=21.0 / qcomp=0.60 / qpmin=0 / qpmax=69 / qpstep=4 / ip_ratio=1.40 / aq=1:1.00 c5YPV"X  
Default                                  : Yes 6CY&pbR  
Forced                                   : No
Audio A lU^ ,X  
ID                                       : 2 V0nQmsP1U  
Format                                   : Vorbis mayJwBfU  
Format settings, Floor                   : 1 ,erw(7}'.  
Codec ID                                 : A_VORBIS '%NglC[J  
Duration                                 : 1h 59mn +a1x;  
Bit rate mode                            : Variable x]~TGzS  
Bit rate                                 : 96.0 Kbps dUI5,3*  
Channel(s)                               : 2 channels je4l3Hl  
Sampling rate                            : 48.0 KHz Qzi?%&  
Compression mode                         : Lossy 6*OL.~WE  
Stream size                              : 81.9 MiB (7%) 2Xb, i  
Writing library                          : libVorbis (Schaufenugget) (20101101 (Schaufenugget)) bp1AN9~  
Default                                  : Yes iyskADS  
Forced                                   : No >.h:Y5  
Writing application                      : Lavc53.42.0
@KG0QHyiU  
|<%!9Z  
此帖售价 4 金钱,已有 25 人购买 [记录] [购买]
购买后,将显示帖子中所有出售内容。
若发现会员采用欺骗的方法获取财富,请立刻举报,我们会对会员处以2-N倍的罚金,严重者封掉ID!
此段为出售的内容,购买后显示
3条评分金钱+20威望+2
傻傻滴灰太狼 金钱 +10 收第二个. 2014-02-22
reystytijyte 威望 +2 压制上传辛苦了! 2013-07-14
reystytijyte 金钱 +10 压制上传辛苦了! 2013-07-14

发帖
2894
金钱
59589
威望
727
贡献值
479
交易币
3807
只看该作者 1楼 发表于: 2013-07-14
太棒了,我终于把历史的收集完了,感谢楼主

内容来自Android手机客户端

离线jerry黄哲

发帖
1102
金钱
8824
威望
19
贡献值
34
交易币
1243
只看该作者 2楼 发表于: 2013-07-14
回 蓝白色的香蕉 的帖子
蓝白色的香蕉:太棒了,我终于把历史的收集完了,感谢楼主 (2013-07-14 19:28)  ~"S5KroN  
%enJ[a%Qg  
香蕉。你收集的是dvd的。还是压制
离线michaeljalie

发帖
74
金钱
191
威望
-6
贡献值
8
交易币
107
只看该作者 3楼 发表于: 2013-07-14
Thanks to you
离线流行王冠

发帖
672
金钱
660
威望
-9
贡献值
16
交易币
737
只看该作者 4楼 发表于: 2013-07-14
正想要汉城娜,谢谢。

发帖
706
金钱
3072
威望
203
贡献值
51
交易币
771
只看该作者 5楼 发表于: 2013-07-14
谢谢楼主!
离线MJ之王

发帖
3558
金钱
194905
威望
3953
贡献值
1598
交易币
3248
只看该作者 6楼 发表于: 2013-07-14
压制上传辛苦了!
离线六月的天

发帖
515
金钱
542
威望
40
贡献值
9
交易币
465
只看该作者 7楼 发表于: 2013-07-15
谢谢楼主的分享~~
老迈最帅
离线mjlove98

发帖
2585
金钱
4080
威望
197
贡献值
123
交易币
2663
只看该作者 8楼 发表于: 2013-07-15
正想要汉城娜,谢谢。
离线liuhuaqiao19

发帖
272
金钱
750
威望
15
贡献值
14
交易币
329
只看该作者 9楼 发表于: 2013-07-15
不错,准备下载了
快速回复
限100 字节
 
上一个 下一个