论坛风格切换切换到宽版
  • 3522阅读
  • 30回复

1996.HIStory演唱会.Seoul.480p.x264.29fps-MSZ压制【百度盘】 [复制链接]

上一主题 下一主题
离线mjghosts
 

发帖
8248
金钱
217799
威望
9174
贡献值
2723
交易币
4759
只看楼主 倒序阅读 楼主  发表于: 2013-07-14
I!(.tu6u6c  
下载链接请直转! P0m;AqS#R  
片源:ppz2001(官方录像带转制)
rbP" n)0=  
jr@u  
继续发些压制,目标是将已有VHS-DVD版本的历史巡演都做一个压制发布。 :tP:X+?O  
这次的韩国历史压制片源选取做了很长时间的思想挣扎,最终还是选择了阳光会员ppz2001分享的官方录像带转制版本,原因就是此版的音画都相对较高,不存在影响观赏的时间码,亦不存在画面亮度和噪点过重难以控制码率的情况,在模拟信号年代的韩国历史最具代表性的莫过于此版本了。在此再次感谢他!
m?;aTSa  
&FrW(>2  
qzv$E;zAl  
_vA\j  
Unique ID                                : 301792192354127562466990938337283787198 (0xE30B0FE0C928646C6D43AF200265C9BE) ien >Ou  
Complete name                            : G:\压制作品\[MJSHOWZONE]1996.HIStory演唱会.Seoul.480p.x264.29fps-ppz2001.mkv TGxspmY6  
Format                                   : Matroska S5:`fo^5  
Format version                           : Version 2 w7Nb+/,sg  
File size                                : 1.18 GiB f o])=KM  
Duration                                 : 1h 59mn C3fSSa%b  
Overall bit rate mode                    : Variable l" y==y  
Overall bit rate                         : 1 422 Kbps m ys5B}  
Writing application                      : Kirara Encoder l 6wX18~XJ  
Writing library                          : Kirara Encoder
Video M 7j0&>NTG  
ID                                       : 1 ^ri?eKy.-g  
Format                                   : AVC 6T 2jVNg  
Format/Info                              : Advanced Video Codec *JXiOs  
Format profile                           : High@L4.1 J&~nD(&TY  
Format settings, CABAC                   : Yes u/FnA-L4  
Format settings, ReFrames                : 4 frames C)> ])'S  
Codec ID                                 : V_MPEG4/ISO/AVC jqHg'Fq  
Duration                                 : 1h 59mn c }>:>^  
Bit rate                                 : 1 298 Kbps -A}*Aa'\  
Width                                    : 640 pixels -ecP@,  
Height                                   : 480 pixels m3]|I(]`Xe  
Display aspect ratio                     : 4:3 Z~o*$tF/  
Frame rate mode                          : Constant =?UCtYN,P  
Frame rate                               : 29.970 fps 07-S%L7Z  
Color space                              : YUV BDY@&vF  
Chroma subsampling                       : 4:2:0 bL 5z%bV  
Bit depth                                : 8 bits a#W:SgE?Y  
Scan type                                : Progressive MGIpo[  
Bits/(Pixel*Frame)                       : 0.141 'Omi3LXfDT  
Stream size                              : 1.08 GiB (91%) vrXmzq  
Writing library                          : x264 core 120 V%&t'H{  
Encoding settings                        : cabac=1 / ref=4 / deblock=1:0:0 / analyse=0x3:0x113 / me=hex / subme=7 / psy=1 / psy_rd=1.00:0.00 / mixed_ref=1 / me_range=16 / chroma_me=1 / trellis=0 / 8x8dct=1 / cqm=0 / deadzone=21,11 / fast_pskip=1 / chroma_qp_offset=-2 / threads=3 / sliced_threads=0 / nr=0 / decimate=1 / interlaced=0 / bluray_compat=0 / constrained_intra=0 / bframes=0 / weightp=2 / keyint=250 / keyint_min=25 / scenecut=40 / intra_refresh=0 / rc_lookahead=40 / rc=crf / mbtree=1 / crf=21.0 / qcomp=0.60 / qpmin=0 / qpmax=69 / qpstep=4 / ip_ratio=1.40 / aq=1:1.00 ZjY_AbD  
Default                                  : Yes ay#cW.,  
Forced                                   : No
Audio zmy94Y5PE  
ID                                       : 2 QOIi/flK  
Format                                   : Vorbis (A?{6  
Format settings, Floor                   : 1 O!='U!X@P  
Codec ID                                 : A_VORBIS 3ydOBeY  
Duration                                 : 1h 59mn i](,s.  
Bit rate mode                            : Variable rKq/=Avv  
Bit rate                                 : 96.0 Kbps o#E 3{zM  
Channel(s)                               : 2 channels 12Qcjj%F*  
Sampling rate                            : 48.0 KHz X"b4U\A  
Compression mode                         : Lossy qie7iE`o  
Stream size                              : 81.9 MiB (7%) K|];fd U  
Writing library                          : libVorbis (Schaufenugget) (20101101 (Schaufenugget)) I})la!9   
Default                                  : Yes C1P{4 U  
Forced                                   : No Ken|!rL  
Writing application                      : Lavc53.42.0
3tI=? E#  
;OmmXygl  
此帖售价 4 金钱,已有 25 人购买 [记录] [购买]
购买后,将显示帖子中所有出售内容。
若发现会员采用欺骗的方法获取财富,请立刻举报,我们会对会员处以2-N倍的罚金,严重者封掉ID!
此段为出售的内容,购买后显示
3条评分金钱+20威望+2
傻傻滴灰太狼 金钱 +10 收第二个. 2014-02-22
reystytijyte 威望 +2 压制上传辛苦了! 2013-07-14
reystytijyte 金钱 +10 压制上传辛苦了! 2013-07-14

发帖
2894
金钱
59573
威望
727
贡献值
479
交易币
3807
只看该作者 1楼 发表于: 2013-07-14
太棒了,我终于把历史的收集完了,感谢楼主

内容来自Android手机客户端

离线jerry黄哲

发帖
1102
金钱
8819
威望
19
贡献值
34
交易币
1243
只看该作者 2楼 发表于: 2013-07-14
回 蓝白色的香蕉 的帖子
蓝白色的香蕉:太棒了,我终于把历史的收集完了,感谢楼主 (2013-07-14 19:28)  Jk{>*jYk`  
v[Q)cqj/  
香蕉。你收集的是dvd的。还是压制
离线michaeljalie

发帖
74
金钱
191
威望
-6
贡献值
8
交易币
107
只看该作者 3楼 发表于: 2013-07-14
Thanks to you
离线流行王冠

发帖
672
金钱
660
威望
-9
贡献值
16
交易币
737
只看该作者 4楼 发表于: 2013-07-14
正想要汉城娜,谢谢。

发帖
706
金钱
3072
威望
203
贡献值
51
交易币
771
只看该作者 5楼 发表于: 2013-07-14
谢谢楼主!
离线MJ之王

发帖
3558
金钱
194673
威望
3953
贡献值
1598
交易币
3248
只看该作者 6楼 发表于: 2013-07-14
压制上传辛苦了!
离线六月的天

发帖
513
金钱
537
威望
40
贡献值
9
交易币
463
只看该作者 7楼 发表于: 2013-07-15
谢谢楼主的分享~~
老迈最帅
离线mjlove98

发帖
2562
金钱
4352
威望
197
贡献值
123
交易币
2640
只看该作者 8楼 发表于: 2013-07-15
正想要汉城娜,谢谢。
离线liuhuaqiao19

发帖
272
金钱
750
威望
15
贡献值
14
交易币
329
只看该作者 9楼 发表于: 2013-07-15
不错,准备下载了
快速回复
限100 字节
 
上一个 下一个