论坛风格切换切换到宽版
  • 4528阅读
  • 30回复

1996.HIStory演唱会.Seoul.480p.x264.29fps-MSZ压制【百度盘】 [复制链接]

上一主题 下一主题
离线mjghosts
 

发帖
8278
金钱
220226
威望
9195
贡献值
2742
交易币
4817
只看楼主 倒序阅读 楼主  发表于: 2013-07-14
7&NRE"?G  
下载链接请直转! 6fPuTQ}fY>  
片源:ppz2001(官方录像带转制)
1SkGG0 W  
ci5ERv`  
继续发些压制,目标是将已有VHS-DVD版本的历史巡演都做一个压制发布。 a%ec: %  
这次的韩国历史压制片源选取做了很长时间的思想挣扎,最终还是选择了阳光会员ppz2001分享的官方录像带转制版本,原因就是此版的音画都相对较高,不存在影响观赏的时间码,亦不存在画面亮度和噪点过重难以控制码率的情况,在模拟信号年代的韩国历史最具代表性的莫过于此版本了。在此再次感谢他!
`]WU=Ss  
@)VJ,Ql$Y  
FlVGi3  
HJBUN1n  
Unique ID                                : 301792192354127562466990938337283787198 (0xE30B0FE0C928646C6D43AF200265C9BE) XPUH\I=  
Complete name                            : G:\压制作品\[MJSHOWZONE]1996.HIStory演唱会.Seoul.480p.x264.29fps-ppz2001.mkv wi*Ke2YKP  
Format                                   : Matroska xkUsZ*X8B  
Format version                           : Version 2 ?_\Hv@t;  
File size                                : 1.18 GiB qK|r+}g|&  
Duration                                 : 1h 59mn !6<2JNf  
Overall bit rate mode                    : Variable MB^ b)\X  
Overall bit rate                         : 1 422 Kbps =\X<UA}  
Writing application                      : Kirara Encoder Bu!Gy8\  
Writing library                          : Kirara Encoder
Video G-"#3{~2  
ID                                       : 1 wQ.ild  
Format                                   : AVC I|WBT  
Format/Info                              : Advanced Video Codec Zls4@/\Q  
Format profile                           : High@L4.1 XHpoaHyx  
Format settings, CABAC                   : Yes /-BplU*"9  
Format settings, ReFrames                : 4 frames /tt  
Codec ID                                 : V_MPEG4/ISO/AVC I[[rVts  
Duration                                 : 1h 59mn 3j.f3~"  
Bit rate                                 : 1 298 Kbps /5yW vra  
Width                                    : 640 pixels U4LOe}Ny  
Height                                   : 480 pixels \f{C2d/6j  
Display aspect ratio                     : 4:3 YJ!6)d?C.  
Frame rate mode                          : Constant ]Ff&zBJ  
Frame rate                               : 29.970 fps C@Wm+E~;8  
Color space                              : YUV 9IIe:  
Chroma subsampling                       : 4:2:0 q"]-CGAa  
Bit depth                                : 8 bits KgKV(q=  
Scan type                                : Progressive uMqo)J@s  
Bits/(Pixel*Frame)                       : 0.141 j4brDlo?@  
Stream size                              : 1.08 GiB (91%) `9 $?g|rB  
Writing library                          : x264 core 120 T8qG9)~3  
Encoding settings                        : cabac=1 / ref=4 / deblock=1:0:0 / analyse=0x3:0x113 / me=hex / subme=7 / psy=1 / psy_rd=1.00:0.00 / mixed_ref=1 / me_range=16 / chroma_me=1 / trellis=0 / 8x8dct=1 / cqm=0 / deadzone=21,11 / fast_pskip=1 / chroma_qp_offset=-2 / threads=3 / sliced_threads=0 / nr=0 / decimate=1 / interlaced=0 / bluray_compat=0 / constrained_intra=0 / bframes=0 / weightp=2 / keyint=250 / keyint_min=25 / scenecut=40 / intra_refresh=0 / rc_lookahead=40 / rc=crf / mbtree=1 / crf=21.0 / qcomp=0.60 / qpmin=0 / qpmax=69 / qpstep=4 / ip_ratio=1.40 / aq=1:1.00 P^1rNB  
Default                                  : Yes wmT3 >  
Forced                                   : No
Audio {OQ sGyR?  
ID                                       : 2 ?mF-zA'4]  
Format                                   : Vorbis %*r P d>*  
Format settings, Floor                   : 1 Uvz9x"0[u  
Codec ID                                 : A_VORBIS r%xNfTa  
Duration                                 : 1h 59mn 7f 7*id  
Bit rate mode                            : Variable j&#p&`B  
Bit rate                                 : 96.0 Kbps $Y ]*v)}X  
Channel(s)                               : 2 channels q 2= ^l  
Sampling rate                            : 48.0 KHz [%bshaY:  
Compression mode                         : Lossy x#pT B.  
Stream size                              : 81.9 MiB (7%) B%r)~?6DM  
Writing library                          : libVorbis (Schaufenugget) (20101101 (Schaufenugget)) Le_?x  
Default                                  : Yes BDcl1f T  
Forced                                   : No  BeP0lZ  
Writing application                      : Lavc53.42.0
>5XE*9  
Vwl`A3Y  
此帖售价 4 金钱,已有 25 人购买 [记录] [购买]
购买后,将显示帖子中所有出售内容。
若发现会员采用欺骗的方法获取财富,请立刻举报,我们会对会员处以2-N倍的罚金,严重者封掉ID!
此段为出售的内容,购买后显示
3条评分金钱+20威望+2
傻傻滴灰太狼 金钱 +10 收第二个. 2014-02-22
reystytijyte 威望 +2 压制上传辛苦了! 2013-07-14
reystytijyte 金钱 +10 压制上传辛苦了! 2013-07-14

发帖
2894
金钱
59665
威望
727
贡献值
479
交易币
3807
只看该作者 1楼 发表于: 2013-07-14
太棒了,我终于把历史的收集完了,感谢楼主

内容来自Android手机客户端

离线jerry黄哲

发帖
1102
金钱
8824
威望
19
贡献值
34
交易币
1243
只看该作者 2楼 发表于: 2013-07-14
回 蓝白色的香蕉 的帖子
蓝白色的香蕉:太棒了,我终于把历史的收集完了,感谢楼主 (2013-07-14 19:28)  pb8sx1.j;  
bEvlk\iql  
香蕉。你收集的是dvd的。还是压制
离线michaeljalie

发帖
74
金钱
191
威望
-6
贡献值
8
交易币
107
只看该作者 3楼 发表于: 2013-07-14
Thanks to you
离线流行王冠

发帖
672
金钱
660
威望
-9
贡献值
16
交易币
737
只看该作者 4楼 发表于: 2013-07-14
正想要汉城娜,谢谢。

发帖
706
金钱
3072
威望
203
贡献值
51
交易币
771
只看该作者 5楼 发表于: 2013-07-14
谢谢楼主!
离线MJ之王

发帖
3558
金钱
195934
威望
3960
贡献值
1598
交易币
3248
只看该作者 6楼 发表于: 2013-07-14
压制上传辛苦了!
离线六月的天

发帖
515
金钱
536
威望
40
贡献值
9
交易币
465
只看该作者 7楼 发表于: 2013-07-15
谢谢楼主的分享~~
老迈最帅
离线mjlove98

发帖
2613
金钱
3616
威望
197
贡献值
123
交易币
2691
只看该作者 8楼 发表于: 2013-07-15
正想要汉城娜,谢谢。
离线liuhuaqiao19

发帖
272
金钱
738
威望
15
贡献值
14
交易币
329
只看该作者 9楼 发表于: 2013-07-15
不错,准备下载了
快速回复
限100 字节
 
上一个 下一个