论坛风格切换切换到宽版
  • 3974阅读
  • 30回复

1996.HIStory演唱会.Seoul.480p.x264.29fps-MSZ压制【百度盘】 [复制链接]

上一主题 下一主题
离线mjghosts
 

发帖
8261
金钱
219535
威望
9187
贡献值
2734
交易币
4796
只看楼主 倒序阅读 楼主  发表于: 2013-07-14
,[dvs&-*  
下载链接请直转! b+f '  
片源:ppz2001(官方录像带转制)
y~M 6  
)!G 10  
继续发些压制,目标是将已有VHS-DVD版本的历史巡演都做一个压制发布。  Yg2P(  
这次的韩国历史压制片源选取做了很长时间的思想挣扎,最终还是选择了阳光会员ppz2001分享的官方录像带转制版本,原因就是此版的音画都相对较高,不存在影响观赏的时间码,亦不存在画面亮度和噪点过重难以控制码率的情况,在模拟信号年代的韩国历史最具代表性的莫过于此版本了。在此再次感谢他!
f^IB:e#j;  
-?IF'5z  
<'hoN/g  
OKu~Nb*  
Unique ID                                : 301792192354127562466990938337283787198 (0xE30B0FE0C928646C6D43AF200265C9BE) |}X[Yg=FG  
Complete name                            : G:\压制作品\[MJSHOWZONE]1996.HIStory演唱会.Seoul.480p.x264.29fps-ppz2001.mkv |X6R 2I  
Format                                   : Matroska LA/Qm/T  
Format version                           : Version 2 EEx:Xk%5hX  
File size                                : 1.18 GiB )N\B C  
Duration                                 : 1h 59mn |BD2=7,z  
Overall bit rate mode                    : Variable -<" ;|v4  
Overall bit rate                         : 1 422 Kbps n(SeJk%>9  
Writing application                      : Kirara Encoder Np$ue }yr  
Writing library                          : Kirara Encoder
Video E7/i_Xkk  
ID                                       : 1 #n|eq{fkK  
Format                                   : AVC 4 DV,f2:R4  
Format/Info                              : Advanced Video Codec /^X)>1)j  
Format profile                           : High@L4.1 t=jG$A  
Format settings, CABAC                   : Yes by,3A  
Format settings, ReFrames                : 4 frames >Dz8+y  
Codec ID                                 : V_MPEG4/ISO/AVC 0;4 YU%u  
Duration                                 : 1h 59mn 152LdZevF  
Bit rate                                 : 1 298 Kbps 6#a82_  
Width                                    : 640 pixels jc,Q g2  
Height                                   : 480 pixels Fw#1?/K~  
Display aspect ratio                     : 4:3 7c6- o"A  
Frame rate mode                          : Constant ~c*kS E2X  
Frame rate                               : 29.970 fps b S'dXP  
Color space                              : YUV i 8%@4U/ J  
Chroma subsampling                       : 4:2:0 [*5hx_4%B  
Bit depth                                : 8 bits Y)#,6\=U  
Scan type                                : Progressive A.RG8"  
Bits/(Pixel*Frame)                       : 0.141 /-(OJN5F^  
Stream size                              : 1.08 GiB (91%) P:5vS:s?  
Writing library                          : x264 core 120 z.OJ1vY7  
Encoding settings                        : cabac=1 / ref=4 / deblock=1:0:0 / analyse=0x3:0x113 / me=hex / subme=7 / psy=1 / psy_rd=1.00:0.00 / mixed_ref=1 / me_range=16 / chroma_me=1 / trellis=0 / 8x8dct=1 / cqm=0 / deadzone=21,11 / fast_pskip=1 / chroma_qp_offset=-2 / threads=3 / sliced_threads=0 / nr=0 / decimate=1 / interlaced=0 / bluray_compat=0 / constrained_intra=0 / bframes=0 / weightp=2 / keyint=250 / keyint_min=25 / scenecut=40 / intra_refresh=0 / rc_lookahead=40 / rc=crf / mbtree=1 / crf=21.0 / qcomp=0.60 / qpmin=0 / qpmax=69 / qpstep=4 / ip_ratio=1.40 / aq=1:1.00 ,D&-.`'E  
Default                                  : Yes *?>52 -&b  
Forced                                   : No
Audio ;wZplVB7y  
ID                                       : 2 $+,kibk*R  
Format                                   : Vorbis FV/lBWiQQ  
Format settings, Floor                   : 1 p }Bh  
Codec ID                                 : A_VORBIS qa4j>;  
Duration                                 : 1h 59mn \3hFb,/4k  
Bit rate mode                            : Variable !LsIHDs4  
Bit rate                                 : 96.0 Kbps \{qtdTd  
Channel(s)                               : 2 channels $2a_!/  
Sampling rate                            : 48.0 KHz WE+Szg(4x  
Compression mode                         : Lossy o?I`n*u"X  
Stream size                              : 81.9 MiB (7%) Fz| r[  
Writing library                          : libVorbis (Schaufenugget) (20101101 (Schaufenugget)) u]]mbER*t#  
Default                                  : Yes +6L.a3&(b  
Forced                                   : No G\(*z4@Gz  
Writing application                      : Lavc53.42.0
j#YVv c%  
yvnvIy  
此帖售价 4 金钱,已有 25 人购买 [记录] [购买]
购买后,将显示帖子中所有出售内容。
若发现会员采用欺骗的方法获取财富,请立刻举报,我们会对会员处以2-N倍的罚金,严重者封掉ID!
此段为出售的内容,购买后显示
3条评分金钱+20威望+2
傻傻滴灰太狼 金钱 +10 收第二个. 2014-02-22
reystytijyte 威望 +2 压制上传辛苦了! 2013-07-14
reystytijyte 金钱 +10 压制上传辛苦了! 2013-07-14

发帖
2894
金钱
59605
威望
727
贡献值
479
交易币
3807
只看该作者 1楼 发表于: 2013-07-14
太棒了,我终于把历史的收集完了,感谢楼主

内容来自Android手机客户端

离线jerry黄哲

发帖
1102
金钱
8824
威望
19
贡献值
34
交易币
1243
只看该作者 2楼 发表于: 2013-07-14
回 蓝白色的香蕉 的帖子
蓝白色的香蕉:太棒了,我终于把历史的收集完了,感谢楼主 (2013-07-14 19:28)  zG<>-?q~'  
ESuP ZB  
香蕉。你收集的是dvd的。还是压制
离线michaeljalie

发帖
74
金钱
191
威望
-6
贡献值
8
交易币
107
只看该作者 3楼 发表于: 2013-07-14
Thanks to you
离线流行王冠

发帖
672
金钱
660
威望
-9
贡献值
16
交易币
737
只看该作者 4楼 发表于: 2013-07-14
正想要汉城娜,谢谢。

发帖
706
金钱
3072
威望
203
贡献值
51
交易币
771
只看该作者 5楼 发表于: 2013-07-14
谢谢楼主!
离线MJ之王

发帖
3558
金钱
195005
威望
3953
贡献值
1598
交易币
3248
只看该作者 6楼 发表于: 2013-07-14
压制上传辛苦了!
离线六月的天

发帖
515
金钱
542
威望
40
贡献值
9
交易币
465
只看该作者 7楼 发表于: 2013-07-15
谢谢楼主的分享~~
老迈最帅
离线mjlove98

发帖
2589
金钱
4045
威望
197
贡献值
123
交易币
2667
只看该作者 8楼 发表于: 2013-07-15
正想要汉城娜,谢谢。
离线liuhuaqiao19

发帖
272
金钱
750
威望
15
贡献值
14
交易币
329
只看该作者 9楼 发表于: 2013-07-15
不错,准备下载了
快速回复
限100 字节
 
上一个 下一个