论坛风格切换切换到宽版
  • 3627阅读
  • 30回复

1996.HIStory演唱会.Seoul.480p.x264.29fps-MSZ压制【百度盘】 [复制链接]

上一主题 下一主题
离线mjghosts
 

发帖
8255
金钱
219223
威望
9187
贡献值
2734
交易币
4790
只看楼主 倒序阅读 楼主  发表于: 2013-07-14
'm4v)w<y#  
下载链接请直转! @V7HxW7RX  
片源:ppz2001(官方录像带转制)
G@N-+  
NbyXi3@v  
继续发些压制,目标是将已有VHS-DVD版本的历史巡演都做一个压制发布。 '",+2=JJ  
这次的韩国历史压制片源选取做了很长时间的思想挣扎,最终还是选择了阳光会员ppz2001分享的官方录像带转制版本,原因就是此版的音画都相对较高,不存在影响观赏的时间码,亦不存在画面亮度和噪点过重难以控制码率的情况,在模拟信号年代的韩国历史最具代表性的莫过于此版本了。在此再次感谢他!
H6vO}pq) r  
(nUSgZz5  
ukAE7O(W&  
a^>e| Eq|  
Unique ID                                : 301792192354127562466990938337283787198 (0xE30B0FE0C928646C6D43AF200265C9BE) 0+m4 }]6l  
Complete name                            : G:\压制作品\[MJSHOWZONE]1996.HIStory演唱会.Seoul.480p.x264.29fps-ppz2001.mkv ,mY3oyu  
Format                                   : Matroska +DR,&;  
Format version                           : Version 2 _]"uq/UWp  
File size                                : 1.18 GiB :vWixgLg  
Duration                                 : 1h 59mn 6EY W:o  
Overall bit rate mode                    : Variable J!"#N}[  
Overall bit rate                         : 1 422 Kbps V =-hqo(  
Writing application                      : Kirara Encoder yE=tuHv(0  
Writing library                          : Kirara Encoder
Video FXO{i:Zo  
ID                                       : 1 9zac[t no  
Format                                   : AVC 1_RN*M +#  
Format/Info                              : Advanced Video Codec LP:U6 Z  
Format profile                           : High@L4.1 .~Y% AI  
Format settings, CABAC                   : Yes 6,j&u7  
Format settings, ReFrames                : 4 frames FTT=h0t  
Codec ID                                 : V_MPEG4/ISO/AVC e,I{+ ^P  
Duration                                 : 1h 59mn rwCjNky!  
Bit rate                                 : 1 298 Kbps b]XDfe  
Width                                    : 640 pixels 1EcXvT=  
Height                                   : 480 pixels w?Nx ^)xX  
Display aspect ratio                     : 4:3 <'l;j"&lp  
Frame rate mode                          : Constant L; f  
Frame rate                               : 29.970 fps {nyVC%@Y  
Color space                              : YUV jm$v0=W9#  
Chroma subsampling                       : 4:2:0 8jxs%N,aI  
Bit depth                                : 8 bits UB&)U\hn  
Scan type                                : Progressive >xa k  
Bits/(Pixel*Frame)                       : 0.141 +""8aA  
Stream size                              : 1.08 GiB (91%) )s';m$  
Writing library                          : x264 core 120  V6{P41_  
Encoding settings                        : cabac=1 / ref=4 / deblock=1:0:0 / analyse=0x3:0x113 / me=hex / subme=7 / psy=1 / psy_rd=1.00:0.00 / mixed_ref=1 / me_range=16 / chroma_me=1 / trellis=0 / 8x8dct=1 / cqm=0 / deadzone=21,11 / fast_pskip=1 / chroma_qp_offset=-2 / threads=3 / sliced_threads=0 / nr=0 / decimate=1 / interlaced=0 / bluray_compat=0 / constrained_intra=0 / bframes=0 / weightp=2 / keyint=250 / keyint_min=25 / scenecut=40 / intra_refresh=0 / rc_lookahead=40 / rc=crf / mbtree=1 / crf=21.0 / qcomp=0.60 / qpmin=0 / qpmax=69 / qpstep=4 / ip_ratio=1.40 / aq=1:1.00 >kJEa8  
Default                                  : Yes &v#*  
Forced                                   : No
Audio E'J| p7  
ID                                       : 2 k 8Swra?j  
Format                                   : Vorbis f9Hm2wV  
Format settings, Floor                   : 1 oKJj?%dHK9  
Codec ID                                 : A_VORBIS u K`T1*_  
Duration                                 : 1h 59mn @ qfVt  
Bit rate mode                            : Variable Jz!8Xg%a  
Bit rate                                 : 96.0 Kbps /Wh} ;YTv^  
Channel(s)                               : 2 channels \I@=EF- &  
Sampling rate                            : 48.0 KHz /h ef3DV5I  
Compression mode                         : Lossy O/9dPod  
Stream size                              : 81.9 MiB (7%) J>YwMl  
Writing library                          : libVorbis (Schaufenugget) (20101101 (Schaufenugget)) <|NP!eMsw8  
Default                                  : Yes iw\RQ 0  
Forced                                   : No YK/?~p9:  
Writing application                      : Lavc53.42.0
[V~(7U  
Ll%CeP  
此帖售价 4 金钱,已有 25 人购买 [记录] [购买]
购买后,将显示帖子中所有出售内容。
若发现会员采用欺骗的方法获取财富,请立刻举报,我们会对会员处以2-N倍的罚金,严重者封掉ID!
此段为出售的内容,购买后显示
3条评分金钱+20威望+2
傻傻滴灰太狼 金钱 +10 收第二个. 2014-02-22
reystytijyte 威望 +2 压制上传辛苦了! 2013-07-14
reystytijyte 金钱 +10 压制上传辛苦了! 2013-07-14

发帖
2894
金钱
59589
威望
727
贡献值
479
交易币
3807
只看该作者 1楼 发表于: 2013-07-14
太棒了,我终于把历史的收集完了,感谢楼主

内容来自Android手机客户端

离线jerry黄哲

发帖
1102
金钱
8824
威望
19
贡献值
34
交易币
1243
只看该作者 2楼 发表于: 2013-07-14
回 蓝白色的香蕉 的帖子
蓝白色的香蕉:太棒了,我终于把历史的收集完了,感谢楼主 (2013-07-14 19:28)  JANP_b:t  
=5D@~?W ZG  
香蕉。你收集的是dvd的。还是压制
离线michaeljalie

发帖
74
金钱
191
威望
-6
贡献值
8
交易币
107
只看该作者 3楼 发表于: 2013-07-14
Thanks to you
离线流行王冠

发帖
672
金钱
660
威望
-9
贡献值
16
交易币
737
只看该作者 4楼 发表于: 2013-07-14
正想要汉城娜,谢谢。

发帖
706
金钱
3072
威望
203
贡献值
51
交易币
771
只看该作者 5楼 发表于: 2013-07-14
谢谢楼主!
离线MJ之王

发帖
3558
金钱
194905
威望
3953
贡献值
1598
交易币
3248
只看该作者 6楼 发表于: 2013-07-14
压制上传辛苦了!
离线六月的天

发帖
514
金钱
539
威望
40
贡献值
9
交易币
464
只看该作者 7楼 发表于: 2013-07-15
谢谢楼主的分享~~
老迈最帅
离线mjlove98

发帖
2581
金钱
4098
威望
197
贡献值
123
交易币
2659
只看该作者 8楼 发表于: 2013-07-15
正想要汉城娜,谢谢。
离线liuhuaqiao19

发帖
272
金钱
750
威望
15
贡献值
14
交易币
329
只看该作者 9楼 发表于: 2013-07-15
不错,准备下载了
快速回复
限100 字节
 
上一个 下一个