论坛风格切换切换到宽版
  • 4517阅读
  • 49回复

1996.HIStory演唱会.Sydney.480p.x264.29fps-MSZ正式版【百度盘】 [复制链接]

上一主题 下一主题
离线mjghosts
 

发帖
8256
金钱
219439
威望
9187
贡献值
2734
交易币
4791
只看楼主 倒序阅读 楼主  发表于: 2013-07-19
下载链接请直转! &U\Xy+  
片源:MJSHOWZONE [V'3/#Z  
=Ly7H7Q2  
\,jrug<C$^  
之前曾经发布过一个压制版: , |SO'dG  
http://www.mjsunny.com/read.php?tid=59004 6kH47Yc?  
u=B_cA}:  
本次的压制音频方面用了品质更高的OGG,源文件是我发布在96-97历史巡演DVD帖子内的版本,总体来说我更加满意这次的版本,并将其列为MJSHOWZONE的正式版本。想洗版的就收这个吧。
OH~X~n-Z  
*xB9~:  
lN94 b3_W  
ZAe>MNtW  
Unique ID                                : 90062470088186776941092853173842697164 (0x43C1669AE221120F55A3F15594BD5BCC) !%b.k6%>w  
Complete name                            : C:\[MJSHOWZONE]1996.HIStory演唱会.Sydney.480p.x264.29fps.mkv Iw(2D(se  
Format                                   : Matroska |0:&d w?*!  
Format version                           : Version 2 ?Pz:H/ $  
File size                                : 526 MiB UEmNT9V  
Duration                                 : 47mn 3s 0JTDJZOz@#  
Overall bit rate mode                    : Variable a x1  
Overall bit rate                         : 1 562 Kbps bv$g$  
Writing application                      : Kirara Encoder T)Z2=5V  
Writing library                          : Kirara Encoder
Video &$uQ$]&H  
ID                                       : 1 .um]1_= \  
Format                                   : AVC {`fhcEC  
Format/Info                              : Advanced Video Codec !f\,xa|M  
Format profile                           : High@L4.1 De`)`\U  
Format settings, CABAC                   : Yes 'c[4-m3bg  
Format settings, ReFrames                : 4 frames -E~pCN(E  
Codec ID                                 : V_MPEG4/ISO/AVC Y%!3/3T  
Duration                                 : 47mn 3s *44^M{ti<  
Bit rate                                 : 1 435 Kbps b,kXV<KtU  
Width                                    : 640 pixels >-rDBk ;K  
Height                                   : 480 pixels "o&_tB;O  
Display aspect ratio                     : 4:3 g(xuA^~J  
Frame rate mode                          : Constant cy|]}n85  
Frame rate                               : 29.970 fps g2L^cP>2  
Color space                              : YUV F VW&&ft  
Chroma subsampling                       : 4:2:0 [eL?O;@BD  
Bit depth                                : 8 bits qk~ni8  
Scan type                                : Progressive n%PHHu  
Bits/(Pixel*Frame)                       : 0.156 v-2_#  
Stream size                              : 483 MiB (92%) 1(0LX^%  
Writing library                          : x264 core 120 u 0KVp6`  
Encoding settings                        : cabac=1 / ref=4 / deblock=1:0:0 / analyse=0x3:0x113 / me=hex / subme=7 / psy=1 / psy_rd=1.00:0.00 / mixed_ref=1 / me_range=16 / chroma_me=1 / trellis=0 / 8x8dct=1 / cqm=0 / deadzone=21,11 / fast_pskip=1 / chroma_qp_offset=-2 / threads=3 / sliced_threads=0 / nr=0 / decimate=1 / interlaced=0 / bluray_compat=0 / constrained_intra=0 / bframes=0 / weightp=2 / keyint=250 / keyint_min=25 / scenecut=40 / intra_refresh=0 / rc_lookahead=40 / rc=crf / mbtree=1 / crf=19.5 / qcomp=0.60 / qpmin=0 / qpmax=69 / qpstep=4 / ip_ratio=1.40 / aq=1:1.00 Z,AF^,H[  
Default                                  : Yes m'D_zb9+  
Forced                                   : No
Audio aOZSX3;wg  
ID                                       : 2 9m^"ca  
Format                                   : Vorbis Tjba @^T  
Format settings, Floor                   : 1 *@6,Sr)_  
Codec ID                                 : A_VORBIS )EQWc0iKG  
Duration                                 : 47mn 3s nn'a` N  
Bit rate mode                            : Variable ^Pqj*k+F  
Bit rate                                 : 96.0 Kbps MDkcG"O  
Channel(s)                               : 2 channels tf?syk+jB7  
Sampling rate                            : 48.0 KHz HLMcOuj  
Compression mode                         : Lossy oSd TQ$U!D  
Stream size                              : 32.3 MiB (6%) -!_f-Nny  
Writing library                          : libVorbis (Schaufenugget) (20101101 (Schaufenugget)) PeD>mCvL"  
Default                                  : Yes (>~:1  
Forced                                   : No u@ MUcW  
Writing application                      : Lavc53.42.0
DxuT23. (  
$7J9Yzp?L  
此帖售价 1 金钱,已有 41 人购买 [记录] [购买]
购买后,将显示帖子中所有出售内容。
若发现会员采用欺骗的方法获取财富,请立刻举报,我们会对会员处以2-N倍的罚金,严重者封掉ID!
此段为出售的内容,购买后显示
3条评分金钱+26威望+5
傻傻滴灰太狼 金钱 +1 希望这个版本的音频 2014-02-22
happylee 威望 +5 很好, 支持自压! 2013-07-19
happylee 金钱 +25 很好, 支持自压! 2013-07-19
离线jerry黄哲

发帖
1102
金钱
8824
威望
19
贡献值
34
交易币
1243
只看该作者 1楼 发表于: 2013-07-19
下载来听听
离线33333334

发帖
328
金钱
654
威望
31
贡献值
0
交易币
327
只看该作者 2楼 发表于: 2013-07-19
感谢楼主分享
MJ的铁杆粉丝
离线Eclipse

发帖
1141
金钱
2130
威望
543
贡献值
271
交易币
1662
只看该作者 3楼 发表于: 2013-07-19
支持一下!!!!

发帖
2894
金钱
59589
威望
727
贡献值
479
交易币
3807
只看该作者 4楼 发表于: 2013-07-19
楼主这两个有什么大的区别吗
离线michaeljalie

发帖
74
金钱
191
威望
-6
贡献值
8
交易币
107
只看该作者 5楼 发表于: 2013-07-19
Many thanks for this video
离线mjghosts

发帖
8256
金钱
219439
威望
9187
贡献值
2734
交易币
4791
只看该作者 6楼 发表于: 2013-07-19
回 蓝白色的香蕉 的帖子
蓝白色的香蕉:楼主这两个有什么大的区别吗 (2013-07-19 22:56)  3WwCo.q;m  
fJ _MuAv  
区别有,但不太大。

发帖
1407
金钱
4489
威望
249
贡献值
21
交易币
1155
只看该作者 7楼 发表于: 2013-07-19
纯支持,谢谢分享。

发帖
706
金钱
3072
威望
203
贡献值
51
交易币
771
只看该作者 8楼 发表于: 2013-07-20
支持支持!!
离线131

发帖
1217
金钱
8965
威望
430
贡献值
239
交易币
848
只看该作者 9楼 发表于: 2013-07-20
下来看看
快速回复
限100 字节
 
上一个 下一个