论坛风格切换切换到宽版
  • 5709阅读
  • 50回复

1996.HIStory演唱会.Sydney.480p.x264.29fps-MSZ正式版【百度盘】 [复制链接]

上一主题 下一主题
离线mjghosts
 

发帖
8279
金钱
220938
威望
9195
贡献值
2742
交易币
4818
只看楼主 倒序阅读 楼主  发表于: 2013-07-19
下载链接请直转! 7>O`UT<t4@  
片源:MJSHOWZONE g%S/)R,,ct  
]7W!f 2@  
)/)u.$pi  
之前曾经发布过一个压制版: <Y}m/-sD5  
http://www.mjsunny.com/read.php?tid=59004 ZJ)Z  
*,lDo9  
本次的压制音频方面用了品质更高的OGG,源文件是我发布在96-97历史巡演DVD帖子内的版本,总体来说我更加满意这次的版本,并将其列为MJSHOWZONE的正式版本。想洗版的就收这个吧。
N}B&(dJ  
~$T>,^K y  
d>)=|  
V>)/z|[  
Unique ID                                : 90062470088186776941092853173842697164 (0x43C1669AE221120F55A3F15594BD5BCC) :3Q:pKg  
Complete name                            : C:\[MJSHOWZONE]1996.HIStory演唱会.Sydney.480p.x264.29fps.mkv A ~vx,|I  
Format                                   : Matroska SQK82 /  
Format version                           : Version 2 A8mc+ Bf(  
File size                                : 526 MiB y-.{){uaD  
Duration                                 : 47mn 3s MFa/%O_*  
Overall bit rate mode                    : Variable ]}b  
Overall bit rate                         : 1 562 Kbps em,1Yn?  
Writing application                      : Kirara Encoder Ddq*}Pf0K  
Writing library                          : Kirara Encoder
Video |Y}YhUI&  
ID                                       : 1 0!YVRit\N  
Format                                   : AVC V#$QKn`;  
Format/Info                              : Advanced Video Codec nHbi{,3  
Format profile                           : High@L4.1 ZG H 7_K  
Format settings, CABAC                   : Yes . mO8 ~Z  
Format settings, ReFrames                : 4 frames |b='DJz2  
Codec ID                                 : V_MPEG4/ISO/AVC )cQ KR4x0^  
Duration                                 : 47mn 3s /-lW$.+{?  
Bit rate                                 : 1 435 Kbps (]mBAQ#hw  
Width                                    : 640 pixels h8M}}   
Height                                   : 480 pixels *hFJI9G  
Display aspect ratio                     : 4:3 C)qG<PW.!  
Frame rate mode                          : Constant o"N\l{#s  
Frame rate                               : 29.970 fps  W>x.*K  
Color space                              : YUV _iqaKYT$  
Chroma subsampling                       : 4:2:0 <Z1m9O "sy  
Bit depth                                : 8 bits ffOV7Dxy  
Scan type                                : Progressive 0|\A5 eG  
Bits/(Pixel*Frame)                       : 0.156 aNICSxDN  
Stream size                              : 483 MiB (92%) oC!z+<  
Writing library                          : x264 core 120 d<cQYI4V  
Encoding settings                        : cabac=1 / ref=4 / deblock=1:0:0 / analyse=0x3:0x113 / me=hex / subme=7 / psy=1 / psy_rd=1.00:0.00 / mixed_ref=1 / me_range=16 / chroma_me=1 / trellis=0 / 8x8dct=1 / cqm=0 / deadzone=21,11 / fast_pskip=1 / chroma_qp_offset=-2 / threads=3 / sliced_threads=0 / nr=0 / decimate=1 / interlaced=0 / bluray_compat=0 / constrained_intra=0 / bframes=0 / weightp=2 / keyint=250 / keyint_min=25 / scenecut=40 / intra_refresh=0 / rc_lookahead=40 / rc=crf / mbtree=1 / crf=19.5 / qcomp=0.60 / qpmin=0 / qpmax=69 / qpstep=4 / ip_ratio=1.40 / aq=1:1.00 \%W"KLP  
Default                                  : Yes gHH[QLD=I  
Forced                                   : No
Audio wX@g >(  
ID                                       : 2 %wq;<'W  
Format                                   : Vorbis 7*Gg#XQ>(  
Format settings, Floor                   : 1 R{Me~L?  
Codec ID                                 : A_VORBIS 5W_Rg:J{P  
Duration                                 : 47mn 3s q+ 9c81b  
Bit rate mode                            : Variable ? C6t Yd  
Bit rate                                 : 96.0 Kbps @aWd0e]  
Channel(s)                               : 2 channels I^gLiLUN*6  
Sampling rate                            : 48.0 KHz ff 2`4_ ,|  
Compression mode                         : Lossy pb|,rLNZ  
Stream size                              : 32.3 MiB (6%) p y%RR*4#  
Writing library                          : libVorbis (Schaufenugget) (20101101 (Schaufenugget)) Sk%*Zo{|  
Default                                  : Yes +(8Z8]Jf  
Forced                                   : No -h,?_d>  
Writing application                      : Lavc53.42.0
L<ET"&b;4  
AP/#?   
此帖售价 1 金钱,已有 42 人购买 [记录] [购买]
购买后,将显示帖子中所有出售内容。
若发现会员采用欺骗的方法获取财富,请立刻举报,我们会对会员处以2-N倍的罚金,严重者封掉ID!
此段为出售的内容,购买后显示
3条评分金钱+26威望+5
傻傻滴灰太狼 金钱 +1 希望这个版本的音频 2014-02-22
happylee 威望 +5 很好, 支持自压! 2013-07-19
happylee 金钱 +25 很好, 支持自压! 2013-07-19
离线jerry黄哲

发帖
1102
金钱
8824
威望
19
贡献值
34
交易币
1243
只看该作者 1楼 发表于: 2013-07-19
下载来听听
离线33333334

发帖
329
金钱
659
威望
31
贡献值
0
交易币
328
只看该作者 2楼 发表于: 2013-07-19
感谢楼主分享
MJ的铁杆粉丝
离线Eclipse

发帖
1142
金钱
2135
威望
543
贡献值
271
交易币
1663
只看该作者 3楼 发表于: 2013-07-19
支持一下!!!!

发帖
2894
金钱
59745
威望
727
贡献值
479
交易币
3807
只看该作者 4楼 发表于: 2013-07-19
楼主这两个有什么大的区别吗
离线michaeljalie

发帖
74
金钱
191
威望
-6
贡献值
8
交易币
107
只看该作者 5楼 发表于: 2013-07-19
Many thanks for this video
离线mjghosts

发帖
8279
金钱
220938
威望
9195
贡献值
2742
交易币
4818
只看该作者 6楼 发表于: 2013-07-19
回 蓝白色的香蕉 的帖子
蓝白色的香蕉:楼主这两个有什么大的区别吗 (2013-07-19 22:56)  oQ1>*[e<u  
D.9qxM"Z>  
区别有,但不太大。

发帖
1434
金钱
4484
威望
249
贡献值
21
交易币
1182
只看该作者 7楼 发表于: 2013-07-19
纯支持,谢谢分享。

发帖
706
金钱
3072
威望
203
贡献值
51
交易币
771
只看该作者 8楼 发表于: 2013-07-20
支持支持!!
离线131

发帖
1233
金钱
8980
威望
430
贡献值
239
交易币
864
只看该作者 9楼 发表于: 2013-07-20
下来看看
快速回复
限100 字节
 
上一个 下一个