论坛风格切换切换到宽版
  • 4827阅读
  • 49回复

1996.HIStory演唱会.Sydney.480p.x264.29fps-MSZ正式版【百度盘】 [复制链接]

上一主题 下一主题
离线mjghosts
 

发帖
8261
金钱
219535
威望
9187
贡献值
2734
交易币
4796
只看楼主 倒序阅读 楼主  发表于: 2013-07-19
下载链接请直转! 2?GXkPF2;A  
片源:MJSHOWZONE ;#3ekl{-g  
OuB2 x=B  
 QTVa  
之前曾经发布过一个压制版: Dba+z-3Nzy  
http://www.mjsunny.com/read.php?tid=59004 y0,Ft/D  
K<c2PFo)Q  
本次的压制音频方面用了品质更高的OGG,源文件是我发布在96-97历史巡演DVD帖子内的版本,总体来说我更加满意这次的版本,并将其列为MJSHOWZONE的正式版本。想洗版的就收这个吧。
A&N$tH  
FyCBN tCv  
GF&_~48GD  
>f>V5L%1  
Unique ID                                : 90062470088186776941092853173842697164 (0x43C1669AE221120F55A3F15594BD5BCC) <z,+Eg  
Complete name                            : C:\[MJSHOWZONE]1996.HIStory演唱会.Sydney.480p.x264.29fps.mkv 5)w4)K-%  
Format                                   : Matroska bn$)f6%  
Format version                           : Version 2 v' C@jsx M  
File size                                : 526 MiB Qe_+r(3)k  
Duration                                 : 47mn 3s (}G!np  
Overall bit rate mode                    : Variable gt'*B5F(  
Overall bit rate                         : 1 562 Kbps {t&*>ma6)  
Writing application                      : Kirara Encoder kL|\wci  
Writing library                          : Kirara Encoder
Video n[|6khOL-  
ID                                       : 1 hqL+_| DW  
Format                                   : AVC #*^e,FF<  
Format/Info                              : Advanced Video Codec ^_sQG  
Format profile                           : High@L4.1 ^}J<)}Q  
Format settings, CABAC                   : Yes tj[c#@[B  
Format settings, ReFrames                : 4 frames %yfE7UPS]  
Codec ID                                 : V_MPEG4/ISO/AVC Hte[TRbM  
Duration                                 : 47mn 3s 6AAswz'$P  
Bit rate                                 : 1 435 Kbps zd.'*Dj  
Width                                    : 640 pixels 6|5H=*)DH  
Height                                   : 480 pixels Ps3~{zH`  
Display aspect ratio                     : 4:3 >OK#n)U`  
Frame rate mode                          : Constant %&h c"7/k  
Frame rate                               : 29.970 fps B)M& \: _  
Color space                              : YUV _%B/!)v  
Chroma subsampling                       : 4:2:0 f0DK>L  
Bit depth                                : 8 bits >La><.z~  
Scan type                                : Progressive ~>g+2]Bn>$  
Bits/(Pixel*Frame)                       : 0.156 lI6W$V\,  
Stream size                              : 483 MiB (92%) *C7F2o  
Writing library                          : x264 core 120 !zR)D|w&  
Encoding settings                        : cabac=1 / ref=4 / deblock=1:0:0 / analyse=0x3:0x113 / me=hex / subme=7 / psy=1 / psy_rd=1.00:0.00 / mixed_ref=1 / me_range=16 / chroma_me=1 / trellis=0 / 8x8dct=1 / cqm=0 / deadzone=21,11 / fast_pskip=1 / chroma_qp_offset=-2 / threads=3 / sliced_threads=0 / nr=0 / decimate=1 / interlaced=0 / bluray_compat=0 / constrained_intra=0 / bframes=0 / weightp=2 / keyint=250 / keyint_min=25 / scenecut=40 / intra_refresh=0 / rc_lookahead=40 / rc=crf / mbtree=1 / crf=19.5 / qcomp=0.60 / qpmin=0 / qpmax=69 / qpstep=4 / ip_ratio=1.40 / aq=1:1.00 ^s-25 6iI  
Default                                  : Yes cDIBDC  
Forced                                   : No
Audio Z7z]2v3}c  
ID                                       : 2 Us=eq "eu  
Format                                   : Vorbis O,'#C\   
Format settings, Floor                   : 1 Da_()e[9p  
Codec ID                                 : A_VORBIS 4x=(Zw_X  
Duration                                 : 47mn 3s VD [pZ2;4  
Bit rate mode                            : Variable J+ts  
Bit rate                                 : 96.0 Kbps Z9[+'ZWt  
Channel(s)                               : 2 channels A gWPa.'3  
Sampling rate                            : 48.0 KHz p!DP`Ouc3\  
Compression mode                         : Lossy >;9NtoE  
Stream size                              : 32.3 MiB (6%) v0LGdX)/Y  
Writing library                          : libVorbis (Schaufenugget) (20101101 (Schaufenugget)) UQPU"F7.  
Default                                  : Yes !YE zFU`L  
Forced                                   : No HdNnUDb$B  
Writing application                      : Lavc53.42.0
;dZMa]X0  
Ch5+N6c^  
此帖售价 1 金钱,已有 41 人购买 [记录] [购买]
购买后,将显示帖子中所有出售内容。
若发现会员采用欺骗的方法获取财富,请立刻举报,我们会对会员处以2-N倍的罚金,严重者封掉ID!
此段为出售的内容,购买后显示
3条评分金钱+26威望+5
傻傻滴灰太狼 金钱 +1 希望这个版本的音频 2014-02-22
happylee 威望 +5 很好, 支持自压! 2013-07-19
happylee 金钱 +25 很好, 支持自压! 2013-07-19
离线jerry黄哲

发帖
1102
金钱
8824
威望
19
贡献值
34
交易币
1243
只看该作者 1楼 发表于: 2013-07-19
下载来听听
离线33333334

发帖
328
金钱
654
威望
31
贡献值
0
交易币
327
只看该作者 2楼 发表于: 2013-07-19
感谢楼主分享
MJ的铁杆粉丝
离线Eclipse

发帖
1141
金钱
2130
威望
543
贡献值
271
交易币
1662
只看该作者 3楼 发表于: 2013-07-19
支持一下!!!!

发帖
2894
金钱
59605
威望
727
贡献值
479
交易币
3807
只看该作者 4楼 发表于: 2013-07-19
楼主这两个有什么大的区别吗
离线michaeljalie

发帖
74
金钱
191
威望
-6
贡献值
8
交易币
107
只看该作者 5楼 发表于: 2013-07-19
Many thanks for this video
离线mjghosts

发帖
8261
金钱
219535
威望
9187
贡献值
2734
交易币
4796
只看该作者 6楼 发表于: 2013-07-19
回 蓝白色的香蕉 的帖子
蓝白色的香蕉:楼主这两个有什么大的区别吗 (2013-07-19 22:56)  Wo$%9!W  
#!J(4tXny  
区别有,但不太大。

发帖
1409
金钱
4499
威望
249
贡献值
21
交易币
1157
只看该作者 7楼 发表于: 2013-07-19
纯支持,谢谢分享。

发帖
706
金钱
3072
威望
203
贡献值
51
交易币
771
只看该作者 8楼 发表于: 2013-07-20
支持支持!!
离线131

发帖
1220
金钱
8982
威望
430
贡献值
239
交易币
851
只看该作者 9楼 发表于: 2013-07-20
下来看看
快速回复
限100 字节
 
上一个 下一个