论坛风格切换切换到宽版
  • 8225阅读
  • 51回复

1996.HIStory演唱会.Sydney.480p.x264.29fps-MSZ正式版【百度盘】 [复制链接]

上一主题 下一主题
离线mjghosts
 

发帖
8279
金钱
225793
威望
9196
贡献值
2742
交易币
4818
只看楼主 倒序阅读 楼主  发表于: 2013-07-19
下载链接请直转! Nba1!5:M  
片源:MJSHOWZONE <_8eOL<X  
heES [  
|em_l$oGc  
之前曾经发布过一个压制版: FLumI-se!  
http://www.mjsunny.com/read.php?tid=59004 VyIM ,glu  
MR":a T  
本次的压制音频方面用了品质更高的OGG,源文件是我发布在96-97历史巡演DVD帖子内的版本,总体来说我更加满意这次的版本,并将其列为MJSHOWZONE的正式版本。想洗版的就收这个吧。
,7Q b24A  
p^QppM94  
%c&< {D}r  
m@` NN  
Unique ID                                : 90062470088186776941092853173842697164 (0x43C1669AE221120F55A3F15594BD5BCC) {r[g.@  
Complete name                            : C:\[MJSHOWZONE]1996.HIStory演唱会.Sydney.480p.x264.29fps.mkv ~&8bVA= .  
Format                                   : Matroska D"GQlR  
Format version                           : Version 2 |7E1yu  
File size                                : 526 MiB Jhr3[A  
Duration                                 : 47mn 3s H D{2nZT  
Overall bit rate mode                    : Variable DmpG35Jk  
Overall bit rate                         : 1 562 Kbps MWron_xg  
Writing application                      : Kirara Encoder rq_0"A  
Writing library                          : Kirara Encoder
Video TuX9:Q  
ID                                       : 1 1a>TJdoa  
Format                                   : AVC /7[X_)OG  
Format/Info                              : Advanced Video Codec P!K;`4Ika  
Format profile                           : High@L4.1 )CM3v L {  
Format settings, CABAC                   : Yes BA(PWX`H  
Format settings, ReFrames                : 4 frames (+lCh7.  
Codec ID                                 : V_MPEG4/ISO/AVC X8Y)5,`s  
Duration                                 : 47mn 3s D,sb {N  
Bit rate                                 : 1 435 Kbps 49d02AU%  
Width                                    : 640 pixels #[$zbZ(I>:  
Height                                   : 480 pixels )Lb?ZXT3  
Display aspect ratio                     : 4:3 }{y(&Oy3Y  
Frame rate mode                          : Constant Y7_2pGvZ  
Frame rate                               : 29.970 fps }|u>b!7_.  
Color space                              : YUV Or3GrZ!H  
Chroma subsampling                       : 4:2:0 tTE]j-uT  
Bit depth                                : 8 bits J?"v;.K|hU  
Scan type                                : Progressive 6]NaP_\0  
Bits/(Pixel*Frame)                       : 0.156 q#PMQR"C  
Stream size                              : 483 MiB (92%) M4)Y%EPc  
Writing library                          : x264 core 120 66{Dyn7J~  
Encoding settings                        : cabac=1 / ref=4 / deblock=1:0:0 / analyse=0x3:0x113 / me=hex / subme=7 / psy=1 / psy_rd=1.00:0.00 / mixed_ref=1 / me_range=16 / chroma_me=1 / trellis=0 / 8x8dct=1 / cqm=0 / deadzone=21,11 / fast_pskip=1 / chroma_qp_offset=-2 / threads=3 / sliced_threads=0 / nr=0 / decimate=1 / interlaced=0 / bluray_compat=0 / constrained_intra=0 / bframes=0 / weightp=2 / keyint=250 / keyint_min=25 / scenecut=40 / intra_refresh=0 / rc_lookahead=40 / rc=crf / mbtree=1 / crf=19.5 / qcomp=0.60 / qpmin=0 / qpmax=69 / qpstep=4 / ip_ratio=1.40 / aq=1:1.00 y*e({fio_  
Default                                  : Yes I{i6e'.jP  
Forced                                   : No
Audio K"cV7U rE  
ID                                       : 2 'HJ<"<  
Format                                   : Vorbis 3LZvlcLb  
Format settings, Floor                   : 1  \|C*b<  
Codec ID                                 : A_VORBIS gF:| j(  
Duration                                 : 47mn 3s y?Pw6;e.  
Bit rate mode                            : Variable e?pQuF~  
Bit rate                                 : 96.0 Kbps _k#GjAPM  
Channel(s)                               : 2 channels yd[4l%G(zS  
Sampling rate                            : 48.0 KHz ^oR qu  
Compression mode                         : Lossy F$i 6  
Stream size                              : 32.3 MiB (6%) gf}*}8D  
Writing library                          : libVorbis (Schaufenugget) (20101101 (Schaufenugget)) U;0:@.q  
Default                                  : Yes e,d}4 jy  
Forced                                   : No 1 ^30]2'_  
Writing application                      : Lavc53.42.0
O*Y?: t  
|'I>Ojm  
此帖售价 1 金钱,已有 43 人购买 [记录] [购买]
购买后,将显示帖子中所有出售内容。
若发现会员采用欺骗的方法获取财富,请立刻举报,我们会对会员处以2-N倍的罚金,严重者封掉ID!
此段为出售的内容,购买后显示
3条评分金钱+26威望+5
傻傻滴灰太狼 金钱 +1 希望这个版本的音频 2014-02-22
happylee 威望 +5 很好, 支持自压! 2013-07-19
happylee 金钱 +25 很好, 支持自压! 2013-07-19
离线jerry黄哲

发帖
1102
金钱
8829
威望
19
贡献值
34
交易币
1243
只看该作者 1楼 发表于: 2013-07-19
下载来听听
离线33333334

发帖
329
金钱
659
威望
31
贡献值
0
交易币
328
只看该作者 2楼 发表于: 2013-07-19
感谢楼主分享
MJ的铁杆粉丝
离线Eclipse

发帖
1143
金钱
138
威望
543
贡献值
271
交易币
1664
只看该作者 3楼 发表于: 2013-07-19
支持一下!!!!

发帖
2895
金钱
59802
威望
727
贡献值
479
交易币
3808
只看该作者 4楼 发表于: 2013-07-19
楼主这两个有什么大的区别吗
离线michaeljalie

发帖
74
金钱
191
威望
-6
贡献值
8
交易币
107
只看该作者 5楼 发表于: 2013-07-19
Many thanks for this video
离线mjghosts

发帖
8279
金钱
225793
威望
9196
贡献值
2742
交易币
4818
只看该作者 6楼 发表于: 2013-07-19
回 蓝白色的香蕉 的帖子
蓝白色的香蕉:楼主这两个有什么大的区别吗 (2013-07-19 22:56)  '@QK<!%,  
{N-*eV9#  
区别有,但不太大。

发帖
1440
金钱
4377
威望
249
贡献值
21
交易币
1188
只看该作者 7楼 发表于: 2013-07-19
纯支持,谢谢分享。

发帖
706
金钱
3072
威望
203
贡献值
51
交易币
771
只看该作者 8楼 发表于: 2013-07-20
支持支持!!
离线131

发帖
1237
金钱
9291
威望
430
贡献值
239
交易币
868
只看该作者 9楼 发表于: 2013-07-20
下来看看
快速回复
限100 字节
 
上一个 下一个