论坛风格切换切换到宽版
  • 3595阅读
  • 28回复

1996.HIStory演唱会.Kuala Lumpur.480p.x264.25fps-MSZ压制【百度盘】 [复制链接]

上一主题 下一主题
离线mjghosts
 

发帖
8247
金钱
217794
威望
9174
贡献值
2723
交易币
4758
只看楼主 倒序阅读 楼主  发表于: 2013-07-23
下载链接请直转! |@`F !bnLr  
片源:MattBlnMe
G~5EAeG  
7o_1PwKS6  
好吧,这一场大家最熟悉不过了。目前来说有三大源头:1.VCD版(DAT);2.带录像机时间码版(AVI);3.MattBlnMe的VHS-Rip(DVD),三大源头都来于同一个源(各种录像带花带现象一致)。且质量都不怎么样,如果说观看效果比较舒服的,也属VCD版了。而这次压制的片源是Matt的DVD,它的特点在于一些细节部分,比VCD版更加完整。
!<BJg3  
I|8'#QX  
va 7I_J   
awxzP*6  
Unique ID                                : 142754139477398144759135099519263764237 (0x6B65727B13328C214A7E7DAFE086EF0D) 1?%Q"*Y&  
Complete name                            : G:\压制作品\[MJSHOWZONE]1996.HIStory演唱会.Kuala Lumpur.480p.x264.25fps.mkv +}1h  
Format                                   : Matroska >n3w'b  
Format version                           : Version 2 F/O5Z?C?  
File size                                : 1.05 GiB @N+ }cej  
Duration                                 : 1h 25mn ]+4QsoFNt  
Overall bit rate mode                    : Variable 5\!t!FL_  
Overall bit rate                         : 1 767 Kbps E3hql3=  
Writing application                      : Kirara Encoder P'}WmE'B}F  
Writing library                          : Kirara Encoder
Video lB)%s~P:s  
ID                                       : 1 iEx sGn]2  
Format                                   : AVC [KcF0%a  
Format/Info                              : Advanced Video Codec vQH 6CB"  
Format profile                           : High@L4.1 #3~hF)u&/  
Format settings, CABAC                   : Yes tRtoA5  
Format settings, ReFrames                : 4 frames y|b&Rup  
Codec ID                                 : V_MPEG4/ISO/AVC pLiGky  
Duration                                 : 1h 25mn $eu-8E'  
Bit rate                                 : 1 636 Kbps Ss~yy0  
Width                                    : 640 pixels {t%Jc~p{  
Height                                   : 480 pixels ."u DM<  
Display aspect ratio                     : 4:3 # ? _8 *?  
Frame rate mode                          : Constant ExxD w_VGT  
Frame rate                               : 25.000 fps PdD,~N#  
Color space                              : YUV &YOks.k  
Chroma subsampling                       : 4:2:0 |aX1PC)o_  
Bit depth                                : 8 bits lF#p1H>\  
Scan type                                : Progressive h%PbM`:}6  
Bits/(Pixel*Frame)                       : 0.213 #`o]{UfW  
Stream size                              : 997 MiB (93%) ;6655C  
Writing library                          : x264 core 120 ~\khwNA  
Encoding settings                        : cabac=1 / ref=4 / deblock=1:0:0 / analyse=0x3:0x113 / me=hex / subme=7 / psy=1 / psy_rd=1.00:0.00 / mixed_ref=1 / me_range=16 / chroma_me=1 / trellis=0 / 8x8dct=1 / cqm=0 / deadzone=21,11 / fast_pskip=1 / chroma_qp_offset=-2 / threads=3 / sliced_threads=0 / nr=0 / decimate=1 / interlaced=0 / bluray_compat=0 / constrained_intra=0 / bframes=0 / weightp=2 / keyint=250 / keyint_min=25 / scenecut=40 / intra_refresh=0 / rc_lookahead=40 / rc=crf / mbtree=1 / crf=21.0 / qcomp=0.60 / qpmin=0 / qpmax=69 / qpstep=4 / ip_ratio=1.40 / aq=1:1.00 ! _p(H  
Default                                  : Yes m&a 8/5  
Forced                                   : No
Audio ^-2|T__  
ID                                       : 2 nh]}KFO h  
Format                                   : Vorbis bmQ-5SE  
Format settings, Floor                   : 1 I%M"I0FV  
Codec ID                                 : A_VORBIS .K`EflN  
Duration                                 : 1h 25mn .D{He9  
Bit rate mode                            : Variable SIZZFihcYh  
Bit rate                                 : 96.0 Kbps 2bu>j1h  
Channel(s)                               : 2 channels *Xl,w2@  
Sampling rate                            : 48.0 KHz *CCh\+S7m  
Compression mode                         : Lossy a.2Xl}2o5  
Stream size                              : 58.5 MiB (5%) 8Z!Mad  
Writing library                          : libVorbis (Schaufenugget) (20101101 (Schaufenugget)) \:4SN&I~  
Default                                  : Yes TW6F9}'f&  
Forced                                   : No <,*3Av  
Writing application                      : Lavc53.42.0
=2@ V}  
$wC'qV *  
此帖售价 5 金钱,已有 26 人购买 [记录] [购买]
购买后,将显示帖子中所有出售内容。
若发现会员采用欺骗的方法获取财富,请立刻举报,我们会对会员处以2-N倍的罚金,严重者封掉ID!
此段为出售的内容,购买后显示
2条评分金钱+50威望+5
happylee 威望 +5 吉隆坡压制!太棒了!支持自压! 2013-07-23
happylee 金钱 +50 吉隆坡压制!太棒了!支持自压! 2013-07-23
离线HappyLee

发帖
2692
金钱
102835
威望
2565
贡献值
1188
交易币
3806
只看该作者 1楼 发表于: 2013-07-23
吉隆坡压制!太棒了!支持自压!
离线jerry黄哲

发帖
1102
金钱
8819
威望
19
贡献值
34
交易币
1243
只看该作者 2楼 发表于: 2013-07-23
谢谢分享
离线MJ守护者

发帖
1443
金钱
24943
威望
768
贡献值
304
交易币
1890
只看该作者 3楼 发表于: 2013-07-23
这个音频有噪音嘛?
KOPSKY:  blog.sina.com.cn/kopsky

发帖
2894
金钱
59573
威望
727
贡献值
479
交易币
3807
只看该作者 4楼 发表于: 2013-07-23
吉隆坡的,太给力了。

内容来自Android手机客户端

离线mj94314857

发帖
543
金钱
1198
威望
111
贡献值
67
交易币
792
只看该作者 5楼 发表于: 2013-07-23
绝对支持。
离线mjghosts

发帖
8247
金钱
217794
威望
9174
贡献值
2723
交易币
4758
只看该作者 6楼 发表于: 2013-07-23
回 mj守护者 的帖子
mj守护者:这个音频有噪音嘛? (2013-07-23 12:27)  $KcAB0 B8  
*i#2>=)  
除了VCD版,其它版本都有噪音的。
离线MJ守护者

发帖
1443
金钱
24943
威望
768
贡献值
304
交易币
1890
只看该作者 7楼 发表于: 2013-07-23
看来这个有咯。。。 Vc\g"1 x  
/@"mQx~[q  
内容来自[短消息]

发帖
706
金钱
3072
威望
203
贡献值
51
交易币
771
只看该作者 8楼 发表于: 2013-07-23
谢谢压制!
离线流行王冠

发帖
672
金钱
660
威望
-9
贡献值
16
交易币
737
只看该作者 9楼 发表于: 2013-07-23
敢问为啥不用没有噪音的VCD版本那,
快速回复
限100 字节
 
上一个 下一个