论坛风格切换切换到宽版
  • 3887阅读
  • 28回复

1996.HIStory演唱会.Kuala Lumpur.480p.x264.25fps-MSZ压制【百度盘】 [复制链接]

上一主题 下一主题
离线mjghosts
 

发帖
8256
金钱
219439
威望
9187
贡献值
2734
交易币
4791
只看楼主 倒序阅读 楼主  发表于: 2013-07-23
下载链接请直转! `xO9xo#  
片源:MattBlnMe
SLa\F  
w2!5Cb2  
好吧,这一场大家最熟悉不过了。目前来说有三大源头:1.VCD版(DAT);2.带录像机时间码版(AVI);3.MattBlnMe的VHS-Rip(DVD),三大源头都来于同一个源(各种录像带花带现象一致)。且质量都不怎么样,如果说观看效果比较舒服的,也属VCD版了。而这次压制的片源是Matt的DVD,它的特点在于一些细节部分,比VCD版更加完整。
%CxrXU  
Tn~b#-0  
fNVNx~E  
SWX;sM  
Unique ID                                : 142754139477398144759135099519263764237 (0x6B65727B13328C214A7E7DAFE086EF0D) (W<n<sl:-  
Complete name                            : G:\压制作品\[MJSHOWZONE]1996.HIStory演唱会.Kuala Lumpur.480p.x264.25fps.mkv +v 9@du  
Format                                   : Matroska ~*|0yPFg  
Format version                           : Version 2 cG|ihG5)  
File size                                : 1.05 GiB H!y%FaTi  
Duration                                 : 1h 25mn A9_)}  
Overall bit rate mode                    : Variable k!gft'iU  
Overall bit rate                         : 1 767 Kbps :V>M{vd  
Writing application                      : Kirara Encoder wG1A]OJl1  
Writing library                          : Kirara Encoder
Video ncEOz1u  
ID                                       : 1 MtYi8"+<e.  
Format                                   : AVC ':kj\$U  
Format/Info                              : Advanced Video Codec -5Qsc/ s&  
Format profile                           : High@L4.1 7-nz'-'  
Format settings, CABAC                   : Yes >&K1+FSmyJ  
Format settings, ReFrames                : 4 frames K)|#FRPM u  
Codec ID                                 : V_MPEG4/ISO/AVC o|\0IG(\  
Duration                                 : 1h 25mn sK~d{)+T  
Bit rate                                 : 1 636 Kbps S ^?&a5{o  
Width                                    : 640 pixels *I0{1cST  
Height                                   : 480 pixels WN?1J4H  
Display aspect ratio                     : 4:3 \Uun2.K  
Frame rate mode                          : Constant >;S/$  
Frame rate                               : 25.000 fps -ec ~~95  
Color space                              : YUV #4. S2m4  
Chroma subsampling                       : 4:2:0 5}3Q}o#  
Bit depth                                : 8 bits bXoj/zek  
Scan type                                : Progressive S$q:hXZ#e  
Bits/(Pixel*Frame)                       : 0.213 `A5^D  
Stream size                              : 997 MiB (93%) vmI]N  
Writing library                          : x264 core 120 (`}O!;/E}  
Encoding settings                        : cabac=1 / ref=4 / deblock=1:0:0 / analyse=0x3:0x113 / me=hex / subme=7 / psy=1 / psy_rd=1.00:0.00 / mixed_ref=1 / me_range=16 / chroma_me=1 / trellis=0 / 8x8dct=1 / cqm=0 / deadzone=21,11 / fast_pskip=1 / chroma_qp_offset=-2 / threads=3 / sliced_threads=0 / nr=0 / decimate=1 / interlaced=0 / bluray_compat=0 / constrained_intra=0 / bframes=0 / weightp=2 / keyint=250 / keyint_min=25 / scenecut=40 / intra_refresh=0 / rc_lookahead=40 / rc=crf / mbtree=1 / crf=21.0 / qcomp=0.60 / qpmin=0 / qpmax=69 / qpstep=4 / ip_ratio=1.40 / aq=1:1.00 7<V(lX.{  
Default                                  : Yes 8UArl3  
Forced                                   : No
Audio rf"%D<bb  
ID                                       : 2 MR$Bl"d  
Format                                   : Vorbis Ob+L|FbnN  
Format settings, Floor                   : 1 ^\kv> WBE  
Codec ID                                 : A_VORBIS WAlsh  
Duration                                 : 1h 25mn N%{&%C6{  
Bit rate mode                            : Variable EJP##eGx  
Bit rate                                 : 96.0 Kbps :. B};;N  
Channel(s)                               : 2 channels is`Eqcj`dr  
Sampling rate                            : 48.0 KHz CW>f;  
Compression mode                         : Lossy :70cOt~Z  
Stream size                              : 58.5 MiB (5%) }0c  
Writing library                          : libVorbis (Schaufenugget) (20101101 (Schaufenugget)) 6P;JF%{J  
Default                                  : Yes H XF5fs  
Forced                                   : No '7}s25[{\  
Writing application                      : Lavc53.42.0
qy6zHw  
Z++JmD1J  
此帖售价 5 金钱,已有 27 人购买 [记录] [购买]
购买后,将显示帖子中所有出售内容。
若发现会员采用欺骗的方法获取财富,请立刻举报,我们会对会员处以2-N倍的罚金,严重者封掉ID!
此段为出售的内容,购买后显示
2条评分金钱+50威望+5
happylee 威望 +5 吉隆坡压制!太棒了!支持自压! 2013-07-23
happylee 金钱 +50 吉隆坡压制!太棒了!支持自压! 2013-07-23
离线HappyLee

发帖
2705
金钱
103844
威望
2591
贡献值
1204
交易币
3831
只看该作者 1楼 发表于: 2013-07-23
吉隆坡压制!太棒了!支持自压!
离线jerry黄哲

发帖
1102
金钱
8824
威望
19
贡献值
34
交易币
1243
只看该作者 2楼 发表于: 2013-07-23
谢谢分享
离线MJ守护者

发帖
1443
金钱
24943
威望
768
贡献值
304
交易币
1890
只看该作者 3楼 发表于: 2013-07-23
这个音频有噪音嘛?
KOPSKY:  blog.sina.com.cn/kopsky

发帖
2894
金钱
59589
威望
727
贡献值
479
交易币
3807
只看该作者 4楼 发表于: 2013-07-23
吉隆坡的,太给力了。

内容来自Android手机客户端

离线mj94314857

发帖
545
金钱
1201
威望
111
贡献值
67
交易币
794
只看该作者 5楼 发表于: 2013-07-23
绝对支持。
离线mjghosts

发帖
8256
金钱
219439
威望
9187
贡献值
2734
交易币
4791
只看该作者 6楼 发表于: 2013-07-23
回 mj守护者 的帖子
mj守护者:这个音频有噪音嘛? (2013-07-23 12:27)  IwJ4K+  
gt Vnn]Jh  
除了VCD版,其它版本都有噪音的。
离线MJ守护者

发帖
1443
金钱
24943
威望
768
贡献值
304
交易币
1890
只看该作者 7楼 发表于: 2013-07-23
看来这个有咯。。。 _'Rzu'$`  
P~d&PhOe  
内容来自[短消息]

发帖
706
金钱
3072
威望
203
贡献值
51
交易币
771
只看该作者 8楼 发表于: 2013-07-23
谢谢压制!
离线流行王冠

发帖
672
金钱
660
威望
-9
贡献值
16
交易币
737
只看该作者 9楼 发表于: 2013-07-23
敢问为啥不用没有噪音的VCD版本那,
快速回复
限100 字节
 
上一个 下一个