论坛风格切换切换到宽版
  • 3794阅读
  • 28回复

1996.HIStory演唱会.Kuala Lumpur.480p.x264.25fps-MSZ压制【百度盘】 [复制链接]

上一主题 下一主题
离线mjghosts
 

发帖
8255
金钱
219223
威望
9187
贡献值
2734
交易币
4790
只看楼主 倒序阅读 楼主  发表于: 2013-07-23
下载链接请直转! -qIi.]/f"9  
片源:MattBlnMe
_ nMd  
 cca g8LC  
好吧,这一场大家最熟悉不过了。目前来说有三大源头:1.VCD版(DAT);2.带录像机时间码版(AVI);3.MattBlnMe的VHS-Rip(DVD),三大源头都来于同一个源(各种录像带花带现象一致)。且质量都不怎么样,如果说观看效果比较舒服的,也属VCD版了。而这次压制的片源是Matt的DVD,它的特点在于一些细节部分,比VCD版更加完整。
YhN<vZ}U!~  
,UY1.tR(  
BPO5=]W 7  
+8Lbz^#  
Unique ID                                : 142754139477398144759135099519263764237 (0x6B65727B13328C214A7E7DAFE086EF0D) [CJ<$R !  
Complete name                            : G:\压制作品\[MJSHOWZONE]1996.HIStory演唱会.Kuala Lumpur.480p.x264.25fps.mkv 9J3fiA_  
Format                                   : Matroska p) 8S]p]  
Format version                           : Version 2 /hl'T'RG  
File size                                : 1.05 GiB 7:jLZ!mgi  
Duration                                 : 1h 25mn y:;.r:  
Overall bit rate mode                    : Variable $mQ0w~:@  
Overall bit rate                         : 1 767 Kbps -<#) ]um  
Writing application                      : Kirara Encoder &QHJ%c  
Writing library                          : Kirara Encoder
Video i7Qb~RW  
ID                                       : 1 l2 .S^S  
Format                                   : AVC g|~px$<iY  
Format/Info                              : Advanced Video Codec J"r?F0  
Format profile                           : High@L4.1 $k~TVm Yex  
Format settings, CABAC                   : Yes 6v)TCj/  
Format settings, ReFrames                : 4 frames  YSD G!  
Codec ID                                 : V_MPEG4/ISO/AVC TQ"XjbhU;X  
Duration                                 : 1h 25mn _b&|0j:Ud  
Bit rate                                 : 1 636 Kbps 0*{(R#  
Width                                    : 640 pixels w#.3na  
Height                                   : 480 pixels 'cO8& |  
Display aspect ratio                     : 4:3 _}R$h=YD  
Frame rate mode                          : Constant 8Ths"zwn  
Frame rate                               : 25.000 fps B!'K20"gF  
Color space                              : YUV ?N{\qF1Mz  
Chroma subsampling                       : 4:2:0 _T)y5/[  
Bit depth                                : 8 bits eT%x(P  
Scan type                                : Progressive I_1?J* b4k  
Bits/(Pixel*Frame)                       : 0.213 S}C[  
Stream size                              : 997 MiB (93%) CPZ{  
Writing library                          : x264 core 120 {\>4)TA  
Encoding settings                        : cabac=1 / ref=4 / deblock=1:0:0 / analyse=0x3:0x113 / me=hex / subme=7 / psy=1 / psy_rd=1.00:0.00 / mixed_ref=1 / me_range=16 / chroma_me=1 / trellis=0 / 8x8dct=1 / cqm=0 / deadzone=21,11 / fast_pskip=1 / chroma_qp_offset=-2 / threads=3 / sliced_threads=0 / nr=0 / decimate=1 / interlaced=0 / bluray_compat=0 / constrained_intra=0 / bframes=0 / weightp=2 / keyint=250 / keyint_min=25 / scenecut=40 / intra_refresh=0 / rc_lookahead=40 / rc=crf / mbtree=1 / crf=21.0 / qcomp=0.60 / qpmin=0 / qpmax=69 / qpstep=4 / ip_ratio=1.40 / aq=1:1.00 5AT^puL]]  
Default                                  : Yes NDRD PD  
Forced                                   : No
Audio D5"5`w=C  
ID                                       : 2 v7(7WfqP  
Format                                   : Vorbis M8H hjoo  
Format settings, Floor                   : 1 2D!jVr!  
Codec ID                                 : A_VORBIS  ]j0+4w  
Duration                                 : 1h 25mn g:uVl;>  
Bit rate mode                            : Variable .7.1JT#@A7  
Bit rate                                 : 96.0 Kbps ^m7y=CJM  
Channel(s)                               : 2 channels 7s^b@&Le  
Sampling rate                            : 48.0 KHz bR3Crz(9G  
Compression mode                         : Lossy 'LoWp} f9  
Stream size                              : 58.5 MiB (5%) Y;Nq(  
Writing library                          : libVorbis (Schaufenugget) (20101101 (Schaufenugget)) KsGW@Ho:  
Default                                  : Yes @V>]95RX  
Forced                                   : No !>'A2V~F  
Writing application                      : Lavc53.42.0
mm_)=Ipj>  
~_0XG0oA  
此帖售价 5 金钱,已有 27 人购买 [记录] [购买]
购买后,将显示帖子中所有出售内容。
若发现会员采用欺骗的方法获取财富,请立刻举报,我们会对会员处以2-N倍的罚金,严重者封掉ID!
此段为出售的内容,购买后显示
2条评分金钱+50威望+5
happylee 威望 +5 吉隆坡压制!太棒了!支持自压! 2013-07-23
happylee 金钱 +50 吉隆坡压制!太棒了!支持自压! 2013-07-23
离线HappyLee

发帖
2703
金钱
103640
威望
2591
贡献值
1204
交易币
3829
只看该作者 1楼 发表于: 2013-07-23
吉隆坡压制!太棒了!支持自压!
离线jerry黄哲

发帖
1102
金钱
8824
威望
19
贡献值
34
交易币
1243
只看该作者 2楼 发表于: 2013-07-23
谢谢分享
离线MJ守护者

发帖
1443
金钱
24943
威望
768
贡献值
304
交易币
1890
只看该作者 3楼 发表于: 2013-07-23
这个音频有噪音嘛?
KOPSKY:  blog.sina.com.cn/kopsky

发帖
2894
金钱
59589
威望
727
贡献值
479
交易币
3807
只看该作者 4楼 发表于: 2013-07-23
吉隆坡的,太给力了。

内容来自Android手机客户端

离线mj94314857

发帖
544
金钱
1198
威望
111
贡献值
67
交易币
793
只看该作者 5楼 发表于: 2013-07-23
绝对支持。
离线mjghosts

发帖
8255
金钱
219223
威望
9187
贡献值
2734
交易币
4790
只看该作者 6楼 发表于: 2013-07-23
回 mj守护者 的帖子
mj守护者:这个音频有噪音嘛? (2013-07-23 12:27)  C1UU v=|  
: MjDcI~  
除了VCD版,其它版本都有噪音的。
离线MJ守护者

发帖
1443
金钱
24943
威望
768
贡献值
304
交易币
1890
只看该作者 7楼 发表于: 2013-07-23
看来这个有咯。。。 pS ](Emn`.  
B=a+cT  
内容来自[短消息]

发帖
706
金钱
3072
威望
203
贡献值
51
交易币
771
只看该作者 8楼 发表于: 2013-07-23
谢谢压制!
离线流行王冠

发帖
672
金钱
660
威望
-9
贡献值
16
交易币
737
只看该作者 9楼 发表于: 2013-07-23
敢问为啥不用没有噪音的VCD版本那,
快速回复
限100 字节
 
上一个 下一个