论坛风格切换切换到宽版
  • 4104阅读
  • 28回复

1996.HIStory演唱会.Kuala Lumpur.480p.x264.25fps-MSZ压制【百度盘】 [复制链接]

上一主题 下一主题
离线mjghosts
 

发帖
8261
金钱
219535
威望
9187
贡献值
2734
交易币
4796
只看楼主 倒序阅读 楼主  发表于: 2013-07-23
下载链接请直转! V'gw\mcb  
片源:MattBlnMe
;%!m<S|%k  
PX,rWkOce  
好吧,这一场大家最熟悉不过了。目前来说有三大源头:1.VCD版(DAT);2.带录像机时间码版(AVI);3.MattBlnMe的VHS-Rip(DVD),三大源头都来于同一个源(各种录像带花带现象一致)。且质量都不怎么样,如果说观看效果比较舒服的,也属VCD版了。而这次压制的片源是Matt的DVD,它的特点在于一些细节部分,比VCD版更加完整。
!K0JV|-?t  
u<tk G B  
}IkQA#4$  
m7|RD]q&  
Unique ID                                : 142754139477398144759135099519263764237 (0x6B65727B13328C214A7E7DAFE086EF0D) % 4 ~l  
Complete name                            : G:\压制作品\[MJSHOWZONE]1996.HIStory演唱会.Kuala Lumpur.480p.x264.25fps.mkv .p6+l!"  
Format                                   : Matroska r.3KPiYK  
Format version                           : Version 2 NeOxpn[  
File size                                : 1.05 GiB _7)F ?  
Duration                                 : 1h 25mn Z@rN_WXx  
Overall bit rate mode                    : Variable =P77"Dd  
Overall bit rate                         : 1 767 Kbps =!MY4&YX  
Writing application                      : Kirara Encoder  -7]Xjb5  
Writing library                          : Kirara Encoder
Video *JCQu0  
ID                                       : 1 #=e;?w  
Format                                   : AVC LJzH"K[Gg6  
Format/Info                              : Advanced Video Codec 72db[  
Format profile                           : High@L4.1 |BU+:+  
Format settings, CABAC                   : Yes +{`yeZ9S  
Format settings, ReFrames                : 4 frames ,Fqz e/  
Codec ID                                 : V_MPEG4/ISO/AVC Yn51U6_S  
Duration                                 : 1h 25mn !E\[SjY@J  
Bit rate                                 : 1 636 Kbps D #2yIec  
Width                                    : 640 pixels !|wzf+V  
Height                                   : 480 pixels '{?C{MK3Q  
Display aspect ratio                     : 4:3 zi]%Zp  
Frame rate mode                          : Constant &rq{v!=7  
Frame rate                               : 25.000 fps M7}Q=q\9  
Color space                              : YUV 1hQN8!:<  
Chroma subsampling                       : 4:2:0 {Q (}DI  
Bit depth                                : 8 bits mNmUUj9z  
Scan type                                : Progressive Nud,\mXrY[  
Bits/(Pixel*Frame)                       : 0.213 L&2u[ml  
Stream size                              : 997 MiB (93%) ! >.vh]8g  
Writing library                          : x264 core 120 2!&pEqs  
Encoding settings                        : cabac=1 / ref=4 / deblock=1:0:0 / analyse=0x3:0x113 / me=hex / subme=7 / psy=1 / psy_rd=1.00:0.00 / mixed_ref=1 / me_range=16 / chroma_me=1 / trellis=0 / 8x8dct=1 / cqm=0 / deadzone=21,11 / fast_pskip=1 / chroma_qp_offset=-2 / threads=3 / sliced_threads=0 / nr=0 / decimate=1 / interlaced=0 / bluray_compat=0 / constrained_intra=0 / bframes=0 / weightp=2 / keyint=250 / keyint_min=25 / scenecut=40 / intra_refresh=0 / rc_lookahead=40 / rc=crf / mbtree=1 / crf=21.0 / qcomp=0.60 / qpmin=0 / qpmax=69 / qpstep=4 / ip_ratio=1.40 / aq=1:1.00 ETw]! br  
Default                                  : Yes x"B' zP  
Forced                                   : No
Audio _^!vCa7f  
ID                                       : 2 b{[*N  
Format                                   : Vorbis '5.\#=S1  
Format settings, Floor                   : 1 APBK9ky  
Codec ID                                 : A_VORBIS yXfMzG  
Duration                                 : 1h 25mn MK$Jj "  
Bit rate mode                            : Variable D(X qyN-P  
Bit rate                                 : 96.0 Kbps \9m*(_Qf  
Channel(s)                               : 2 channels vOT*iax0  
Sampling rate                            : 48.0 KHz `iYc<N`  
Compression mode                         : Lossy FmT `Oa>  
Stream size                              : 58.5 MiB (5%) X>3^a'2,E  
Writing library                          : libVorbis (Schaufenugget) (20101101 (Schaufenugget)) mK\aI  
Default                                  : Yes #93}E Y  
Forced                                   : No vInFo.e[4  
Writing application                      : Lavc53.42.0
a<p %hY3  
}su6izx  
此帖售价 5 金钱,已有 27 人购买 [记录] [购买]
购买后,将显示帖子中所有出售内容。
若发现会员采用欺骗的方法获取财富,请立刻举报,我们会对会员处以2-N倍的罚金,严重者封掉ID!
此段为出售的内容,购买后显示
2条评分金钱+50威望+5
happylee 威望 +5 吉隆坡压制!太棒了!支持自压! 2013-07-23
happylee 金钱 +50 吉隆坡压制!太棒了!支持自压! 2013-07-23
离线HappyLee

发帖
2707
金钱
103914
威望
2591
贡献值
1204
交易币
3833
只看该作者 1楼 发表于: 2013-07-23
吉隆坡压制!太棒了!支持自压!
离线jerry黄哲

发帖
1102
金钱
8824
威望
19
贡献值
34
交易币
1243
只看该作者 2楼 发表于: 2013-07-23
谢谢分享
离线MJ守护者

发帖
1444
金钱
25029
威望
779
贡献值
305
交易币
1895
只看该作者 3楼 发表于: 2013-07-23
这个音频有噪音嘛?
KOPSKY:  blog.sina.com.cn/kopsky

发帖
2894
金钱
59605
威望
727
贡献值
479
交易币
3807
只看该作者 4楼 发表于: 2013-07-23
吉隆坡的,太给力了。

内容来自Android手机客户端

离线mj94314857

发帖
546
金钱
1203
威望
111
贡献值
67
交易币
795
只看该作者 5楼 发表于: 2013-07-23
绝对支持。
离线mjghosts

发帖
8261
金钱
219535
威望
9187
贡献值
2734
交易币
4796
只看该作者 6楼 发表于: 2013-07-23
回 mj守护者 的帖子
mj守护者:这个音频有噪音嘛? (2013-07-23 12:27)  +Z85HY{  
8O Soel  
除了VCD版,其它版本都有噪音的。
离线MJ守护者

发帖
1444
金钱
25029
威望
779
贡献值
305
交易币
1895
只看该作者 7楼 发表于: 2013-07-23
看来这个有咯。。。 &Y^WP?HS  
pe{; ~-|6  
内容来自[短消息]

发帖
706
金钱
3072
威望
203
贡献值
51
交易币
771
只看该作者 8楼 发表于: 2013-07-23
谢谢压制!
离线流行王冠

发帖
672
金钱
660
威望
-9
贡献值
16
交易币
737
只看该作者 9楼 发表于: 2013-07-23
敢问为啥不用没有噪音的VCD版本那,
快速回复
限100 字节
 
上一个 下一个