论坛风格切换切换到宽版
  • 4700阅读
  • 28回复

1996.HIStory演唱会.Kuala Lumpur.480p.x264.25fps-MSZ压制【百度盘】 [复制链接]

上一主题 下一主题
离线mjghosts
 

发帖
8279
金钱
220440
威望
9195
贡献值
2742
交易币
4818
只看楼主 倒序阅读 楼主  发表于: 2013-07-23
下载链接请直转! ;K<W<v5m0N  
片源:MattBlnMe
ZAcW@xfb  
j?rq%rQd  
好吧,这一场大家最熟悉不过了。目前来说有三大源头:1.VCD版(DAT);2.带录像机时间码版(AVI);3.MattBlnMe的VHS-Rip(DVD),三大源头都来于同一个源(各种录像带花带现象一致)。且质量都不怎么样,如果说观看效果比较舒服的,也属VCD版了。而这次压制的片源是Matt的DVD,它的特点在于一些细节部分,比VCD版更加完整。
_~b$6Nf!83  
)cX6o[oia  
O1_dA%m  
T]%:+_,  
Unique ID                                : 142754139477398144759135099519263764237 (0x6B65727B13328C214A7E7DAFE086EF0D) clZ jb  
Complete name                            : G:\压制作品\[MJSHOWZONE]1996.HIStory演唱会.Kuala Lumpur.480p.x264.25fps.mkv kR0d]"dr  
Format                                   : Matroska q>T7};5m2  
Format version                           : Version 2 75t\= 6#  
File size                                : 1.05 GiB e7<//~W7W  
Duration                                 : 1h 25mn cC_L4  
Overall bit rate mode                    : Variable Y!VYD_'P  
Overall bit rate                         : 1 767 Kbps >g%^hjJ  
Writing application                      : Kirara Encoder _`>F>aP  
Writing library                          : Kirara Encoder
Video lMu}|d  
ID                                       : 1 {EKzPr/  
Format                                   : AVC }cK<2J#  
Format/Info                              : Advanced Video Codec hLyD#XCFA  
Format profile                           : High@L4.1 wB6 ILTu1  
Format settings, CABAC                   : Yes B4^+&B#  
Format settings, ReFrames                : 4 frames 6QsH?!bu  
Codec ID                                 : V_MPEG4/ISO/AVC k9j_#\E[  
Duration                                 : 1h 25mn  Ad)Po  
Bit rate                                 : 1 636 Kbps *<k8H5z8]  
Width                                    : 640 pixels !g}?x3  
Height                                   : 480 pixels O+I\Q?   
Display aspect ratio                     : 4:3 pvL)BD  
Frame rate mode                          : Constant ^Rr0)4ns  
Frame rate                               : 25.000 fps Jt79M(Hp!  
Color space                              : YUV [JAHPy=+w  
Chroma subsampling                       : 4:2:0  lJaR,,  
Bit depth                                : 8 bits tHF -OarUO  
Scan type                                : Progressive 5`su^  
Bits/(Pixel*Frame)                       : 0.213 Ul"9zTH  
Stream size                              : 997 MiB (93%) MA}~bfB  
Writing library                          : x264 core 120 6"3-8orj   
Encoding settings                        : cabac=1 / ref=4 / deblock=1:0:0 / analyse=0x3:0x113 / me=hex / subme=7 / psy=1 / psy_rd=1.00:0.00 / mixed_ref=1 / me_range=16 / chroma_me=1 / trellis=0 / 8x8dct=1 / cqm=0 / deadzone=21,11 / fast_pskip=1 / chroma_qp_offset=-2 / threads=3 / sliced_threads=0 / nr=0 / decimate=1 / interlaced=0 / bluray_compat=0 / constrained_intra=0 / bframes=0 / weightp=2 / keyint=250 / keyint_min=25 / scenecut=40 / intra_refresh=0 / rc_lookahead=40 / rc=crf / mbtree=1 / crf=21.0 / qcomp=0.60 / qpmin=0 / qpmax=69 / qpstep=4 / ip_ratio=1.40 / aq=1:1.00 qp#Is{=m  
Default                                  : Yes UCu0Xqf  
Forced                                   : No
Audio >(EC.ke  
ID                                       : 2 Q!9  
Format                                   : Vorbis M&QzsVH  
Format settings, Floor                   : 1 J# >)+  
Codec ID                                 : A_VORBIS bIXudE[8zq  
Duration                                 : 1h 25mn L[s`8u<_)z  
Bit rate mode                            : Variable a Xn:hn~O  
Bit rate                                 : 96.0 Kbps dO1h1yJJ  
Channel(s)                               : 2 channels O:]e4r,'  
Sampling rate                            : 48.0 KHz j0b>n#e7  
Compression mode                         : Lossy fB)S:f|  
Stream size                              : 58.5 MiB (5%) 9'=ZxV  
Writing library                          : libVorbis (Schaufenugget) (20101101 (Schaufenugget)) aF{1V \e  
Default                                  : Yes 4iv&!hAc;  
Forced                                   : No A!v:W6yiz  
Writing application                      : Lavc53.42.0
cEIs9;  
(W.G&VSn)  
此帖售价 5 金钱,已有 27 人购买 [记录] [购买]
购买后,将显示帖子中所有出售内容。
若发现会员采用欺骗的方法获取财富,请立刻举报,我们会对会员处以2-N倍的罚金,严重者封掉ID!
此段为出售的内容,购买后显示
2条评分金钱+50威望+5
happylee 威望 +5 吉隆坡压制!太棒了!支持自压! 2013-07-23
happylee 金钱 +50 吉隆坡压制!太棒了!支持自压! 2013-07-23
离线HappyLee

发帖
2729
金钱
107535
威望
2763
贡献值
1395
交易币
3919
只看该作者 1楼 发表于: 2013-07-23
吉隆坡压制!太棒了!支持自压!
离线jerry黄哲

发帖
1102
金钱
8824
威望
19
贡献值
34
交易币
1243
只看该作者 2楼 发表于: 2013-07-23
谢谢分享
离线MJ守护者

发帖
1446
金钱
25153
威望
779
贡献值
305
交易币
1897
只看该作者 3楼 发表于: 2013-07-23
这个音频有噪音嘛?
KOPSKY:  blog.sina.com.cn/kopsky

发帖
2894
金钱
59725
威望
727
贡献值
479
交易币
3807
只看该作者 4楼 发表于: 2013-07-23
吉隆坡的,太给力了。

内容来自Android手机客户端

离线mj94314857

发帖
549
金钱
1156
威望
111
贡献值
67
交易币
798
只看该作者 5楼 发表于: 2013-07-23
绝对支持。
离线mjghosts

发帖
8279
金钱
220440
威望
9195
贡献值
2742
交易币
4818
只看该作者 6楼 发表于: 2013-07-23
回 mj守护者 的帖子
mj守护者:这个音频有噪音嘛? (2013-07-23 12:27)  fN>o465I6  
<$HP"f+<S5  
除了VCD版,其它版本都有噪音的。
离线MJ守护者

发帖
1446
金钱
25153
威望
779
贡献值
305
交易币
1897
只看该作者 7楼 发表于: 2013-07-23
看来这个有咯。。。 ]Jz2[F"J  
LK\L}<;1V  
内容来自[短消息]

发帖
706
金钱
3072
威望
203
贡献值
51
交易币
771
只看该作者 8楼 发表于: 2013-07-23
谢谢压制!
离线流行王冠

发帖
672
金钱
660
威望
-9
贡献值
16
交易币
737
只看该作者 9楼 发表于: 2013-07-23
敢问为啥不用没有噪音的VCD版本那,
快速回复
限100 字节
 
上一个 下一个