论坛风格切换切换到宽版
  • 5482阅读
  • 41回复

1997.HIStory演唱会.Copenhagen(HQ).480p.x264.25fps-MSZ压制【百度盘】 [复制链接]

上一主题 下一主题
离线mjghosts
 

发帖
8261
金钱
219535
威望
9187
贡献值
2734
交易币
4796
只看楼主 倒序阅读 楼主  发表于: 2013-07-27
下载链接请直转! +_v$!@L8  
感谢片源提供:siva
svelYe#9z  
[S.ZJUns  
为了保留演唱会的品质,这次的压制没有怎么控制文件体积,毕竟和大部分历史演唱会不同,片源并不是低质量录像带转制品。借此机会再次感谢文件录制&发布者:siva。 Eca\fkj  
文件有点大,下载请斟酌。
ccCzu6  
>@WX>0`ht  
'Y$R~e^Y?  
6.5T/D*TT  
uj%skOD6Z  
Tu{h<Zy  
RH}A  
hlu:=<B  
Unique ID                                : 44187682442966632887050455496390071390 (0x213E3CF2BEC7CE46B646A4EADFC7D45E) uE[(cko  
Complete name                            : G:\压制作品\[MJSHOWZONE]1997.HIStory演唱会.Copenhagen(HQ).480p.x264.25fps.mkv ]M)O YY  
Format                                   : Matroska j1SMeDDM ~  
Format version                           : Version 2 @i^~0A#q*  
File size                                : 1.85 GiB st"{M\.p  
Duration                                 : 2h 3mn !-m&U4Ku6o  
Overall bit rate mode                    : Variable Xh J,"=E+  
Overall bit rate                         : 2 133 Kbps AtR?J"3E  
Writing application                      : Kirara Encoder oG$)UTzGc  
Writing library                          : Kirara Encoder
Video t_ksvWUo  
ID                                       : 1 [4fU+D2\d  
Format                                   : AVC Z/^  u  
Format/Info                              : Advanced Video Codec [D5t{[i  
Format profile                           : High@L4.1 zEZLKWm9-  
Format settings, CABAC                   : Yes Bl9jkq ]  
Format settings, ReFrames                : 4 frames  tpy>OT$  
Codec ID                                 : V_MPEG4/ISO/AVC 0&ByEN9 9  
Duration                                 : 2h 3mn 9Pw0m=4  
Bit rate                                 : 1 995 Kbps 0 ugT2%  
Width                                    : 640 pixels ^m_yf|D$  
Height                                   : 480 pixels b$k&dT\o  
Display aspect ratio                     : 4:3 47r_y\U h  
Frame rate mode                          : Constant RzhWD^bB  
Frame rate                               : 25.000 fps l!#m&'16"  
Color space                              : YUV X-Wz:NA  
Chroma subsampling                       : 4:2:0 %gnM( pxl  
Bit depth                                : 8 bits u*  
Scan type                                : Progressive '8Phxx|  
Bits/(Pixel*Frame)                       : 0.260 p;?*}xa  
Stream size                              : 1.73 GiB (94%) =h(W4scgqX  
Writing library                          : x264 core 120 %3HVFhl  
Encoding settings                        : cabac=1 / ref=4 / deblock=1:0:0 / analyse=0x3:0x113 / me=hex / subme=7 / psy=1 / psy_rd=1.00:0.00 / mixed_ref=1 / me_range=16 / chroma_me=1 / trellis=0 / 8x8dct=1 / cqm=0 / deadzone=21,11 / fast_pskip=1 / chroma_qp_offset=-2 / threads=3 / sliced_threads=0 / nr=0 / decimate=1 / interlaced=0 / bluray_compat=0 / constrained_intra=0 / bframes=0 / weightp=2 / keyint=250 / keyint_min=25 / scenecut=40 / intra_refresh=0 / rc_lookahead=40 / rc=crf / mbtree=1 / crf=20.0 / qcomp=0.60 / qpmin=0 / qpmax=69 / qpstep=4 / ip_ratio=1.40 / aq=1:1.00 yT{8d.Rh  
Default                                  : Yes b| SE<\  
Forced                                   : No
Audio VL9-NfeqR  
ID                                       : 2 y/V%&.$o=  
Format                                   : Vorbis eT'nl,e|  
Format settings, Floor                   : 1 gn5)SP8  
Codec ID                                 : A_VORBIS Gu=STb  
Duration                                 : 2h 3mn mVtXcP4b  
Bit rate mode                            : Variable  ]*O/+  
Bit rate                                 : 96.0 Kbps "l={)=R  
Channel(s)                               : 2 channels iVB^,KQ@  
Sampling rate                            : 48.0 KHz -st7_3  
Compression mode                         : Lossy Qr# 1u  
Stream size                              : 85.1 MiB (4%) T ^A b!O  
Writing library                          : libVorbis (Schaufenugget) (20101101 (Schaufenugget)) R~bC,`Bh  
Default                                  : Yes 4E44Hzs  
Forced                                   : No %hlspI(J  
Writing application                      : Lavc53.42.0
)a}"^1  
<lr*ZSNY  
此帖售价 5 金钱,已有 31 人购买 [记录] [购买]
购买后,将显示帖子中所有出售内容。
若发现会员采用欺骗的方法获取财富,请立刻举报,我们会对会员处以2-N倍的罚金,严重者封掉ID!
此段为出售的内容,购买后显示
4条评分金钱+76威望+15
HappyLee 威望 +5 支持自压! 2013-07-29
HappyLee 金钱 +25 支持自压! 2013-07-29
无神论者 威望 +10 - 2013-07-27
无神论者 金钱 +51 - 2013-07-27
离线jerry黄哲

发帖
1102
金钱
8824
威望
19
贡献值
34
交易币
1243
只看该作者 1楼 发表于: 2013-07-27
迈克尔杰克逊丹麦哥本哈根历史演唱会
音乐无国界,经典舞终点,这是一场盛况空前的绝世经典演唱会;时过境迁,随着岁月流逝,当人们伴随着岁月的休止符不断老去;当创造这神话般经典的人物已经离去;来到这里重温天王的经典瞬间,那种激情、那种冲动依然爆发于瞬间;伴随着强烈的节奏,感受太空舞的震撼,体会着无人能及的歌舞合一;迈克尔杰克逊留给我们的是一场经典中的经典........!!!不错的资源,,
~#M d"3  
j'Y / H5  
y_F}s9wj  
jRkC/Lw  
离线Eclipse

发帖
1141
金钱
2130
威望
543
贡献值
271
交易币
1662
只看该作者 2楼 发表于: 2013-07-27
这个压制版本很有收藏价值,小硬盘收了

发帖
2894
金钱
59605
威望
727
贡献值
479
交易币
3807
只看该作者 3楼 发表于: 2013-07-27
有了,谢谢楼主

内容来自Android手机客户端

离线cromwell

发帖
1836
金钱
37850
威望
439
贡献值
177
交易币
1042
只看该作者 4楼 发表于: 2013-07-27
谢谢幽灵亲压亲传 ~u O:tL  
'xLM>6[wz  
为什么把原本PAL制,也就是768*576的分辨率压制成640*480呢? JLFFh!J  
SdjUhR+o  
事实上压制的非常好,在保证画质的情况下体积已经压缩得很小了。7G压成1.8G .!7Fe)(x  
压着玩,看着玩,真心不错。 J_y<0zF**  
m11"i=S"  
音质是否有做过修复之类? UY}9  
<Y}"D Yt  
另外吐槽幽灵头像,真心霸气 fY)4]=L  
O]$*EiO\  
杯具7K党——
网速7K以下均可以加入,可随时交流惨痛的下载经验
不管是下载下到昏头,还是上传上到头大
欢迎悲惨的MJ资源收藏迷~~~

发帖
706
金钱
3072
威望
203
贡献值
51
交易币
771
只看该作者 5楼 发表于: 2013-07-27
终于等到哥本哈根的压制了,谢幽灵!!
离线mjghosts

发帖
8261
金钱
219535
威望
9187
贡献值
2734
交易币
4796
只看该作者 6楼 发表于: 2013-07-27
回 cromwell 的帖子
cromwell:谢谢幽灵亲压亲传
为什么把原本PAL制,也就是768*576的分辨率压制成640*480呢?
事实上压制的非常好,在保证画质的情况下体积已经压缩得很小了。7G压成1.8G 7ORwDR,`5  
....... (2013-07-27 17:25)  9E+^FZe  
>PTq5pk  
768X576或是640X480都是4:3比例,分辨率稍微调低一点可以减少码率需求,而且我用的工具远没有HL的专业,步骤远没有他的复杂,所以就只能这样啦。 |e!Sm{#!  
)s M}BY  
PS:如果用原始分辨率压制这估计要达到2G+了,另外你提到的音频方面,我没有作任何修复,因为同样的问题,没那技术,所以心愿就是能尽量保持原样吧。
离线jerry黄哲

发帖
1102
金钱
8824
威望
19
贡献值
34
交易币
1243
只看该作者 7楼 发表于: 2013-07-27
回 mjghosts 的帖子
mjghosts:768X576或是640X480都是4:3比例,分辨率稍微调低一点可以减少码率需求,而且我用的工具远没有HL的专业,步骤远没有他的复杂,所以就只能这样啦。[表情]
PS:如果用原始分辨率压制这估计要达到2G+了,另外你提到的音频方面,我没有作任何修复,因为同样的问题,没那技术,所以 .. (2013-07-27 17:33)  (FP- K  
p%8y!^g  
已经很不错了.
离线Andy

发帖
1446
金钱
40335
威望
925
贡献值
312
交易币
78
只看该作者 8楼 发表于: 2013-07-27
回 mjghosts 的帖子
mjghosts:768X576或是640X480都是4:3比例,分辨率稍微调低一点可以减少码率需求,而且我用的工具远没有HL的专业,步骤远没有他的复杂,所以就只能这样啦。[表情]
PS:如果用原始分辨率压制这估计要达到2G+了,另外你提到的音频方面,我没有作任何修复,因为同样的问题,没那技术,所以 .. (2013-07-27 17:33)  YgV"*~  
T deHs{|  
已经很不错了。~~
离线mjghosts

发帖
8261
金钱
219535
威望
9187
贡献值
2734
交易币
4796
只看该作者 9楼 发表于: 2013-07-27
@cromwell   N)EJP ~0  
站内信老是发不出去,你在短信里问的我只能在这里回复了。 \iH\N/  
/Py`a1  
下载百度盘资源很多方法,迅雷,或者浏览器自带的下载器,或者你可以按照百度盘的提示安装个“百度云”,目前这种方式下载最快。
本帖提到的人: @cromwell
快速回复
限100 字节
 
上一个 下一个