论坛风格切换切换到宽版
  • 5805阅读
  • 5回复

[音乐视频]蓝光压制:Super Junior.Super Show5 in Tokyo.720p.x264.mkv[9.64G/百度盘] [复制链接]

上一主题 下一主题
离线mjghosts
 

发帖
8241
金钱
217206
威望
9172
贡献值
2721
交易币
4744
只看楼主 倒序阅读 楼主  发表于: 2014-07-15
— 本帖被 mjghosts 执行加亮操作(2014-07-15) —
6 <&jY  
(;1rM}B;1  
.m',*s<CMQ  
EP!zcp2' C  
pVuJ4+`  
General <>!Y[Xr^  
Unique ID : 214460346781946432818492794470347915666 (0xA1578F74BE2130128B2C65C97DE54192) 8#NI`s*  
Complete name : E:\SUPER JUNIOR.SUPER SHOW 5 IN JAPAN.TOKYO DOME.Blu-Ray.720p.x264-KpM.mkv 3$c Im+  
Format : Matroska *hJ&7w ~  
Format version : Version 2 () l#}H`m  
File size : 9.65 GiB +4[L_  
Duration : 2h 44mn H l'za  
Overall bit rate mode : Variable [^iQE  
Overall bit rate : 8 378 Kbps Ww8C}2g3  
Encoded date : UTC 2014-07-04 23:47:39 \ C^fi}/]  
Writing application : mkvmerge v5.5.0 ('Healer') built on Apr 6 2012 21:43:24 y)`f$Hl@1  
Writing library : Kirara Encoder
Video jacp':T  
ID : 1 x1g0_&F  
Format : AVC J>H$4t#HX  
Format/Info : Advanced Video Codec  ,\HZIl[8  
Format profile : High@L4.1 8T:?C~"  
Format settings, CABAC : Yes C'6 yt  
Format settings, ReFrames : 4 frames M Y2=lT  
Muxing mode : Header stripping DEdJH4  
Codec ID : V_MPEG4/ISO/AVC {P/5cw  
Duration : 2h 44mn =Nyq1~   
Bit rate : 8 083 Kbps {S+  $C  
Width : 1 280 pixels 2J>v4EWC  
Height : 720 pixels ;x]CaG)f  
Display aspect ratio : 16:9 Ng1{ NI+S  
Frame rate mode : Constant " [Z'n9C  
Frame rate : 29.970 fps vr:5+wew  
Color space : YUV ZxDh94w/  
Chroma subsampling : 4:2:0 []\=(Uc;  
Bit depth : 8 bits +dw=)A#/  
Scan type : Progressive h'wI  
Bits/(Pixel*Frame) : 0.293 9fj8r3 F#  
Stream size : 9.31 GiB (96%) ZcP/rT3{^  
Writing library : x264 core 120 ^U5g7Emf  
Encoding settings : cabac=1 / ref=4 / deblock=1:0:0 / analyse=0x3:0x113 / me=hex / subme=7 / psy=1 / psy_rd=1.00:0.00 / mixed_ref=1 / me_range=16 / chroma_me=1 / trellis=0 / 8x8dct=1 / cqm=0 / deadzone=21,11 / fast_pskip=1 / chroma_qp_offset=-2 / threads=3 / sliced_threads=0 / nr=0 / decimate=1 / interlaced=0 / bluray_compat=0 / constrained_intra=0 / bframes=0 / weightp=2 / keyint=250 / keyint_min=25 / scenecut=40 / intra_refresh=0 / rc_lookahead=40 / rc=crf / mbtree=1 / crf=20.0 / qcomp=0.60 / qpmin=0 / qpmax=69 / qpstep=4 / ip_ratio=1.40 / aq=1:1.00 :S_3(/} \  
Default : Yes :m{;<LRV  
Forced : No
Audio JvI6+[  
ID : 2 ?h1r6?Sug{  
Format : Vorbis  mRYM,   
Format settings, Floor : 1 5(qc_~p^  
Codec ID : A_VORBIS ?Z{:[.  
Duration : 2h 44mn Y \oz9tf8  
Bit rate mode : Variable ` yXJaTbo  
Bit rate : 128 Kbps E$?:^ausu  
Channel(s) : 2 channels ' Akt5q  
Sampling rate : 48.0 KHz ~4t7Q  
Compression mode : Lossy @x4IxGlUs  
Delay relative to video : -33ms 0DIXd*oj&  
Stream size : 151 MiB (2%) 1|8<!Hx#-  
Writing library : libVorbis (Schaufenugget) (20101101 (Schaufenugget)) v_s(  
Default : Yes kd3vlp  
Forced : No 'A}@XGE:p  
Writing application : Lavc53.42.0
JXa5snh{h  
k:JlC(^h  
ja_.{Zv  
蓝光原盘文件47GB,采用Kirara Encoder以品质20方式压制,分辨率1280x720,音频采用OGG,128Kbps。 / ~\ I  
)>X C_ R  
整个压制和上传过程花了不少时间和心血,有兴趣的可以看看(我知道几乎没人感冒)。囧。 ; wpX  
~s[St0  
PS:从09年,SUPER JUNIOR的一神曲《Sorry Sorry》发表后,LZ开始关注和慢慢去了解这个韩国组合,直到现在,处于“半歌迷”状态,就是买过CD,收过视频,买票看过一次现场,而已。 u#c3T'E  
F6$QEiDu@  
曲目表(蓝色字体歌曲为电视台播放Cut掉的部分): BnL[C:|  
13X\PO'9  
●Opening ,8vqzI  
●Mr. Simple MBO3y&\S4  
●美人(BONAMANA) F*bmV>Qq  
●SUPER GIRL ,vnHEY&  
--- MC --- ?<l,a!V'6  
●It's You E[Rd= /P6  
●Hero KqE5{ q  
●Sexy, Free & Single giDe  
●Boom Boom $jL{l8x  
●Club No.1 |Zn |?#F  
●So Cold U1Z.#ETnM  
●いのちの歌 \UD:9g"  
●I WANNA DANCE # -0}r  
●BREAK DOWN Y\Z.E ;  
●A-Oh x/UmpJD+  
●Go + Shake It Up! VdVUYp  
●Rockstar q13bV  
●Gray Paper g3} K  
●Daydream i #uc  
--- MC ---
P)>`^wc$  
●アコースティックメドレー(Bittersweet + Someday + Memories) Qh4<HQ<9  
●SUNNY &2~c,] 9C  
●Dancing Out YA";&|V  
--- MC --- +@U}gk;#c  
●Marry U VZ#@7t  
●SORRY, SORRY :`pgdn  
●★BAMBINA★ a2'si}'3  
●Sapphire Blue %yVboA1  
--- MC --- 3M?vK(zG>P  
●So I UBgheu  
●Ending <b5J"i&m  
hC nqe  
1分钟样本试看: @(~ m.p|  
链接: http://pan.baidu.com/s/1c01VoJm 密码: eess v>4kF _N  
-C>q,mDJZ  
此帖售价 1 金钱,已有 8 人购买 [记录] [购买]
购买后,将显示帖子中所有出售内容。
若发现会员采用欺骗的方法获取财富,请立刻举报,我们会对会员处以2-N倍的罚金,严重者封掉ID!
此段为出售的内容,购买后显示
OYj4G ?c  
, :10  
|x Nd^  
WgV'T#*  
W=$cQ(x4Z  
2条评分金钱+10威望+2
Andy 威望 +2 帅气 2014-07-15
Andy 金钱 +10 帅气 2014-07-15
离线耶稣

发帖
7134
金钱
268465
威望
2485
贡献值
1649
交易币
11181
只看该作者 1楼 发表于: 2014-07-15
9.64G 还是有点大。。 <#<4A0:  
#y%bx<A  
]4-lrI1#  

3US}('  
)QEvV:\  
m6tbN/EJZ  
。。(⊙o⊙)…Mr simple &M(=#pq9  

楼主留言:

我也觉得。






离线野生动物

发帖
477
金钱
212
威望
20
贡献值
3
交易币
2
只看该作者 2楼 发表于: 2014-07-15
谢谢楼主分享啦 amq]&.M  
离线callas

发帖
3831
金钱
38606
威望
317
贡献值
245
交易币
4824
只看该作者 3楼 发表于: 2014-07-17
楼主辛苦了,多谢。

杯具7k黨——
網速7k以下均可加入,可隨時交流慘痛的下載經驗
不管是下載下到昏頭,還是上傳上到頭大
歡迎悲慘的MJ資源收藏迷~~~
离线anny9926

发帖
1
金钱
6
威望
1
贡献值
0
交易币
2
只看该作者 4楼 发表于: 2014-08-04
Hope I still can download this.. thanks for sharing dear..
离线yanzi791024

发帖
1
金钱
11
威望
1
贡献值
0
交易币
2
只看该作者 5楼 发表于: 2017-02-23
謝謝樓主的分享!
快速回复
限100 字节
 
上一个 下一个