论坛风格切换切换到宽版
  • 5392阅读
  • 5回复

[音乐视频]蓝光压制:Super Junior.Super Show5 in Tokyo.720p.x264.mkv[9.64G/百度盘] [复制链接]

上一主题 下一主题
在线mjghosts
 

发帖
8233
金钱
208943
威望
9161
贡献值
2712
交易币
4672
只看楼主 倒序阅读 楼主  发表于: 2014-07-15
— 本帖被 mjghosts 执行加亮操作(2014-07-15) —
a^[io1}-  
7M;Y#=sR  
m$LZ3=v%8  
nj7Ri=lyS  
/4~RlXf@  
General 3'/wRKl  
Unique ID : 214460346781946432818492794470347915666 (0xA1578F74BE2130128B2C65C97DE54192) H50nR$$<*Y  
Complete name : E:\SUPER JUNIOR.SUPER SHOW 5 IN JAPAN.TOKYO DOME.Blu-Ray.720p.x264-KpM.mkv cQ+, F2  
Format : Matroska m9e$ZZG$  
Format version : Version 2 n,HWVo>([  
File size : 9.65 GiB \pPq ]k  
Duration : 2h 44mn wK\SeX  
Overall bit rate mode : Variable w^p2XlQ<  
Overall bit rate : 8 378 Kbps 5 + Jy  
Encoded date : UTC 2014-07-04 23:47:39 rU~"A  
Writing application : mkvmerge v5.5.0 ('Healer') built on Apr 6 2012 21:43:24 c`jTdVD  
Writing library : Kirara Encoder
Video &a(w0<  
ID : 1 1%:A9%O)t  
Format : AVC M1>a,va8Zq  
Format/Info : Advanced Video Codec |JDJ{;o  
Format profile : High@L4.1 tsa6: D  
Format settings, CABAC : Yes }v!6BU6<Q  
Format settings, ReFrames : 4 frames 3k(?`4JJ  
Muxing mode : Header stripping 4CCux4)N  
Codec ID : V_MPEG4/ISO/AVC (l,o UBRr  
Duration : 2h 44mn c%dy$mkqgK  
Bit rate : 8 083 Kbps ig,|3(  
Width : 1 280 pixels #+G2ZJxL|  
Height : 720 pixels f#t^<`7  
Display aspect ratio : 16:9 Z^l!y5s/H  
Frame rate mode : Constant H-W) Tq_?-  
Frame rate : 29.970 fps $yAfs3/%)s  
Color space : YUV k ))*z FV  
Chroma subsampling : 4:2:0 qrc/Q;$  
Bit depth : 8 bits zTB9GrU  
Scan type : Progressive ArYF\7P  
Bits/(Pixel*Frame) : 0.293 HqBPY[;s  
Stream size : 9.31 GiB (96%) <h=M Rw,l  
Writing library : x264 core 120 MF}Lv1/[-J  
Encoding settings : cabac=1 / ref=4 / deblock=1:0:0 / analyse=0x3:0x113 / me=hex / subme=7 / psy=1 / psy_rd=1.00:0.00 / mixed_ref=1 / me_range=16 / chroma_me=1 / trellis=0 / 8x8dct=1 / cqm=0 / deadzone=21,11 / fast_pskip=1 / chroma_qp_offset=-2 / threads=3 / sliced_threads=0 / nr=0 / decimate=1 / interlaced=0 / bluray_compat=0 / constrained_intra=0 / bframes=0 / weightp=2 / keyint=250 / keyint_min=25 / scenecut=40 / intra_refresh=0 / rc_lookahead=40 / rc=crf / mbtree=1 / crf=20.0 / qcomp=0.60 / qpmin=0 / qpmax=69 / qpstep=4 / ip_ratio=1.40 / aq=1:1.00 AFTed?(  
Default : Yes #ya|{K  
Forced : No
Audio ;/ KF3 %  
ID : 2 \)ZX4rs{8  
Format : Vorbis o%PoSZZ  
Format settings, Floor : 1 Y0O<]2yVx  
Codec ID : A_VORBIS dG>Wu o  
Duration : 2h 44mn `AHNk7 t=  
Bit rate mode : Variable @-@rG>y^:  
Bit rate : 128 Kbps u|>U`[Zpj  
Channel(s) : 2 channels 5uJP) S?  
Sampling rate : 48.0 KHz pD_eo6xX  
Compression mode : Lossy lPQ Ut!xI  
Delay relative to video : -33ms xKLcd+hCZ  
Stream size : 151 MiB (2%) b, **$  
Writing library : libVorbis (Schaufenugget) (20101101 (Schaufenugget)) -KJ!  
Default : Yes F;&f x(  
Forced : No ))69a  
Writing application : Lavc53.42.0
)>X|o$2  
Q~Sv2  
am'p^Z @  
蓝光原盘文件47GB,采用Kirara Encoder以品质20方式压制,分辨率1280x720,音频采用OGG,128Kbps。 <.7I8B7  
>]XaUQ-  
整个压制和上传过程花了不少时间和心血,有兴趣的可以看看(我知道几乎没人感冒)。囧。 $6&GAJe  
kG;eOp16R  
PS:从09年,SUPER JUNIOR的一神曲《Sorry Sorry》发表后,LZ开始关注和慢慢去了解这个韩国组合,直到现在,处于“半歌迷”状态,就是买过CD,收过视频,买票看过一次现场,而已。 o~.o^0Y  
w1"gl0ga$  
曲目表(蓝色字体歌曲为电视台播放Cut掉的部分): T?]kF-   
spSN6 .j  
●Opening :9x084ESR)  
●Mr. Simple 74}eF)(me  
●美人(BONAMANA) V$Xl^#tN  
●SUPER GIRL vU8FHVytV  
--- MC --- 7$1fy0f[l  
●It's You L)R[)$2(g  
●Hero A'~%_}  
●Sexy, Free & Single _\4`  
●Boom Boom T<TcV9vM  
●Club No.1 S/nj5Lh  
●So Cold 68koQgI[^  
●いのちの歌 {uaZ<4N.  
●I WANNA DANCE @)W(q5)}9"  
●BREAK DOWN E ;BPN  
●A-Oh P+)qE6\  
●Go + Shake It Up! KGV.S  
●Rockstar j[ J 5y#  
●Gray Paper up\oWR:  
●Daydream :a_BD  
--- MC ---
[##`U m  
●アコースティックメドレー(Bittersweet + Someday + Memories) uije#cj#O  
●SUNNY 0U$:>bQ  
●Dancing Out ?Bo?JMV  
--- MC --- ze`1fO|%  
●Marry U H2_/,n  
●SORRY, SORRY \ht ?G n  
●★BAMBINA★ >lrhHU  
●Sapphire Blue -<_QF82  
--- MC --- 11@]d ]v ,  
●So I -."kq.m*  
●Ending #%:c0=  
(89Ji'dc  
1分钟样本试看: "+)K |9T#  
链接: http://pan.baidu.com/s/1c01VoJm 密码: eess `\bT'~P  
`1Zhq+s  
此帖售价 1 金钱,已有 8 人购买 [记录] [购买]
购买后,将显示帖子中所有出售内容。
若发现会员采用欺骗的方法获取财富,请立刻举报,我们会对会员处以2-N倍的罚金,严重者封掉ID!
此段为出售的内容,购买后显示
Mo D?2J  
%d1draL  
1svi8wh  
<xo-Fv  
`pL^}_>|GM  
2条评分金钱+10威望+2
Andy 威望 +2 帅气 2014-07-15
Andy 金钱 +10 帅气 2014-07-15
在线耶稣

发帖
6593
金钱
202455
威望
2125
贡献值
1384
交易币
10019
只看该作者 1楼 发表于: 2014-07-15
9.64G 还是有点大。。 YOmM=X+'H  
Lo N< oj5  
=*c7i]@}  

ORJIo  
?En O"T.  
>\P@^ h]  
。。(⊙o⊙)…Mr simple L>aLqQ3  

楼主留言:

我也觉得。



离线野生动物

发帖
477
金钱
212
威望
20
贡献值
3
交易币
2
只看该作者 2楼 发表于: 2014-07-15
谢谢楼主分享啦 QdH\LL^8R4  
离线callas

发帖
3830
金钱
38601
威望
317
贡献值
245
交易币
4823
只看该作者 3楼 发表于: 2014-07-17
楼主辛苦了,多谢。

杯具7k黨——
網速7k以下均可加入,可隨時交流慘痛的下載經驗
不管是下載下到昏頭,還是上傳上到頭大
歡迎悲慘的MJ資源收藏迷~~~
离线anny9926

发帖
1
金钱
6
威望
1
贡献值
0
交易币
2
只看该作者 4楼 发表于: 2014-08-04
Hope I still can download this.. thanks for sharing dear..
离线yanzi791024

发帖
1
金钱
11
威望
1
贡献值
0
交易币
2
只看该作者 5楼 发表于: 02-23
謝謝樓主的分享!
快速回复
限100 字节
 
上一个 下一个