论坛风格切换切换到宽版
  • 5239阅读
  • 5回复

[音乐视频]蓝光压制:Super Junior.Super Show5 in Tokyo.720p.x264.mkv[9.64G/百度盘] [复制链接]

上一主题 下一主题
离线mjghosts
 

发帖
8193
金钱
205205
威望
9035
贡献值
2641
交易币
4552
只看楼主 倒序阅读 楼主  发表于: 2014-07-15
— 本帖被 mjghosts 执行加亮操作(2014-07-15) —
,_(AiQK  
K-CF5i:  
,=@%XMS  
}[gk9uM_7  
U'(@?]2 <G  
General BQ7p<{G  
Unique ID : 214460346781946432818492794470347915666 (0xA1578F74BE2130128B2C65C97DE54192) fT.GYvt`  
Complete name : E:\SUPER JUNIOR.SUPER SHOW 5 IN JAPAN.TOKYO DOME.Blu-Ray.720p.x264-KpM.mkv p2/Pj)2  
Format : Matroska GZwz4=`  
Format version : Version 2 o'SZ sG  
File size : 9.65 GiB @z-%:J/$  
Duration : 2h 44mn e: aa  
Overall bit rate mode : Variable G (o9*m1  
Overall bit rate : 8 378 Kbps r$ 8 ^K\oF  
Encoded date : UTC 2014-07-04 23:47:39 ym =7EY?o  
Writing application : mkvmerge v5.5.0 ('Healer') built on Apr 6 2012 21:43:24 Ey#7L M)  
Writing library : Kirara Encoder
Video %A^V@0K3  
ID : 1 zvgy$]y'\  
Format : AVC s9)U",  
Format/Info : Advanced Video Codec O8Dav^\y?  
Format profile : High@L4.1 3Hd~mfO\  
Format settings, CABAC : Yes ls*bCe  
Format settings, ReFrames : 4 frames o<8('j   
Muxing mode : Header stripping * ",/7(  
Codec ID : V_MPEG4/ISO/AVC (& UQ^  
Duration : 2h 44mn (E{}iq@2  
Bit rate : 8 083 Kbps qbsmB8rh  
Width : 1 280 pixels :2zga=)g  
Height : 720 pixels tg%#W `  
Display aspect ratio : 16:9 qC x|}5:  
Frame rate mode : Constant 6|G&d>G$_  
Frame rate : 29.970 fps xk*&zAt  
Color space : YUV 77b^d9! ~  
Chroma subsampling : 4:2:0 I?&/J4o:  
Bit depth : 8 bits }NJKkj?  
Scan type : Progressive QJ,[K _  
Bits/(Pixel*Frame) : 0.293 YWFq&II|Z  
Stream size : 9.31 GiB (96%) VtN1 [}  
Writing library : x264 core 120 { )-8P  
Encoding settings : cabac=1 / ref=4 / deblock=1:0:0 / analyse=0x3:0x113 / me=hex / subme=7 / psy=1 / psy_rd=1.00:0.00 / mixed_ref=1 / me_range=16 / chroma_me=1 / trellis=0 / 8x8dct=1 / cqm=0 / deadzone=21,11 / fast_pskip=1 / chroma_qp_offset=-2 / threads=3 / sliced_threads=0 / nr=0 / decimate=1 / interlaced=0 / bluray_compat=0 / constrained_intra=0 / bframes=0 / weightp=2 / keyint=250 / keyint_min=25 / scenecut=40 / intra_refresh=0 / rc_lookahead=40 / rc=crf / mbtree=1 / crf=20.0 / qcomp=0.60 / qpmin=0 / qpmax=69 / qpstep=4 / ip_ratio=1.40 / aq=1:1.00 +6`+Q2qi  
Default : Yes  mPL0s  
Forced : No
Audio lsaA    
ID : 2 lz7?Z  
Format : Vorbis %b[>eIJU#  
Format settings, Floor : 1 nSv@FT'~z  
Codec ID : A_VORBIS s(Bcw`'#  
Duration : 2h 44mn 4iI4+  
Bit rate mode : Variable 8<)ZpB,7  
Bit rate : 128 Kbps .He}f,!f<  
Channel(s) : 2 channels ~].?8C.>*  
Sampling rate : 48.0 KHz 5%%e$o+  
Compression mode : Lossy W#P`Y< u$  
Delay relative to video : -33ms ]9N&I/-  
Stream size : 151 MiB (2%) bp!Jjct  
Writing library : libVorbis (Schaufenugget) (20101101 (Schaufenugget)) M#_|WL~  
Default : Yes dEZUK vo  
Forced : No ^) (-7H  
Writing application : Lavc53.42.0
.P <3+  
k8?G%/TD  
9=mc3m:Tb(  
蓝光原盘文件47GB,采用Kirara Encoder以品质20方式压制,分辨率1280x720,音频采用OGG,128Kbps。 A;<wv>T  
31~nay15  
整个压制和上传过程花了不少时间和心血,有兴趣的可以看看(我知道几乎没人感冒)。囧。 pM^ZC  
j4<K0-?  
PS:从09年,SUPER JUNIOR的一神曲《Sorry Sorry》发表后,LZ开始关注和慢慢去了解这个韩国组合,直到现在,处于“半歌迷”状态,就是买过CD,收过视频,买票看过一次现场,而已。 Mj{w/'  
Sx[ eX,q  
曲目表(蓝色字体歌曲为电视台播放Cut掉的部分): <.mH-Y5i  
R_O=WmD  
●Opening f S[-K?K  
●Mr. Simple vK%*5  
●美人(BONAMANA) lYTQg~aPm  
●SUPER GIRL \{}dn,?Fv  
--- MC --- pCDN9*0/  
●It's You @0 'U p  
●Hero 9b/Dswxjx  
●Sexy, Free & Single Q6W![571;  
●Boom Boom {#ynN`tLyF  
●Club No.1 2j: 0!%  
●So Cold |mP};&b  
●いのちの歌 V^,eW!  
●I WANNA DANCE +U1 Ir5Lx  
●BREAK DOWN jM&di  
●A-Oh Lo~ ;pvv  
●Go + Shake It Up! K Ax=C}9  
●Rockstar >v%js!`f  
●Gray Paper  kDE-GX"Y  
●Daydream JwB'B  
--- MC ---
$'%GB $.  
●アコースティックメドレー(Bittersweet + Someday + Memories) ov,|`FdU^T  
●SUNNY |)+ SG>-  
●Dancing Out Y@`uBB[  
--- MC --- ly-(F2  
●Marry U 9H/>M4RT  
●SORRY, SORRY V2ih/mh   
●★BAMBINA★ a$ "nNmD?  
●Sapphire Blue '< U&8?S  
--- MC --- ;NR|Hi]  
●So I *qwN9b/!  
●Ending cry1gnWG  
>[AmIYg  
1分钟样本试看: .`}TND~  
链接: http://pan.baidu.com/s/1c01VoJm 密码: eess `*3A7y  
2ZY$/  
此帖售价 1 金钱,已有 8 人购买 [记录] [购买]
购买后,将显示帖子中所有出售内容。
若发现会员采用欺骗的方法获取财富,请立刻举报,我们会对会员处以2-N倍的罚金,严重者封掉ID!
此段为出售的内容,购买后显示
n@8Y6+7i  
b^VRpv  
8f9wUPr  
y#j7vO  
[UA*We 1  
2条评分金钱+10威望+2
Andy 威望 +2 帅气 2014-07-15
Andy 金钱 +10 帅气 2014-07-15
离线耶稣

发帖
6478
金钱
187180
威望
1842
贡献值
1208
交易币
9692
只看该作者 1楼 发表于: 2014-07-15
9.64G 还是有点大。。 g1XpERsSEV  
qW3XA$g|j'  
Zp/P/97p  

&#C|  
2L<1]:I  
{dh@|BzsbH  
。。(⊙o⊙)…Mr simple oVl:g:K40  

楼主留言:

我也觉得。




离线野生动物

发帖
477
金钱
212
威望
20
贡献值
3
交易币
2
只看该作者 2楼 发表于: 2014-07-15
谢谢楼主分享啦 nr>Yj?la  
离线callas

发帖
3830
金钱
38601
威望
317
贡献值
245
交易币
4823
只看该作者 3楼 发表于: 2014-07-17
楼主辛苦了,多谢。

杯具7k黨——
網速7k以下均可加入,可隨時交流慘痛的下載經驗
不管是下載下到昏頭,還是上傳上到頭大
歡迎悲慘的MJ資源收藏迷~~~
离线anny9926

发帖
1
金钱
6
威望
1
贡献值
0
交易币
2
只看该作者 4楼 发表于: 2014-08-04
Hope I still can download this.. thanks for sharing dear..
离线yanzi791024

发帖
1
金钱
11
威望
1
贡献值
0
交易币
2
只看该作者 5楼 发表于: 02-23
謝謝樓主的分享!
快速回复
限100 字节
 
上一个 下一个