论坛风格切换切换到宽版
  • 5168阅读
  • 5回复

[音乐视频]蓝光压制:Super Junior.Super Show5 in Tokyo.720p.x264.mkv[9.64G/百度盘] [复制链接]

上一主题 下一主题
在线mjghosts
 

发帖
8191
金钱
204337
威望
9035
贡献值
2641
交易币
4550
只看楼主 倒序阅读 楼主  发表于: 2014-07-15
— 本帖被 mjghosts 执行加亮操作(2014-07-15) —
=-;J2Qlg6  
@(any ^QJ  
sW0<f& 3  
L)3JTNiB  
}o7"2h ht  
General /EV _Y|(-  
Unique ID : 214460346781946432818492794470347915666 (0xA1578F74BE2130128B2C65C97DE54192) frUO+  
Complete name : E:\SUPER JUNIOR.SUPER SHOW 5 IN JAPAN.TOKYO DOME.Blu-Ray.720p.x264-KpM.mkv #_'| TT>p#  
Format : Matroska qx`)M3Mu|<  
Format version : Version 2 AZfW  
File size : 9.65 GiB l g*eSx>M  
Duration : 2h 44mn N.?)s.D(  
Overall bit rate mode : Variable e#s-MK-Q  
Overall bit rate : 8 378 Kbps 'L8B"5|>  
Encoded date : UTC 2014-07-04 23:47:39 &nfGRb  
Writing application : mkvmerge v5.5.0 ('Healer') built on Apr 6 2012 21:43:24 X*e<g=  
Writing library : Kirara Encoder
Video e<r}{=1w  
ID : 1 Q3 yW#eD  
Format : AVC tl^![Z  
Format/Info : Advanced Video Codec X% X &<  
Format profile : High@L4.1 i]}`e>fF  
Format settings, CABAC : Yes G$-[(eu -  
Format settings, ReFrames : 4 frames ' ;3#t(J;  
Muxing mode : Header stripping L<Q>:U.@\  
Codec ID : V_MPEG4/ISO/AVC TcOmBKps'  
Duration : 2h 44mn UzT"Rb:e  
Bit rate : 8 083 Kbps %IK[d#HO  
Width : 1 280 pixels 3h`_Qv%g  
Height : 720 pixels => X"  
Display aspect ratio : 16:9 cc{^0JT  
Frame rate mode : Constant kR65{h"gZT  
Frame rate : 29.970 fps wAF<_NG#  
Color space : YUV Y|~+bKa  
Chroma subsampling : 4:2:0 .A apO}{  
Bit depth : 8 bits pFcCe 'd"  
Scan type : Progressive mY&(&'2T"  
Bits/(Pixel*Frame) : 0.293 6D/K=-   
Stream size : 9.31 GiB (96%) m#`1.5%  
Writing library : x264 core 120 !U4<4<+  
Encoding settings : cabac=1 / ref=4 / deblock=1:0:0 / analyse=0x3:0x113 / me=hex / subme=7 / psy=1 / psy_rd=1.00:0.00 / mixed_ref=1 / me_range=16 / chroma_me=1 / trellis=0 / 8x8dct=1 / cqm=0 / deadzone=21,11 / fast_pskip=1 / chroma_qp_offset=-2 / threads=3 / sliced_threads=0 / nr=0 / decimate=1 / interlaced=0 / bluray_compat=0 / constrained_intra=0 / bframes=0 / weightp=2 / keyint=250 / keyint_min=25 / scenecut=40 / intra_refresh=0 / rc_lookahead=40 / rc=crf / mbtree=1 / crf=20.0 / qcomp=0.60 / qpmin=0 / qpmax=69 / qpstep=4 / ip_ratio=1.40 / aq=1:1.00 AI#.G7'O  
Default : Yes jW;g{5X  
Forced : No
Audio )<[)7`  
ID : 2 %![3?|8~  
Format : Vorbis b E6bx6=u  
Format settings, Floor : 1  P@FE3g  
Codec ID : A_VORBIS tA{h x -  
Duration : 2h 44mn &n~v;M  
Bit rate mode : Variable  B6.9hf  
Bit rate : 128 Kbps KZGy&u >`  
Channel(s) : 2 channels _*fOn@Vwo  
Sampling rate : 48.0 KHz @G^m+-  
Compression mode : Lossy /@Ec[4^=!.  
Delay relative to video : -33ms 3GPGwzX |  
Stream size : 151 MiB (2%) z -uW,  
Writing library : libVorbis (Schaufenugget) (20101101 (Schaufenugget)) MJ<jF(_=  
Default : Yes *AJYSa,z  
Forced : No 2:G/Oj h&]  
Writing application : Lavc53.42.0
/~3kkM(Ty  
47!k!cHa  
tL]T_]z  
蓝光原盘文件47GB,采用Kirara Encoder以品质20方式压制,分辨率1280x720,音频采用OGG,128Kbps。 z!aU85y  
+g&M@8XO&  
整个压制和上传过程花了不少时间和心血,有兴趣的可以看看(我知道几乎没人感冒)。囧。 _*++xF1  
t6Nkv;)>@  
PS:从09年,SUPER JUNIOR的一神曲《Sorry Sorry》发表后,LZ开始关注和慢慢去了解这个韩国组合,直到现在,处于“半歌迷”状态,就是买过CD,收过视频,买票看过一次现场,而已。 .4[M7)  
x9\]C' *sO  
曲目表(蓝色字体歌曲为电视台播放Cut掉的部分): FD/=uIXH2  
IlZ$Jd  
●Opening " TC:O^X  
●Mr. Simple 7)*q@  
●美人(BONAMANA) X3m)  
●SUPER GIRL xM?tdQ~VHY  
--- MC --- t8.^YTI  
●It's You ak\[+wQ  
●Hero 7{p6&xXx  
●Sexy, Free & Single g`dAj4B  
●Boom Boom bMGXx>x  
●Club No.1 q +!i6!6r  
●So Cold BBa!l e9P  
●いのちの歌 ")9jt^  
●I WANNA DANCE  ?%*p!m  
●BREAK DOWN 7*>,BhF#  
●A-Oh 03gYl0B  
●Go + Shake It Up! A().1h1_k  
●Rockstar [JKLlR  
●Gray Paper 7n7UL0Oc1  
●Daydream e17]{6y  
--- MC ---
D!mx&O9  
●アコースティックメドレー(Bittersweet + Someday + Memories) \7G.anY  
●SUNNY E.G]T#wt0  
●Dancing Out ;)z+dd#3  
--- MC --- p21li}Iu  
●Marry U QObHW[:F  
●SORRY, SORRY 6S^JmYq  
●★BAMBINA★ aX? tnDv  
●Sapphire Blue JG@Zb}b  
--- MC --- "Fz1:VV&  
●So I VyWzb  
●Ending ,,;vG6^a  
=nv/ r  
1分钟样本试看: 8zQN[[#n  
链接: http://pan.baidu.com/s/1c01VoJm 密码: eess \ lK `  
]>[ 0DX]j  
此帖售价 1 金钱,已有 8 人购买 [记录] [购买]
购买后,将显示帖子中所有出售内容。
若发现会员采用欺骗的方法获取财富,请立刻举报,我们会对会员处以2-N倍的罚金,严重者封掉ID!
此段为出售的内容,购买后显示
,%U\@*6=  
l_pf9 !z  
WTu!/J<\  
w!OYH1ds]_  
Dlz1"|SF  
2条评分金钱+10威望+2
Andy 威望 +2 帅气 2014-07-15
Andy 金钱 +10 帅气 2014-07-15
在线耶稣

发帖
6457
金钱
181056
威望
1800
贡献值
1197
交易币
9627
只看该作者 1楼 发表于: 2014-07-15
9.64G 还是有点大。。 6_K7!?YG7  
#$l:%  
*77Y$X##k  

~.z82m  
>u]9(o7I  
IA$=  
。。(⊙o⊙)…Mr simple `rV -,-r@  

楼主留言:

我也觉得。




离线野生动物

发帖
477
金钱
212
威望
20
贡献值
3
交易币
2
只看该作者 2楼 发表于: 2014-07-15
谢谢楼主分享啦 . HAFKB;  
离线callas

发帖
3829
金钱
38596
威望
317
贡献值
245
交易币
4822
只看该作者 3楼 发表于: 2014-07-17
楼主辛苦了,多谢。

杯具7k黨——
網速7k以下均可加入,可隨時交流慘痛的下載經驗
不管是下載下到昏頭,還是上傳上到頭大
歡迎悲慘的MJ資源收藏迷~~~
离线anny9926

发帖
1
金钱
6
威望
1
贡献值
0
交易币
2
只看该作者 4楼 发表于: 2014-08-04
Hope I still can download this.. thanks for sharing dear..
离线yanzi791024

发帖
1
金钱
11
威望
1
贡献值
0
交易币
2
只看该作者 5楼 发表于: 02-23
謝謝樓主的分享!
快速回复
限100 字节
 
上一个 下一个