论坛风格切换切换到宽版
  • 5918阅读
  • 5回复

[音乐视频]蓝光压制:Super Junior.Super Show5 in Tokyo.720p.x264.mkv[9.64G/百度盘] [复制链接]

上一主题 下一主题
离线mjghosts
 

发帖
8244
金钱
217720
威望
9174
贡献值
2723
交易币
4755
只看楼主 倒序阅读 楼主  发表于: 2014-07-15
— 本帖被 mjghosts 执行加亮操作(2014-07-15) —
%GS(:]{n  
m-*hygkcDu  
9B7^lR  
ptZ <ow&  
F 70R1OYU  
General [S>2ASj  
Unique ID : 214460346781946432818492794470347915666 (0xA1578F74BE2130128B2C65C97DE54192) u;/ Vyu  
Complete name : E:\SUPER JUNIOR.SUPER SHOW 5 IN JAPAN.TOKYO DOME.Blu-Ray.720p.x264-KpM.mkv /Y7<5!cS  
Format : Matroska 8Y7Q+p|O  
Format version : Version 2 \S! e![L/  
File size : 9.65 GiB +N:o-9  
Duration : 2h 44mn f m)pulz  
Overall bit rate mode : Variable r'HtZo$^R  
Overall bit rate : 8 378 Kbps P;ci9vk  
Encoded date : UTC 2014-07-04 23:47:39 dE4L=sTEsy  
Writing application : mkvmerge v5.5.0 ('Healer') built on Apr 6 2012 21:43:24 <YhB8W9 P  
Writing library : Kirara Encoder
Video 5BlR1*  
ID : 1 AK*LyR?  
Format : AVC !y@NAa0  
Format/Info : Advanced Video Codec ?"i}^B`*  
Format profile : High@L4.1 d9;g]uj`  
Format settings, CABAC : Yes r0+6evU2  
Format settings, ReFrames : 4 frames ~M7y*'oY  
Muxing mode : Header stripping i]6`LqlO  
Codec ID : V_MPEG4/ISO/AVC AP7Yuv`  
Duration : 2h 44mn {B?Wu3-  
Bit rate : 8 083 Kbps G MX?  
Width : 1 280 pixels T|7}EAR=b  
Height : 720 pixels a!< 8\vzg  
Display aspect ratio : 16:9 3=FZ9>by  
Frame rate mode : Constant s:#V(<J  
Frame rate : 29.970 fps s:/8[(A  
Color space : YUV ![YX]+jqNp  
Chroma subsampling : 4:2:0 Rs-]N1V  
Bit depth : 8 bits Z&1T  
Scan type : Progressive i'H/ZwU  
Bits/(Pixel*Frame) : 0.293 s>;v!^N?u  
Stream size : 9.31 GiB (96%) E^ P,*s  
Writing library : x264 core 120 ZHU5SXu  
Encoding settings : cabac=1 / ref=4 / deblock=1:0:0 / analyse=0x3:0x113 / me=hex / subme=7 / psy=1 / psy_rd=1.00:0.00 / mixed_ref=1 / me_range=16 / chroma_me=1 / trellis=0 / 8x8dct=1 / cqm=0 / deadzone=21,11 / fast_pskip=1 / chroma_qp_offset=-2 / threads=3 / sliced_threads=0 / nr=0 / decimate=1 / interlaced=0 / bluray_compat=0 / constrained_intra=0 / bframes=0 / weightp=2 / keyint=250 / keyint_min=25 / scenecut=40 / intra_refresh=0 / rc_lookahead=40 / rc=crf / mbtree=1 / crf=20.0 / qcomp=0.60 / qpmin=0 / qpmax=69 / qpstep=4 / ip_ratio=1.40 / aq=1:1.00 >XY`*J^  
Default : Yes GN ]cDik  
Forced : No
Audio .z)%)PVV  
ID : 2 oFy=-p+C  
Format : Vorbis J)`-+}7$v  
Format settings, Floor : 1 8Eakif0CO  
Codec ID : A_VORBIS [`^a=:*  
Duration : 2h 44mn R_sr?V|"  
Bit rate mode : Variable 7on.4/;M  
Bit rate : 128 Kbps 3 ):A   
Channel(s) : 2 channels *^f<W6xc  
Sampling rate : 48.0 KHz >sK!F$  
Compression mode : Lossy 9\/xOwR  
Delay relative to video : -33ms TNGU6j}oq  
Stream size : 151 MiB (2%) XzIl`eH  
Writing library : libVorbis (Schaufenugget) (20101101 (Schaufenugget)) r7b1-  
Default : Yes 8=gjY\Dp  
Forced : No 8xccp4  
Writing application : Lavc53.42.0
Kjs.L!W  
R,pX:H&#+  
a{ ?`t|  
蓝光原盘文件47GB,采用Kirara Encoder以品质20方式压制,分辨率1280x720,音频采用OGG,128Kbps。 :'~ Y  
%<an9WMF  
整个压制和上传过程花了不少时间和心血,有兴趣的可以看看(我知道几乎没人感冒)。囧。 4KH45|; 3  
BV>\ McI+  
PS:从09年,SUPER JUNIOR的一神曲《Sorry Sorry》发表后,LZ开始关注和慢慢去了解这个韩国组合,直到现在,处于“半歌迷”状态,就是买过CD,收过视频,买票看过一次现场,而已。 ReM=eS  
G|( ]bvJ?  
曲目表(蓝色字体歌曲为电视台播放Cut掉的部分): N1|$$9G+  
!!`!|w  
●Opening *g[^.Sg  
●Mr. Simple -eN\ !  
●美人(BONAMANA) hNd}Y'%V  
●SUPER GIRL Hrzf'a|^  
--- MC --- L30$%G|  
●It's You ea~:}!-P  
●Hero 6+KHQFb&N  
●Sexy, Free & Single ,$ ^C4I  
●Boom Boom y(=#WlK }  
●Club No.1 nE^Qy=iE  
●So Cold %bD}m!  
●いのちの歌 zWb4([P;  
●I WANNA DANCE yH<$k^0r*  
●BREAK DOWN ph#tgLJ  
●A-Oh h#hxOVl%x  
●Go + Shake It Up! 03iv3/{H  
●Rockstar s-7RW  
●Gray Paper @YH+c G|  
●Daydream N7s'6(`=X  
--- MC ---
c0Dmq)HK?  
●アコースティックメドレー(Bittersweet + Someday + Memories) `:eViVl6e  
●SUNNY Y= 7%+WyD  
●Dancing Out 6st^4S5  
--- MC --- G^(}a]>9  
●Marry U xc?}TPpt  
●SORRY, SORRY ~^vC,]hU  
●★BAMBINA★ LihjGkj\g  
●Sapphire Blue s~},y]YV  
--- MC --- T[Pa/j{  
●So I l oqvi  
●Ending !ax;5@J  
eSl-9 ^  
1分钟样本试看: |t\|:E>" }  
链接: http://pan.baidu.com/s/1c01VoJm 密码: eess  d^39t4  
t ,qul4y}  
此帖售价 1 金钱,已有 8 人购买 [记录] [购买]
购买后,将显示帖子中所有出售内容。
若发现会员采用欺骗的方法获取财富,请立刻举报,我们会对会员处以2-N倍的罚金,严重者封掉ID!
此段为出售的内容,购买后显示
b?kPN:U#N/  
~HP LV  
&]nd!N  
#t5juX9Ho9  
?;8M^a/  
2条评分金钱+10威望+2
Andy 威望 +2 帅气 2014-07-15
Andy 金钱 +10 帅气 2014-07-15
离线耶稣

发帖
7147
金钱
272129
威望
2491
贡献值
1655
交易币
11218
只看该作者 1楼 发表于: 2014-07-15
9.64G 还是有点大。。 !zeBxR$&o  
ezL*YM8?@  
W[b/.u5z:  

iS{)Tll}&  
Lbd_L  
371E S4  
。。(⊙o⊙)…Mr simple Drg'RR><  

楼主留言:

我也觉得。





离线野生动物

发帖
477
金钱
212
威望
20
贡献值
3
交易币
2
只看该作者 2楼 发表于: 2014-07-15
谢谢楼主分享啦 90M:0SH  
离线callas

发帖
3833
金钱
38616
威望
317
贡献值
245
交易币
4826
只看该作者 3楼 发表于: 2014-07-17
楼主辛苦了,多谢。

杯具7k黨——
網速7k以下均可加入,可隨時交流慘痛的下載經驗
不管是下載下到昏頭,還是上傳上到頭大
歡迎悲慘的MJ資源收藏迷~~~
离线anny9926

发帖
1
金钱
6
威望
1
贡献值
0
交易币
2
只看该作者 4楼 发表于: 2014-08-04
Hope I still can download this.. thanks for sharing dear..
离线yanzi791024

发帖
1
金钱
11
威望
1
贡献值
0
交易币
2
只看该作者 5楼 发表于: 2017-02-23
謝謝樓主的分享!
快速回复
限100 字节
 
上一个 下一个