论坛风格切换切换到宽版
  • 5578阅读
  • 5回复

[音乐视频]蓝光压制:Super Junior.Super Show5 in Tokyo.720p.x264.mkv[9.64G/百度盘] [复制链接]

上一主题 下一主题
离线mjghosts
 

发帖
8258
金钱
212473
威望
9166
贡献值
2715
交易币
4709
只看楼主 倒序阅读 楼主  发表于: 2014-07-15
— 本帖被 mjghosts 执行加亮操作(2014-07-15) —
ziycyf.d  
I.u,f:Fl'  
]R{"=H'  
iy82QNe  
 y:OywIi(  
General 0:Y`#0qK  
Unique ID : 214460346781946432818492794470347915666 (0xA1578F74BE2130128B2C65C97DE54192) 3Gl]g/  
Complete name : E:\SUPER JUNIOR.SUPER SHOW 5 IN JAPAN.TOKYO DOME.Blu-Ray.720p.x264-KpM.mkv gwaC?tf[  
Format : Matroska ]XG n2U\  
Format version : Version 2 bus=LAJt=  
File size : 9.65 GiB '>|*j"jv-  
Duration : 2h 44mn DVoV:pk  
Overall bit rate mode : Variable DYKV54\ue  
Overall bit rate : 8 378 Kbps Z^`=!n-V  
Encoded date : UTC 2014-07-04 23:47:39 ROt0<^<  
Writing application : mkvmerge v5.5.0 ('Healer') built on Apr 6 2012 21:43:24 K# i*9sM  
Writing library : Kirara Encoder
Video "">fn(  
ID : 1 YV3TxvXMR  
Format : AVC dI ZTLb"a  
Format/Info : Advanced Video Codec 1[/$ZYk:  
Format profile : High@L4.1 [mB(GL  
Format settings, CABAC : Yes 6KCCbg/  
Format settings, ReFrames : 4 frames vBnKu  
Muxing mode : Header stripping  ny  
Codec ID : V_MPEG4/ISO/AVC @RoRNat  
Duration : 2h 44mn /_:T\`5uO  
Bit rate : 8 083 Kbps Pi"~/MGP$  
Width : 1 280 pixels {7K'<ti  
Height : 720 pixels QWz Op\+  
Display aspect ratio : 16:9 /jjW/ lr  
Frame rate mode : Constant _>gXNS r4u  
Frame rate : 29.970 fps )p/=u@8_f  
Color space : YUV (c(-E|u.  
Chroma subsampling : 4:2:0 z)58\rtz  
Bit depth : 8 bits 2YE;m&  
Scan type : Progressive 3~[`[4n^  
Bits/(Pixel*Frame) : 0.293 Z/89&Uy`h  
Stream size : 9.31 GiB (96%) Z&+NmOY4  
Writing library : x264 core 120 _o@(wGeu#  
Encoding settings : cabac=1 / ref=4 / deblock=1:0:0 / analyse=0x3:0x113 / me=hex / subme=7 / psy=1 / psy_rd=1.00:0.00 / mixed_ref=1 / me_range=16 / chroma_me=1 / trellis=0 / 8x8dct=1 / cqm=0 / deadzone=21,11 / fast_pskip=1 / chroma_qp_offset=-2 / threads=3 / sliced_threads=0 / nr=0 / decimate=1 / interlaced=0 / bluray_compat=0 / constrained_intra=0 / bframes=0 / weightp=2 / keyint=250 / keyint_min=25 / scenecut=40 / intra_refresh=0 / rc_lookahead=40 / rc=crf / mbtree=1 / crf=20.0 / qcomp=0.60 / qpmin=0 / qpmax=69 / qpstep=4 / ip_ratio=1.40 / aq=1:1.00 I! h(`  
Default : Yes pP|,7c5  
Forced : No
Audio F^ I\X  
ID : 2 ES^>[2Y  
Format : Vorbis iBG`43;  
Format settings, Floor : 1 bjPka{PBj  
Codec ID : A_VORBIS GE%2/z p  
Duration : 2h 44mn cqeR<len  
Bit rate mode : Variable 6exRS]BI  
Bit rate : 128 Kbps - G8c5b[  
Channel(s) : 2 channels Y.q>EUSH  
Sampling rate : 48.0 KHz N*~_\x  
Compression mode : Lossy 'nMApPl  
Delay relative to video : -33ms 'g]hmE  
Stream size : 151 MiB (2%) :v`o6x8  
Writing library : libVorbis (Schaufenugget) (20101101 (Schaufenugget)) x"vwWJNQ  
Default : Yes )7W6-.d  
Forced : No CD}Ns  
Writing application : Lavc53.42.0
gA_krK ,Z  
Yj3P 7k$c  
eZNitGaU  
蓝光原盘文件47GB,采用Kirara Encoder以品质20方式压制,分辨率1280x720,音频采用OGG,128Kbps。 7IW> >RBF  
0N{+y}/G  
整个压制和上传过程花了不少时间和心血,有兴趣的可以看看(我知道几乎没人感冒)。囧。 @rO4y`  
|) Pi6Y  
PS:从09年,SUPER JUNIOR的一神曲《Sorry Sorry》发表后,LZ开始关注和慢慢去了解这个韩国组合,直到现在,处于“半歌迷”状态,就是买过CD,收过视频,买票看过一次现场,而已。 oEu>}JD  
9cQ_mgch  
曲目表(蓝色字体歌曲为电视台播放Cut掉的部分): Q.k :\m*h  
.#fPw_i  
●Opening (R'+jWH  
●Mr. Simple kq-6HDR  
●美人(BONAMANA) 7 ({=*  
●SUPER GIRL "&lN\&:  
--- MC --- 59*M"1['Q  
●It's You Ht[{ryTxu  
●Hero [f!O6moR6  
●Sexy, Free & Single O8|*M "  
●Boom Boom 4nkE IZ  
●Club No.1 SwH2$:f  
●So Cold w([$@1]  
●いのちの歌 naNyGE7)  
●I WANNA DANCE Zk? =  
●BREAK DOWN A6UO0lyu  
●A-Oh m)&znLA  
●Go + Shake It Up! 4]&<?"LSK  
●Rockstar MZv\ C  
●Gray Paper /8gL.i$  
●Daydream or?%-)  
--- MC ---
cF+ X,]=6  
●アコースティックメドレー(Bittersweet + Someday + Memories) V@ :20m  
●SUNNY CjL<RJR=  
●Dancing Out >PalH24]  
--- MC --- =@r--E  
●Marry U hWEnn=BW  
●SORRY, SORRY \0*l,i1&  
●★BAMBINA★ Dy9\O77>  
●Sapphire Blue *^XbDg9  
--- MC --- grcbH  
●So I /g.]RY+u|x  
●Ending  t@B(+  
KS<Jv;  
1分钟样本试看: =!.m GW-Q}  
链接: http://pan.baidu.com/s/1c01VoJm 密码: eess < K %j  
x0+glQrNN  
此帖售价 1 金钱,已有 8 人购买 [记录] [购买]
购买后,将显示帖子中所有出售内容。
若发现会员采用欺骗的方法获取财富,请立刻举报,我们会对会员处以2-N倍的罚金,严重者封掉ID!
此段为出售的内容,购买后显示
$ |<m9CW  
hu@7?f_"L/  
8A2 z 5Aa  
RUXCq`)"<  
tYe:z:7l?<  
2条评分金钱+10威望+2
Andy 威望 +2 帅气 2014-07-15
Andy 金钱 +10 帅气 2014-07-15
离线耶稣

发帖
7063
金钱
246016
威望
2431
贡献值
1612
交易币
11002
只看该作者 1楼 发表于: 2014-07-15
9.64G 还是有点大。。 ENF@6]  
,OFr]74\  
YVV $g-D}  

^)]*10  
?'_7#0R_0  
':>*=&  
。。(⊙o⊙)…Mr simple <^Nj~+G'  

楼主留言:

我也觉得。





离线野生动物

发帖
477
金钱
212
威望
20
贡献值
3
交易币
2
只看该作者 2楼 发表于: 2014-07-15
谢谢楼主分享啦 pwC/&bu  
离线callas

发帖
3830
金钱
38601
威望
317
贡献值
245
交易币
4823
只看该作者 3楼 发表于: 2014-07-17
楼主辛苦了,多谢。

杯具7k黨——
網速7k以下均可加入,可隨時交流慘痛的下載經驗
不管是下載下到昏頭,還是上傳上到頭大
歡迎悲慘的MJ資源收藏迷~~~
离线anny9926

发帖
1
金钱
6
威望
1
贡献值
0
交易币
2
只看该作者 4楼 发表于: 2014-08-04
Hope I still can download this.. thanks for sharing dear..
离线yanzi791024

发帖
1
金钱
11
威望
1
贡献值
0
交易币
2
只看该作者 5楼 发表于: 02-23
謝謝樓主的分享!
快速回复
限100 字节
 
上一个 下一个