论坛风格切换切换到宽版
  • 5296阅读
  • 5回复

[音乐视频]蓝光压制:Super Junior.Super Show5 in Tokyo.720p.x264.mkv[9.64G/百度盘] [复制链接]

上一主题 下一主题
离线mjghosts
 

发帖
8200
金钱
205598
威望
9039
贡献值
2645
交易币
4575
只看楼主 倒序阅读 楼主  发表于: 2014-07-15
— 本帖被 mjghosts 执行加亮操作(2014-07-15) —
#,sJd^uI  
4'M#m|V  
v|e>zm <  
lWR  
=o {`vv  
General V}("8L  
Unique ID : 214460346781946432818492794470347915666 (0xA1578F74BE2130128B2C65C97DE54192) WJ%b9{<  
Complete name : E:\SUPER JUNIOR.SUPER SHOW 5 IN JAPAN.TOKYO DOME.Blu-Ray.720p.x264-KpM.mkv uzS57 O%  
Format : Matroska E'C[+iK6,  
Format version : Version 2 QRRZMdEGs[  
File size : 9.65 GiB {*: C$"L  
Duration : 2h 44mn v;OA hFr|  
Overall bit rate mode : Variable @+xQj.jNC  
Overall bit rate : 8 378 Kbps @E}4LTB  
Encoded date : UTC 2014-07-04 23:47:39 {P*RA'H3G  
Writing application : mkvmerge v5.5.0 ('Healer') built on Apr 6 2012 21:43:24 H6L`239u  
Writing library : Kirara Encoder
Video lwV#j}G  
ID : 1 V%"aU}   
Format : AVC m~2PpO  
Format/Info : Advanced Video Codec Zb@PwH4  
Format profile : High@L4.1 d}Q;CF3 m:  
Format settings, CABAC : Yes 6L8wsz CW  
Format settings, ReFrames : 4 frames E<0Y;tR  
Muxing mode : Header stripping : x W.(^(d  
Codec ID : V_MPEG4/ISO/AVC '?4B0=  
Duration : 2h 44mn H|5\c=  
Bit rate : 8 083 Kbps 4/cUd=>Z  
Width : 1 280 pixels I~|.Re9a  
Height : 720 pixels q9|'!m5K  
Display aspect ratio : 16:9 "|`euxYV  
Frame rate mode : Constant %d3qMnYu  
Frame rate : 29.970 fps 8(]*J8/wt  
Color space : YUV @p"m{  
Chroma subsampling : 4:2:0 ;<hLy(@  
Bit depth : 8 bits B)*?H=f/  
Scan type : Progressive ozB2L\D7  
Bits/(Pixel*Frame) : 0.293 *MC+i$  
Stream size : 9.31 GiB (96%) cao=O \Y7  
Writing library : x264 core 120 y!eT>4Oyg  
Encoding settings : cabac=1 / ref=4 / deblock=1:0:0 / analyse=0x3:0x113 / me=hex / subme=7 / psy=1 / psy_rd=1.00:0.00 / mixed_ref=1 / me_range=16 / chroma_me=1 / trellis=0 / 8x8dct=1 / cqm=0 / deadzone=21,11 / fast_pskip=1 / chroma_qp_offset=-2 / threads=3 / sliced_threads=0 / nr=0 / decimate=1 / interlaced=0 / bluray_compat=0 / constrained_intra=0 / bframes=0 / weightp=2 / keyint=250 / keyint_min=25 / scenecut=40 / intra_refresh=0 / rc_lookahead=40 / rc=crf / mbtree=1 / crf=20.0 / qcomp=0.60 / qpmin=0 / qpmax=69 / qpstep=4 / ip_ratio=1.40 / aq=1:1.00 %[B^b)2  
Default : Yes Q ?xA))0  
Forced : No
Audio ]sLdz^E3D  
ID : 2 +cWo^d.  
Format : Vorbis #fy3 i+  
Format settings, Floor : 1 cXw8#M!  
Codec ID : A_VORBIS 2:oAS  
Duration : 2h 44mn InA=ty]"_U  
Bit rate mode : Variable d0V*[{  
Bit rate : 128 Kbps 18,;2Sr44  
Channel(s) : 2 channels w"{mDL}c  
Sampling rate : 48.0 KHz !LM9  
Compression mode : Lossy A01PEVd@A  
Delay relative to video : -33ms } _=h]|6t  
Stream size : 151 MiB (2%) KwNOB _  
Writing library : libVorbis (Schaufenugget) (20101101 (Schaufenugget)) <ivq}(%72  
Default : Yes 3S .2  
Forced : No :}-VLp4b  
Writing application : Lavc53.42.0
tIk$4)ZAl  
N6Dv1_c,  
_\<TjGtG  
蓝光原盘文件47GB,采用Kirara Encoder以品质20方式压制,分辨率1280x720,音频采用OGG,128Kbps。 5Y 7 %Z  
ymn@1BA8J  
整个压制和上传过程花了不少时间和心血,有兴趣的可以看看(我知道几乎没人感冒)。囧。 sf O{.#5<  
!$/P8T``M  
PS:从09年,SUPER JUNIOR的一神曲《Sorry Sorry》发表后,LZ开始关注和慢慢去了解这个韩国组合,直到现在,处于“半歌迷”状态,就是买过CD,收过视频,买票看过一次现场,而已。 K#Xl)h}y7  
/8 y v8  
曲目表(蓝色字体歌曲为电视台播放Cut掉的部分): ( G~ME>  
gH.$B'  
●Opening ,&g-DC ag  
●Mr. Simple Vh^ :.y   
●美人(BONAMANA) zcuz @  
●SUPER GIRL W)^%/lAh  
--- MC --- r*ziO#[  
●It's You {].]`#4Jx  
●Hero 8w#4T:hsuN  
●Sexy, Free & Single ERIF#EY  
●Boom Boom wKoar  
●Club No.1 +:Nz_l  
●So Cold i2-]Xl  
●いのちの歌 m8eoD{  
●I WANNA DANCE ?kRx;S+  
●BREAK DOWN Hd TB[(  
●A-Oh [h>A<O  
●Go + Shake It Up! TkIiO>  
●Rockstar p9!jM\(  
●Gray Paper IR&b2FTcU  
●Daydream #iRd2Qj%  
--- MC ---
x]608I T  
●アコースティックメドレー(Bittersweet + Someday + Memories) "|N0oEG&  
●SUNNY \K lY8\c[  
●Dancing Out .eCUvX`$  
--- MC --- W@+ge]9m&  
●Marry U YllW2g:  
●SORRY, SORRY 6I|9@~!y[  
●★BAMBINA★ yb\!4ml  
●Sapphire Blue L9l]0C37e  
--- MC --- _+Uf5,.5yU  
●So I X1Kze  
●Ending S@ItgG?X  
?zYR;r2'b)  
1分钟样本试看: ZCDXy  
链接: http://pan.baidu.com/s/1c01VoJm 密码: eess n,p \~Tu,  
F[X;A\  
此帖售价 1 金钱,已有 8 人购买 [记录] [购买]
购买后,将显示帖子中所有出售内容。
若发现会员采用欺骗的方法获取财富,请立刻举报,我们会对会员处以2-N倍的罚金,严重者封掉ID!
此段为出售的内容,购买后显示
|W SvAM3  
k[1w] l8  
nwJc%0  
wR9gx-bE 4  
QhPpo#^  
2条评分金钱+10威望+2
Andy 威望 +2 帅气 2014-07-15
Andy 金钱 +10 帅气 2014-07-15
离线耶稣

发帖
6501
金钱
193259
威望
1885
贡献值
1224
交易币
9779
只看该作者 1楼 发表于: 2014-07-15
9.64G 还是有点大。。 \G=E%aK  
b "Mq7&cf  
4y1> !~f  

pNqf2CnnT  
PD}R7[".>  
C^%zV>o  
。。(⊙o⊙)…Mr simple -/-6Td1JY>  

楼主留言:

我也觉得。




离线野生动物

发帖
477
金钱
212
威望
20
贡献值
3
交易币
2
只看该作者 2楼 发表于: 2014-07-15
谢谢楼主分享啦 *e<Eu>fW#&  
离线callas

发帖
3830
金钱
38601
威望
317
贡献值
245
交易币
4823
只看该作者 3楼 发表于: 2014-07-17
楼主辛苦了,多谢。

杯具7k黨——
網速7k以下均可加入,可隨時交流慘痛的下載經驗
不管是下載下到昏頭,還是上傳上到頭大
歡迎悲慘的MJ資源收藏迷~~~
离线anny9926

发帖
1
金钱
6
威望
1
贡献值
0
交易币
2
只看该作者 4楼 发表于: 2014-08-04
Hope I still can download this.. thanks for sharing dear..
离线yanzi791024

发帖
1
金钱
11
威望
1
贡献值
0
交易币
2
只看该作者 5楼 发表于: 02-23
謝謝樓主的分享!
快速回复
限100 字节
 
上一个 下一个