论坛风格切换切换到宽版
  • 5480阅读
  • 5回复

[音乐视频]蓝光压制:Super Junior.Super Show5 in Tokyo.720p.x264.mkv[9.64G/百度盘] [复制链接]

上一主题 下一主题
离线mjghosts
 

发帖
8247
金钱
210534
威望
9164
贡献值
2715
交易币
4698
只看楼主 倒序阅读 楼主  发表于: 2014-07-15
— 本帖被 mjghosts 执行加亮操作(2014-07-15) —
v YJ9G"E  
16ZyLt  
q6,z 1A"  
Z]e`bfNnI  
kH5D%`Kw  
General %.m+6 zaF  
Unique ID : 214460346781946432818492794470347915666 (0xA1578F74BE2130128B2C65C97DE54192) 2t4\L3  
Complete name : E:\SUPER JUNIOR.SUPER SHOW 5 IN JAPAN.TOKYO DOME.Blu-Ray.720p.x264-KpM.mkv ^v `naA(  
Format : Matroska <PVwf`W.  
Format version : Version 2 |his8\C+x  
File size : 9.65 GiB lxm/*^  
Duration : 2h 44mn l>MDCqV  
Overall bit rate mode : Variable CxTmW5l  
Overall bit rate : 8 378 Kbps {"+M%%`*#  
Encoded date : UTC 2014-07-04 23:47:39 {nbT$3=Zt  
Writing application : mkvmerge v5.5.0 ('Healer') built on Apr 6 2012 21:43:24 UXlZI'|He  
Writing library : Kirara Encoder
Video X%+lgm+  
ID : 1 v,S5C  
Format : AVC 1vxRhS&FY  
Format/Info : Advanced Video Codec &yvvea]  
Format profile : High@L4.1 ~x^y5[5{  
Format settings, CABAC : Yes VD$5 Djq  
Format settings, ReFrames : 4 frames J(l\VvK  
Muxing mode : Header stripping kU[hB1D5  
Codec ID : V_MPEG4/ISO/AVC lN#j%0MaUo  
Duration : 2h 44mn M bWby'  
Bit rate : 8 083 Kbps t,?, T~#9  
Width : 1 280 pixels ,*J@ic7"  
Height : 720 pixels "pM >TMAE  
Display aspect ratio : 16:9 Byc;r-Q5V  
Frame rate mode : Constant 9wYm(7M6  
Frame rate : 29.970 fps @3.Z>KONx  
Color space : YUV VcrMlcnO  
Chroma subsampling : 4:2:0 {Dpsr` &  
Bit depth : 8 bits h9QM nH'  
Scan type : Progressive I{89chi  
Bits/(Pixel*Frame) : 0.293 ^*}D*=>\  
Stream size : 9.31 GiB (96%) oJTEN}fL  
Writing library : x264 core 120 lwQ!sH[M  
Encoding settings : cabac=1 / ref=4 / deblock=1:0:0 / analyse=0x3:0x113 / me=hex / subme=7 / psy=1 / psy_rd=1.00:0.00 / mixed_ref=1 / me_range=16 / chroma_me=1 / trellis=0 / 8x8dct=1 / cqm=0 / deadzone=21,11 / fast_pskip=1 / chroma_qp_offset=-2 / threads=3 / sliced_threads=0 / nr=0 / decimate=1 / interlaced=0 / bluray_compat=0 / constrained_intra=0 / bframes=0 / weightp=2 / keyint=250 / keyint_min=25 / scenecut=40 / intra_refresh=0 / rc_lookahead=40 / rc=crf / mbtree=1 / crf=20.0 / qcomp=0.60 / qpmin=0 / qpmax=69 / qpstep=4 / ip_ratio=1.40 / aq=1:1.00 v@{y}  
Default : Yes 5;XC!Gz  
Forced : No
Audio "Erphn  
ID : 2 UT@Qo}:  
Format : Vorbis qg j;E=7  
Format settings, Floor : 1 t]sk[  
Codec ID : A_VORBIS ."Pn[$'.  
Duration : 2h 44mn #F/W_G7v  
Bit rate mode : Variable |s#,^SJ0  
Bit rate : 128 Kbps C^?/9\  
Channel(s) : 2 channels )"Ujx`]4r  
Sampling rate : 48.0 KHz $LBgBH &z  
Compression mode : Lossy ^Ux.s Q  
Delay relative to video : -33ms !;t6\Z8&  
Stream size : 151 MiB (2%) M)v='O<H8  
Writing library : libVorbis (Schaufenugget) (20101101 (Schaufenugget)) RdjoVCf  
Default : Yes ( s+}l?  
Forced : No A/Sj>Y1j  
Writing application : Lavc53.42.0
1Si$Q  
Q{ g{  
~A(^<  
蓝光原盘文件47GB,采用Kirara Encoder以品质20方式压制,分辨率1280x720,音频采用OGG,128Kbps。 hBDmC_\~  
WQ{^+C9g'1  
整个压制和上传过程花了不少时间和心血,有兴趣的可以看看(我知道几乎没人感冒)。囧。 !Ks<%; rb  
$GD Q1&Z  
PS:从09年,SUPER JUNIOR的一神曲《Sorry Sorry》发表后,LZ开始关注和慢慢去了解这个韩国组合,直到现在,处于“半歌迷”状态,就是买过CD,收过视频,买票看过一次现场,而已。 Sq`Zuu9t  
c&g*nDuDj  
曲目表(蓝色字体歌曲为电视台播放Cut掉的部分): L7yEgYB  
(ul_bA+  
●Opening > =Na,D  
●Mr. Simple g]?QV2bX6  
●美人(BONAMANA) NC"X{$o2  
●SUPER GIRL 7! /+[G  
--- MC --- (I#3![q  
●It's You T?*f}J  
●Hero !wo  
●Sexy, Free & Single % 3<7HY]~  
●Boom Boom :d|~k  
●Club No.1 8)YDUE%VH  
●So Cold H ;)B5C  
●いのちの歌 7DWGYvv[  
●I WANNA DANCE C/q!!  
●BREAK DOWN *_K*GCy  
●A-Oh [=^Wj`;  
●Go + Shake It Up! f7&9IW`7F^  
●Rockstar HbJ^L:/  
●Gray Paper EKEJ9Y+47H  
●Daydream . Gb!mG  
--- MC ---
eU8p;ajW!L  
●アコースティックメドレー(Bittersweet + Someday + Memories) >+):eB L  
●SUNNY |mcc?*%t8  
●Dancing Out IRTD(7"oyp  
--- MC --- c7RQ7\  
●Marry U BAtjYPX'w  
●SORRY, SORRY ^9kx3Pw?8  
●★BAMBINA★ :aH5=@[!y  
●Sapphire Blue Udq!YXE0  
--- MC --- Ih OAMH1  
●So I g/VV2^,  
●Ending Qxk& J  
@w`wJ*I4,  
1分钟样本试看: (|NCxey  
链接: http://pan.baidu.com/s/1c01VoJm 密码: eess "c|Rpzs[  
w)`XM  
此帖售价 1 金钱,已有 8 人购买 [记录] [购买]
购买后,将显示帖子中所有出售内容。
若发现会员采用欺骗的方法获取财富,请立刻举报,我们会对会员处以2-N倍的罚金,严重者封掉ID!
此段为出售的内容,购买后显示
s^K2,D]P  
gn&Zt}@[  
W"GW[~ h  
mEsb_3?#+  
.Z  67  
2条评分金钱+10威望+2
Andy 威望 +2 帅气 2014-07-15
Andy 金钱 +10 帅气 2014-07-15
离线耶稣

发帖
6834
金钱
227057
威望
2274
贡献值
1485
交易币
10529
只看该作者 1楼 发表于: 2014-07-15
9.64G 还是有点大。。 %A zy#m  
R ]Ev=V'U  
x%dny]O1;  

A-Ba%Fv  
.IW`?9O$E  
` GF w?G  
。。(⊙o⊙)…Mr simple HXq']+iC  

楼主留言:

我也觉得。



离线野生动物

发帖
477
金钱
212
威望
20
贡献值
3
交易币
2
只看该作者 2楼 发表于: 2014-07-15
谢谢楼主分享啦 R*r4)+gd  
离线callas

发帖
3830
金钱
38601
威望
317
贡献值
245
交易币
4823
只看该作者 3楼 发表于: 2014-07-17
楼主辛苦了,多谢。

杯具7k黨——
網速7k以下均可加入,可隨時交流慘痛的下載經驗
不管是下載下到昏頭,還是上傳上到頭大
歡迎悲慘的MJ資源收藏迷~~~
离线anny9926

发帖
1
金钱
6
威望
1
贡献值
0
交易币
2
只看该作者 4楼 发表于: 2014-08-04
Hope I still can download this.. thanks for sharing dear..
离线yanzi791024

发帖
1
金钱
11
威望
1
贡献值
0
交易币
2
只看该作者 5楼 发表于: 02-23
謝謝樓主的分享!
快速回复
限100 字节
 
上一个 下一个