论坛风格切换切换到宽版
  • 5388阅读
  • 5回复

[音乐视频]蓝光压制:Super Junior.Super Show5 in Tokyo.720p.x264.mkv[9.64G/百度盘] [复制链接]

上一主题 下一主题
离线mjghosts
 

发帖
8233
金钱
208923
威望
9161
贡献值
2712
交易币
4672
只看楼主 倒序阅读 楼主  发表于: 2014-07-15
— 本帖被 mjghosts 执行加亮操作(2014-07-15) —
KzFs#rhpn  
w1!\L_::Y  
uvK%d\d  
BOl$UJ|K  
Uc%`? +Q  
General q'8@0FT0  
Unique ID : 214460346781946432818492794470347915666 (0xA1578F74BE2130128B2C65C97DE54192) Zo638*32  
Complete name : E:\SUPER JUNIOR.SUPER SHOW 5 IN JAPAN.TOKYO DOME.Blu-Ray.720p.x264-KpM.mkv @snLE?g j  
Format : Matroska !v;_@iW3e  
Format version : Version 2 ;cHI3V  
File size : 9.65 GiB "l;8 O2;g  
Duration : 2h 44mn L}S4Zz18  
Overall bit rate mode : Variable &^D@(m7>{K  
Overall bit rate : 8 378 Kbps CH+&  
Encoded date : UTC 2014-07-04 23:47:39 G(3la3\(  
Writing application : mkvmerge v5.5.0 ('Healer') built on Apr 6 2012 21:43:24 m-FDCiN>  
Writing library : Kirara Encoder
Video cQ ;Ry!$  
ID : 1 54DR.>O  
Format : AVC R2ZQBwB  
Format/Info : Advanced Video Codec 9+Hb`  
Format profile : High@L4.1 5&Kn #  
Format settings, CABAC : Yes &nw ~gSe  
Format settings, ReFrames : 4 frames B;je|M!d  
Muxing mode : Header stripping rM.<Gi05Qe  
Codec ID : V_MPEG4/ISO/AVC s4k%ty}  
Duration : 2h 44mn QLg9aG|  
Bit rate : 8 083 Kbps T^G<)IX`c  
Width : 1 280 pixels T bWZw  
Height : 720 pixels %n,bPa>T  
Display aspect ratio : 16:9 ji=po;g=E  
Frame rate mode : Constant nP31jm+A  
Frame rate : 29.970 fps 4gENV{ L  
Color space : YUV MEUqQ4/Gl  
Chroma subsampling : 4:2:0 sAlgp2-  
Bit depth : 8 bits g2q=&eI"  
Scan type : Progressive zPYa@0I  
Bits/(Pixel*Frame) : 0.293 YSif`W!  
Stream size : 9.31 GiB (96%) rge/jE,^~Z  
Writing library : x264 core 120 YBP{4Rl  
Encoding settings : cabac=1 / ref=4 / deblock=1:0:0 / analyse=0x3:0x113 / me=hex / subme=7 / psy=1 / psy_rd=1.00:0.00 / mixed_ref=1 / me_range=16 / chroma_me=1 / trellis=0 / 8x8dct=1 / cqm=0 / deadzone=21,11 / fast_pskip=1 / chroma_qp_offset=-2 / threads=3 / sliced_threads=0 / nr=0 / decimate=1 / interlaced=0 / bluray_compat=0 / constrained_intra=0 / bframes=0 / weightp=2 / keyint=250 / keyint_min=25 / scenecut=40 / intra_refresh=0 / rc_lookahead=40 / rc=crf / mbtree=1 / crf=20.0 / qcomp=0.60 / qpmin=0 / qpmax=69 / qpstep=4 / ip_ratio=1.40 / aq=1:1.00 7Go!W(8  
Default : Yes f7'%AuSQ(  
Forced : No
Audio 5hAg*zJb5o  
ID : 2 7-DC"`Y8e  
Format : Vorbis Ar==@777j  
Format settings, Floor : 1 ?HY0@XILI  
Codec ID : A_VORBIS 7}Sw(g)o7  
Duration : 2h 44mn 4jpF^&y7u^  
Bit rate mode : Variable }/VHeHd  
Bit rate : 128 Kbps I9 E@2[=!  
Channel(s) : 2 channels n>HNpy  
Sampling rate : 48.0 KHz ? _W*7<  
Compression mode : Lossy O v-I2  
Delay relative to video : -33ms tT7$2 9  
Stream size : 151 MiB (2%) B;m18LDu  
Writing library : libVorbis (Schaufenugget) (20101101 (Schaufenugget)) BWs\'B  
Default : Yes :* 'i\  
Forced : No eYagI  
Writing application : Lavc53.42.0
x!< C0N>?z  
pTTif|c  
6?_Uow}  
蓝光原盘文件47GB,采用Kirara Encoder以品质20方式压制,分辨率1280x720,音频采用OGG,128Kbps。 ZGf=/Ra a  
PQfx0n,  
整个压制和上传过程花了不少时间和心血,有兴趣的可以看看(我知道几乎没人感冒)。囧。 F :u}7t>  
T|E;U  
PS:从09年,SUPER JUNIOR的一神曲《Sorry Sorry》发表后,LZ开始关注和慢慢去了解这个韩国组合,直到现在,处于“半歌迷”状态,就是买过CD,收过视频,买票看过一次现场,而已。 H P7Ec  
i{`>!)U  
曲目表(蓝色字体歌曲为电视台播放Cut掉的部分): 'C[gcp  
1D*e u  
●Opening kh`X92~  
●Mr. Simple o?b"B+#  
●美人(BONAMANA) >6aCBS?2  
●SUPER GIRL ? 56Zw"89  
--- MC --- M HgS5b2  
●It's You p>MX}^6  
●Hero Tp9LBF  
●Sexy, Free & Single %``FIv15w  
●Boom Boom B$7lL  
●Club No.1 hwexv 9""  
●So Cold z`TI<B  
●いのちの歌 E fqa*,k  
●I WANNA DANCE hI?<F^b  
●BREAK DOWN 0V1kZ.  
●A-Oh }p "HD R>  
●Go + Shake It Up! 4$_8#w B1&  
●Rockstar =lVfrna  
●Gray Paper mv + .5X  
●Daydream N\H(AzMw  
--- MC ---
S~m* t i(  
●アコースティックメドレー(Bittersweet + Someday + Memories) 4N*^%  
●SUNNY rvOR[T>  
●Dancing Out /x`H6'3?  
--- MC --- i++ F&r[  
●Marry U P^&+ehp  
●SORRY, SORRY F2+lwycY  
●★BAMBINA★ WukCE  
●Sapphire Blue Rk`c'WP0*  
--- MC --- "%0RR?  
●So I =axi0q?}  
●Ending VRMlr.T +  
drF"kTD"7  
1分钟样本试看: [<OMv9(l'o  
链接: http://pan.baidu.com/s/1c01VoJm 密码: eess }p."7(  
jj.)$|&#`  
此帖售价 1 金钱,已有 8 人购买 [记录] [购买]
购买后,将显示帖子中所有出售内容。
若发现会员采用欺骗的方法获取财富,请立刻举报,我们会对会员处以2-N倍的罚金,严重者封掉ID!
此段为出售的内容,购买后显示
e@@kTny(  
qC IZW  
"xYMv"X  
>q4nQ/eP  
a]$KI$)e  
2条评分金钱+10威望+2
Andy 威望 +2 帅气 2014-07-15
Andy 金钱 +10 帅气 2014-07-15
离线耶稣

发帖
6589
金钱
202363
威望
2124
贡献值
1383
交易币
10011
只看该作者 1楼 发表于: 2014-07-15
9.64G 还是有点大。。 E$!0h_.(  
'VVEd[  
5MU-Eu|*>  

H$G`e'`OZ  
DNYJR]>  
~%.<rc0  
。。(⊙o⊙)…Mr simple 4o|-v  

楼主留言:

我也觉得。




离线野生动物

发帖
477
金钱
212
威望
20
贡献值
3
交易币
2
只看该作者 2楼 发表于: 2014-07-15
谢谢楼主分享啦 }M0GPpv  
离线callas

发帖
3830
金钱
38601
威望
317
贡献值
245
交易币
4823
只看该作者 3楼 发表于: 2014-07-17
楼主辛苦了,多谢。

杯具7k黨——
網速7k以下均可加入,可隨時交流慘痛的下載經驗
不管是下載下到昏頭,還是上傳上到頭大
歡迎悲慘的MJ資源收藏迷~~~
离线anny9926

发帖
1
金钱
6
威望
1
贡献值
0
交易币
2
只看该作者 4楼 发表于: 2014-08-04
Hope I still can download this.. thanks for sharing dear..
离线yanzi791024

发帖
1
金钱
11
威望
1
贡献值
0
交易币
2
只看该作者 5楼 发表于: 02-23
謝謝樓主的分享!
快速回复
限100 字节
 
上一个 下一个