论坛风格切换切换到宽版
  • 5161阅读
  • 5回复

[音乐视频]蓝光压制:Super Junior.Super Show5 in Tokyo.720p.x264.mkv[9.64G/百度盘] [复制链接]

上一主题 下一主题
离线mjghosts
 

发帖
8191
金钱
204337
威望
9035
贡献值
2641
交易币
4550
只看楼主 倒序阅读 楼主  发表于: 2014-07-15
— 本帖被 mjghosts 执行加亮操作(2014-07-15) —
]"YG7|EU  
?VzST }  
FD`V39##  
|5FyfDaFBX  
\,_%e[g49  
General R_H di~ k  
Unique ID : 214460346781946432818492794470347915666 (0xA1578F74BE2130128B2C65C97DE54192) Y)!5Z.K  
Complete name : E:\SUPER JUNIOR.SUPER SHOW 5 IN JAPAN.TOKYO DOME.Blu-Ray.720p.x264-KpM.mkv /sYD+*a  
Format : Matroska CF$^we  
Format version : Version 2 .IYE"0)wJ  
File size : 9.65 GiB QzV:^!0J  
Duration : 2h 44mn 7pGlbdS  
Overall bit rate mode : Variable r?Z8_5Y  
Overall bit rate : 8 378 Kbps Put +<o <  
Encoded date : UTC 2014-07-04 23:47:39 ikofJl]9  
Writing application : mkvmerge v5.5.0 ('Healer') built on Apr 6 2012 21:43:24 jt;,7Ek  
Writing library : Kirara Encoder
Video v4 c_UFEh<  
ID : 1 S(rA96n  
Format : AVC yuhSP{pv'  
Format/Info : Advanced Video Codec .ipYZg'V  
Format profile : High@L4.1 !rwv~9I  
Format settings, CABAC : Yes & }}o9  
Format settings, ReFrames : 4 frames c"fnTJXr79  
Muxing mode : Header stripping _STN^   
Codec ID : V_MPEG4/ISO/AVC }t]CDa_n  
Duration : 2h 44mn [S*bN!t  
Bit rate : 8 083 Kbps K72U0}$B  
Width : 1 280 pixels pYVQ-r%QF  
Height : 720 pixels P~=|R9 t  
Display aspect ratio : 16:9 -x7b6o>$  
Frame rate mode : Constant Nno*X9>~  
Frame rate : 29.970 fps ]JtK)9  
Color space : YUV N0/DPZX7  
Chroma subsampling : 4:2:0 O~w&4F;{  
Bit depth : 8 bits 4WDh8U  
Scan type : Progressive @-)?2CH[8  
Bits/(Pixel*Frame) : 0.293 `2U zJ~  
Stream size : 9.31 GiB (96%) W}nD#9tL  
Writing library : x264 core 120 mZ*!$P:vy"  
Encoding settings : cabac=1 / ref=4 / deblock=1:0:0 / analyse=0x3:0x113 / me=hex / subme=7 / psy=1 / psy_rd=1.00:0.00 / mixed_ref=1 / me_range=16 / chroma_me=1 / trellis=0 / 8x8dct=1 / cqm=0 / deadzone=21,11 / fast_pskip=1 / chroma_qp_offset=-2 / threads=3 / sliced_threads=0 / nr=0 / decimate=1 / interlaced=0 / bluray_compat=0 / constrained_intra=0 / bframes=0 / weightp=2 / keyint=250 / keyint_min=25 / scenecut=40 / intra_refresh=0 / rc_lookahead=40 / rc=crf / mbtree=1 / crf=20.0 / qcomp=0.60 / qpmin=0 / qpmax=69 / qpstep=4 / ip_ratio=1.40 / aq=1:1.00  lcyan  
Default : Yes k6. }.  
Forced : No
Audio :SziQQ  
ID : 2 fY$M**/,  
Format : Vorbis Bo_Ivhe[m  
Format settings, Floor : 1 \h?C G_|]  
Codec ID : A_VORBIS i5q VQo  
Duration : 2h 44mn '$;S?6$eW  
Bit rate mode : Variable -T`rk~A9A  
Bit rate : 128 Kbps mKQ !@$*  
Channel(s) : 2 channels U,~\}$<I  
Sampling rate : 48.0 KHz iLNKC'  
Compression mode : Lossy &}Cm9V  
Delay relative to video : -33ms [n44;  
Stream size : 151 MiB (2%) ab: yH ')  
Writing library : libVorbis (Schaufenugget) (20101101 (Schaufenugget)) uL\ B[<:  
Default : Yes 5_x8!v  
Forced : No VkZrb2]v  
Writing application : Lavc53.42.0
a2SMNC]  
LaG./+IP  
NVAt-u0LB  
蓝光原盘文件47GB,采用Kirara Encoder以品质20方式压制,分辨率1280x720,音频采用OGG,128Kbps。 7H %>\^A^  
!MOVv\@O  
整个压制和上传过程花了不少时间和心血,有兴趣的可以看看(我知道几乎没人感冒)。囧。 uK2MC?LP  
FO&U{(Q  
PS:从09年,SUPER JUNIOR的一神曲《Sorry Sorry》发表后,LZ开始关注和慢慢去了解这个韩国组合,直到现在,处于“半歌迷”状态,就是买过CD,收过视频,买票看过一次现场,而已。 ba^B$$?Bo  
z:{'IY  
曲目表(蓝色字体歌曲为电视台播放Cut掉的部分): [I^>ji0V  
*/;[ -9  
●Opening uQ=p } w  
●Mr. Simple ELZCrh6*  
●美人(BONAMANA) 01uMbtM  
●SUPER GIRL CkKr@.dV  
--- MC --- ^mz&L|h  
●It's You ]3u ErnI  
●Hero s<Px au+A  
●Sexy, Free & Single 9~2}hXm;  
●Boom Boom ) jv]Oz  
●Club No.1 r BQFC 4L  
●So Cold *$~H=4t  
●いのちの歌 RY3ANEu+  
●I WANNA DANCE ,5$V;|  
●BREAK DOWN >qk[/\^O  
●A-Oh ,7&`V=C  
●Go + Shake It Up! r2M Iw  
●Rockstar (L}  
●Gray Paper S{' /=Px+  
●Daydream yr?*{;  
--- MC ---
"Ah (EZAR  
●アコースティックメドレー(Bittersweet + Someday + Memories) Ysbd4 rN  
●SUNNY Z]kk.@P  
●Dancing Out (7/fsfsF  
--- MC --- c@;$6WSG^  
●Marry U d*Q:[RUf,  
●SORRY, SORRY s3@sX_2  
●★BAMBINA★  O_^O1  
●Sapphire Blue XHU&ix{Od  
--- MC --- GO0Spf_Gh  
●So I Jf6u E?.  
●Ending Au3> =x`  
*qdf?' R  
1分钟样本试看: ;Yo9e~  
链接: http://pan.baidu.com/s/1c01VoJm 密码: eess e[_W( v  
$Lg% CY  
此帖售价 1 金钱,已有 8 人购买 [记录] [购买]
购买后,将显示帖子中所有出售内容。
若发现会员采用欺骗的方法获取财富,请立刻举报,我们会对会员处以2-N倍的罚金,严重者封掉ID!
此段为出售的内容,购买后显示
:aHD'K  
Y*nzOD$  
f[v~U<\R  
6!P];3&o\A  
v\7k  
2条评分金钱+10威望+2
Andy 威望 +2 帅气 2014-07-15
Andy 金钱 +10 帅气 2014-07-15
在线耶稣

发帖
6451
金钱
180867
威望
1795
贡献值
1194
交易币
9609
只看该作者 1楼 发表于: 2014-07-15
9.64G 还是有点大。。 !nVX .m9  
nS?HH6H  
8f^URN<x  

i04Sf^  
Xki/5roCQ|  
`H/HLCt  
。。(⊙o⊙)…Mr simple ^0{S!fs  

楼主留言:

我也觉得。




离线野生动物

发帖
477
金钱
212
威望
20
贡献值
3
交易币
2
只看该作者 2楼 发表于: 2014-07-15
谢谢楼主分享啦 ui 2RTAb  
离线callas

发帖
3829
金钱
38596
威望
317
贡献值
245
交易币
4822
只看该作者 3楼 发表于: 2014-07-17
楼主辛苦了,多谢。

杯具7k黨——
網速7k以下均可加入,可隨時交流慘痛的下載經驗
不管是下載下到昏頭,還是上傳上到頭大
歡迎悲慘的MJ資源收藏迷~~~
离线anny9926

发帖
1
金钱
6
威望
1
贡献值
0
交易币
2
只看该作者 4楼 发表于: 2014-08-04
Hope I still can download this.. thanks for sharing dear..
离线yanzi791024

发帖
1
金钱
11
威望
1
贡献值
0
交易币
2
只看该作者 5楼 发表于: 02-23
謝謝樓主的分享!
快速回复
限100 字节
 
上一个 下一个