论坛风格切换切换到宽版
  • 5580阅读
  • 5回复

[音乐视频]蓝光压制:Super Junior.Super Show5 in Tokyo.720p.x264.mkv[9.64G/百度盘] [复制链接]

上一主题 下一主题
离线mjghosts
 

发帖
8258
金钱
212473
威望
9166
贡献值
2715
交易币
4709
只看楼主 倒序阅读 楼主  发表于: 2014-07-15
— 本帖被 mjghosts 执行加亮操作(2014-07-15) —
KG9-ac  
d|7LCW+HW  
!K}W.yv,  
q>>1?hzA  
|m"Gr)Gm  
General sCrP+K0D  
Unique ID : 214460346781946432818492794470347915666 (0xA1578F74BE2130128B2C65C97DE54192) ~S;-sxoO0l  
Complete name : E:\SUPER JUNIOR.SUPER SHOW 5 IN JAPAN.TOKYO DOME.Blu-Ray.720p.x264-KpM.mkv 1v`|mU}i,  
Format : Matroska iO?^y(phC  
Format version : Version 2 ov,s]g83  
File size : 9.65 GiB ui#nN   
Duration : 2h 44mn *(q?O_3,b  
Overall bit rate mode : Variable 6#CswSpS  
Overall bit rate : 8 378 Kbps hwXsfh |  
Encoded date : UTC 2014-07-04 23:47:39 T&pCLvkz  
Writing application : mkvmerge v5.5.0 ('Healer') built on Apr 6 2012 21:43:24 {*O+vtir%  
Writing library : Kirara Encoder
Video t>}S@T{~T  
ID : 1 qfJ2iE|o2.  
Format : AVC v\?J=|S+  
Format/Info : Advanced Video Codec e7xv~C>g  
Format profile : High@L4.1 9;7"S.7AV  
Format settings, CABAC : Yes G^dp9A  
Format settings, ReFrames : 4 frames ]h`*w  
Muxing mode : Header stripping (nB[aM  
Codec ID : V_MPEG4/ISO/AVC MhHh`WUGh  
Duration : 2h 44mn P<&bAsje  
Bit rate : 8 083 Kbps sNpA!!\PM  
Width : 1 280 pixels .gC.T`/m  
Height : 720 pixels Q+Q"JU  
Display aspect ratio : 16:9 'q:7PkN!p  
Frame rate mode : Constant Wm-$l  
Frame rate : 29.970 fps ?'f  
Color space : YUV !Q~>)$Cf^  
Chroma subsampling : 4:2:0 g9 ^\Q Yh!  
Bit depth : 8 bits ldp9+7n~  
Scan type : Progressive 5L2j, ]  
Bits/(Pixel*Frame) : 0.293 Jy}~ZY  
Stream size : 9.31 GiB (96%) x^)?V7[t  
Writing library : x264 core 120 -E6av|c,F  
Encoding settings : cabac=1 / ref=4 / deblock=1:0:0 / analyse=0x3:0x113 / me=hex / subme=7 / psy=1 / psy_rd=1.00:0.00 / mixed_ref=1 / me_range=16 / chroma_me=1 / trellis=0 / 8x8dct=1 / cqm=0 / deadzone=21,11 / fast_pskip=1 / chroma_qp_offset=-2 / threads=3 / sliced_threads=0 / nr=0 / decimate=1 / interlaced=0 / bluray_compat=0 / constrained_intra=0 / bframes=0 / weightp=2 / keyint=250 / keyint_min=25 / scenecut=40 / intra_refresh=0 / rc_lookahead=40 / rc=crf / mbtree=1 / crf=20.0 / qcomp=0.60 / qpmin=0 / qpmax=69 / qpstep=4 / ip_ratio=1.40 / aq=1:1.00 ;0kAm Vy  
Default : Yes )vOBF5  
Forced : No
Audio 3,G|oR{D  
ID : 2 j}Svb1A  
Format : Vorbis 5s^vC2$)  
Format settings, Floor : 1 C[znUI>  
Codec ID : A_VORBIS 3v3cK1K@oE  
Duration : 2h 44mn 9.dZA9l@g  
Bit rate mode : Variable n7ZJ< ~wl  
Bit rate : 128 Kbps emJZ+:%  
Channel(s) : 2 channels <w~$S0_  
Sampling rate : 48.0 KHz `xv Uq\  
Compression mode : Lossy W=S^t_F  
Delay relative to video : -33ms %CQa8<q  
Stream size : 151 MiB (2%) A`vRUl,c=  
Writing library : libVorbis (Schaufenugget) (20101101 (Schaufenugget)) mBrZ{hqS  
Default : Yes 9(=+OQ6  
Forced : No KTo}xLT  
Writing application : Lavc53.42.0
OS L~a_  
k?3mFWc  
z:O:g?A  
蓝光原盘文件47GB,采用Kirara Encoder以品质20方式压制,分辨率1280x720,音频采用OGG,128Kbps。 J +Y?'"r  
VD,g3B p  
整个压制和上传过程花了不少时间和心血,有兴趣的可以看看(我知道几乎没人感冒)。囧。 }DvT6  
qw|B-lT{:  
PS:从09年,SUPER JUNIOR的一神曲《Sorry Sorry》发表后,LZ开始关注和慢慢去了解这个韩国组合,直到现在,处于“半歌迷”状态,就是买过CD,收过视频,买票看过一次现场,而已。 (LVzE_`  
^m.%FIwR  
曲目表(蓝色字体歌曲为电视台播放Cut掉的部分): 8X\":l:  
gHH[QLD=I  
●Opening 7X/B9Hee  
●Mr. Simple ) @f6  
●美人(BONAMANA) 5W_Rg:J{P  
●SUPER GIRL ~2 J!I^ J  
--- MC --- h}GzQry1  
●It's You Uj)`(}r  
●Hero u_%L~1+'  
●Sexy, Free & Single p']oy;t  
●Boom Boom JR4fJG  
●Club No.1 :$&v4IW  
●So Cold %HcCe[d5l  
●いのちの歌 9qX)FB@'i;  
●I WANNA DANCE .._UI2MA  
●BREAK DOWN #]@|mf q  
●A-Oh 7(C:ty9  
●Go + Shake It Up! /^=8?wK  
●Rockstar QVo>Uit   
●Gray Paper #|=Q5"wU  
●Daydream %a']TX  
--- MC ---
Sg*+!  
●アコースティックメドレー(Bittersweet + Someday + Memories) hR~&}sxN  
●SUNNY i6<uj  
●Dancing Out FmSE ]et  
--- MC --- _0UE*l$t  
●Marry U z[6avW"q  
●SORRY, SORRY #%w+PL:*O  
●★BAMBINA★ HB`'S7Q  
●Sapphire Blue v(GnG  
--- MC --- :J_UXtx  
●So I x2a ?ugQ  
●Ending cMF)2^w}  
EpKZ.lCU  
1分钟样本试看: kr|r-N`  
链接: http://pan.baidu.com/s/1c01VoJm 密码: eess 5+!yXkE^e  
9eq)WI/  
此帖售价 1 金钱,已有 8 人购买 [记录] [购买]
购买后,将显示帖子中所有出售内容。
若发现会员采用欺骗的方法获取财富,请立刻举报,我们会对会员处以2-N倍的罚金,严重者封掉ID!
此段为出售的内容,购买后显示
0sKo NzE  
L gX2KU"  
roAHkI  
SJO*g&duQ  
GmJ \3]{PZ  
2条评分金钱+10威望+2
Andy 威望 +2 帅气 2014-07-15
Andy 金钱 +10 帅气 2014-07-15
离线耶稣

发帖
7064
金钱
246450
威望
2438
贡献值
1612
交易币
11003
只看该作者 1楼 发表于: 2014-07-15
9.64G 还是有点大。。 R(A"6a8*  
K-7i4 ~  
,9ZN k@q  

SN|:{Am  
(SYSw%v$A  
&\GB_UA  
。。(⊙o⊙)…Mr simple [Dq!t1  

楼主留言:

我也觉得。





离线野生动物

发帖
477
金钱
212
威望
20
贡献值
3
交易币
2
只看该作者 2楼 发表于: 2014-07-15
谢谢楼主分享啦 ! z^%$;p  
离线callas

发帖
3830
金钱
38601
威望
317
贡献值
245
交易币
4823
只看该作者 3楼 发表于: 2014-07-17
楼主辛苦了,多谢。

杯具7k黨——
網速7k以下均可加入,可隨時交流慘痛的下載經驗
不管是下載下到昏頭,還是上傳上到頭大
歡迎悲慘的MJ資源收藏迷~~~
离线anny9926

发帖
1
金钱
6
威望
1
贡献值
0
交易币
2
只看该作者 4楼 发表于: 2014-08-04
Hope I still can download this.. thanks for sharing dear..
离线yanzi791024

发帖
1
金钱
11
威望
1
贡献值
0
交易币
2
只看该作者 5楼 发表于: 02-23
謝謝樓主的分享!
快速回复
限100 字节
 
上一个 下一个