论坛风格切换切换到宽版
  • 5802阅读
  • 5回复

[音乐视频]蓝光压制:Super Junior.Super Show5 in Tokyo.720p.x264.mkv[9.64G/百度盘] [复制链接]

上一主题 下一主题
离线mjghosts
 

发帖
8241
金钱
217202
威望
9172
贡献值
2721
交易币
4744
只看楼主 倒序阅读 楼主  发表于: 2014-07-15
— 本帖被 mjghosts 执行加亮操作(2014-07-15) —
4r_*: $g  
H.iCYD_=  
%`pi*/(  
Q*Jb0f  
(D[~Z!   
General T]Q4=xsv  
Unique ID : 214460346781946432818492794470347915666 (0xA1578F74BE2130128B2C65C97DE54192) 0J[B3JO@M  
Complete name : E:\SUPER JUNIOR.SUPER SHOW 5 IN JAPAN.TOKYO DOME.Blu-Ray.720p.x264-KpM.mkv VWt=9D;  
Format : Matroska j*gZvbO;'L  
Format version : Version 2 "D>/#cY1/  
File size : 9.65 GiB -4Dz9 8du  
Duration : 2h 44mn ^GYVRD  
Overall bit rate mode : Variable W\0u[IV.x  
Overall bit rate : 8 378 Kbps }+S~Ah?(  
Encoded date : UTC 2014-07-04 23:47:39 *1-0s*T  
Writing application : mkvmerge v5.5.0 ('Healer') built on Apr 6 2012 21:43:24 +>eX1WoTy  
Writing library : Kirara Encoder
Video SR.xI:}4  
ID : 1 RWu< dY#ym  
Format : AVC d j9i*#F  
Format/Info : Advanced Video Codec ~ [/jk !G  
Format profile : High@L4.1 #68$'Rl"o1  
Format settings, CABAC : Yes @o}J)  
Format settings, ReFrames : 4 frames #/9Y}2G|]  
Muxing mode : Header stripping h<'tQGC  
Codec ID : V_MPEG4/ISO/AVC K'Wv$[~Dc  
Duration : 2h 44mn P A*U\  
Bit rate : 8 083 Kbps r-WX("Vvh  
Width : 1 280 pixels ox.kL  
Height : 720 pixels |,TBP@  
Display aspect ratio : 16:9 \Q|,0`  
Frame rate mode : Constant V!@6Nv  
Frame rate : 29.970 fps KxhWZ3  
Color space : YUV \SgBI/L^  
Chroma subsampling : 4:2:0 I&^hG\D  
Bit depth : 8 bits ]haQ#e}WH  
Scan type : Progressive VS~+W=5}  
Bits/(Pixel*Frame) : 0.293  Cz&t*i/  
Stream size : 9.31 GiB (96%) 7~N4~KAUS  
Writing library : x264 core 120 S%G&{5  
Encoding settings : cabac=1 / ref=4 / deblock=1:0:0 / analyse=0x3:0x113 / me=hex / subme=7 / psy=1 / psy_rd=1.00:0.00 / mixed_ref=1 / me_range=16 / chroma_me=1 / trellis=0 / 8x8dct=1 / cqm=0 / deadzone=21,11 / fast_pskip=1 / chroma_qp_offset=-2 / threads=3 / sliced_threads=0 / nr=0 / decimate=1 / interlaced=0 / bluray_compat=0 / constrained_intra=0 / bframes=0 / weightp=2 / keyint=250 / keyint_min=25 / scenecut=40 / intra_refresh=0 / rc_lookahead=40 / rc=crf / mbtree=1 / crf=20.0 / qcomp=0.60 / qpmin=0 / qpmax=69 / qpstep=4 / ip_ratio=1.40 / aq=1:1.00 Z;dR :|%)  
Default : Yes J'&K  
Forced : No
Audio T$DFTr\\  
ID : 2 eG dFupfz  
Format : Vorbis p7.~k1h  
Format settings, Floor : 1 Io /;+R .  
Codec ID : A_VORBIS ,RAP_I!_x  
Duration : 2h 44mn g`6I,6G  
Bit rate mode : Variable F}B2nL&  
Bit rate : 128 Kbps A(+V{1 L'  
Channel(s) : 2 channels Q[T)jo,j%  
Sampling rate : 48.0 KHz T7?z0DKi  
Compression mode : Lossy Jg.^h1>x  
Delay relative to video : -33ms D3+<16[,  
Stream size : 151 MiB (2%) 1CUI6@Cz)  
Writing library : libVorbis (Schaufenugget) (20101101 (Schaufenugget)) h~=~csya:  
Default : Yes +a+DiD>./  
Forced : No ~x+&cA-0A2  
Writing application : Lavc53.42.0
QghL=  
* YLp C^&  
<4"Bb_U  
蓝光原盘文件47GB,采用Kirara Encoder以品质20方式压制,分辨率1280x720,音频采用OGG,128Kbps。 :SN/fY  
bZgFea_>i  
整个压制和上传过程花了不少时间和心血,有兴趣的可以看看(我知道几乎没人感冒)。囧。 \"+}-!wr  
}x"8v&3CM_  
PS:从09年,SUPER JUNIOR的一神曲《Sorry Sorry》发表后,LZ开始关注和慢慢去了解这个韩国组合,直到现在,处于“半歌迷”状态,就是买过CD,收过视频,买票看过一次现场,而已。 GP=bp_L  
2bOFH6g  
曲目表(蓝色字体歌曲为电视台播放Cut掉的部分): 4B Jw+EV8  
OB+QVYk"  
●Opening /,+&O#SX  
●Mr. Simple jjg[v""3|  
●美人(BONAMANA) s<8|_Dt  
●SUPER GIRL PLK;y  
--- MC --- er2#h  
●It's You P A$jR fQ  
●Hero dK7BjZTJo  
●Sexy, Free & Single A7aW]  
●Boom Boom ,UW!?}@  
●Club No.1 G]gc*\4  
●So Cold ]U.*KkQ  
●いのちの歌 .\"8H1I\T  
●I WANNA DANCE  1"RC!  
●BREAK DOWN B[ r04YGh  
●A-Oh i: VMC NH  
●Go + Shake It Up! :[ll$5E.  
●Rockstar uS5ADh  
●Gray Paper :} DTK  
●Daydream I"HA( +G  
--- MC ---
y`J8hawp  
●アコースティックメドレー(Bittersweet + Someday + Memories) REJHh\:.77  
●SUNNY F+ <Z%KuCu  
●Dancing Out @81N{tg-  
--- MC --- $ <Mf#.8%  
●Marry U W'R^GIHs  
●SORRY, SORRY "0J;H#Y"#  
●★BAMBINA★ W:O p\  
●Sapphire Blue =LKf.@]#  
--- MC --- - #-Bo  
●So I #{@qC2!2/  
●Ending Gyb|{G_  
uj+{ tc  
1分钟样本试看: >tm4Rg~y  
链接: http://pan.baidu.com/s/1c01VoJm 密码: eess EF'8-*  
A+(+Pf U  
此帖售价 1 金钱,已有 8 人购买 [记录] [购买]
购买后,将显示帖子中所有出售内容。
若发现会员采用欺骗的方法获取财富,请立刻举报,我们会对会员处以2-N倍的罚金,严重者封掉ID!
此段为出售的内容,购买后显示
Ey{p;;H  
ZP ]Ok  
S84S/y  
S2>$S^[U  
S" (Nf+ux  
2条评分金钱+10威望+2
Andy 威望 +2 帅气 2014-07-15
Andy 金钱 +10 帅气 2014-07-15
离线耶稣

发帖
7134
金钱
268414
威望
2485
贡献值
1649
交易币
11181
只看该作者 1楼 发表于: 2014-07-15
9.64G 还是有点大。。 z &[[4[  
.>( qZEF  
.GPuKP|  

zPb "6%1B  
(8j@+J   
k :zGv  
。。(⊙o⊙)…Mr simple %!)Dk<  

楼主留言:

我也觉得。






离线野生动物

发帖
477
金钱
212
威望
20
贡献值
3
交易币
2
只看该作者 2楼 发表于: 2014-07-15
谢谢楼主分享啦 WChJ <[]W  
离线callas

发帖
3831
金钱
38606
威望
317
贡献值
245
交易币
4824
只看该作者 3楼 发表于: 2014-07-17
楼主辛苦了,多谢。

杯具7k黨——
網速7k以下均可加入,可隨時交流慘痛的下載經驗
不管是下載下到昏頭,還是上傳上到頭大
歡迎悲慘的MJ資源收藏迷~~~
离线anny9926

发帖
1
金钱
6
威望
1
贡献值
0
交易币
2
只看该作者 4楼 发表于: 2014-08-04
Hope I still can download this.. thanks for sharing dear..
离线yanzi791024

发帖
1
金钱
11
威望
1
贡献值
0
交易币
2
只看该作者 5楼 发表于: 2017-02-23
謝謝樓主的分享!
快速回复
限100 字节
 
上一个 下一个