论坛风格切换切换到宽版
  • 5482阅读
  • 5回复

[音乐视频]蓝光压制:Super Junior.Super Show5 in Tokyo.720p.x264.mkv[9.64G/百度盘] [复制链接]

上一主题 下一主题
离线mjghosts
 

发帖
8247
金钱
210534
威望
9164
贡献值
2715
交易币
4698
只看楼主 倒序阅读 楼主  发表于: 2014-07-15
— 本帖被 mjghosts 执行加亮操作(2014-07-15) —
lh8Q tPe  
V4n~Z+k  
@-'a{hBR  
dU$VRgP/  
H~a ~ 'tm  
General \8`7E1d  
Unique ID : 214460346781946432818492794470347915666 (0xA1578F74BE2130128B2C65C97DE54192) !6KX^j-  
Complete name : E:\SUPER JUNIOR.SUPER SHOW 5 IN JAPAN.TOKYO DOME.Blu-Ray.720p.x264-KpM.mkv bj pruJ`=  
Format : Matroska ;xZ+1 zmL0  
Format version : Version 2 eV[{c %wN:  
File size : 9.65 GiB C/e.BXA  
Duration : 2h 44mn  ]n!V  
Overall bit rate mode : Variable yQ$irS?  
Overall bit rate : 8 378 Kbps 42NfD/"g+s  
Encoded date : UTC 2014-07-04 23:47:39 ~"#0rPT  
Writing application : mkvmerge v5.5.0 ('Healer') built on Apr 6 2012 21:43:24 sbW+vc  
Writing library : Kirara Encoder
Video ~#r>@C  
ID : 1 ZnEgU}g<2  
Format : AVC ~}.C*;J  
Format/Info : Advanced Video Codec GV0\+A"vD  
Format profile : High@L4.1 A{ +/$7vek  
Format settings, CABAC : Yes @t%da^-HS"  
Format settings, ReFrames : 4 frames ;_,jy7lf  
Muxing mode : Header stripping *k{Llq  
Codec ID : V_MPEG4/ISO/AVC &FXf]9 _X  
Duration : 2h 44mn :zHSy&i`  
Bit rate : 8 083 Kbps U,W OP7z  
Width : 1 280 pixels |! 9~  
Height : 720 pixels |]&3*%b@  
Display aspect ratio : 16:9 ,U{dqw8E{  
Frame rate mode : Constant %J*1F  
Frame rate : 29.970 fps 3f`Uoh+  
Color space : YUV !VD$uT  
Chroma subsampling : 4:2:0 T"g_a|7Tj  
Bit depth : 8 bits f#s6 'g  
Scan type : Progressive fbApE  
Bits/(Pixel*Frame) : 0.293 RuHDAJ"&a  
Stream size : 9.31 GiB (96%)  ,$6si  
Writing library : x264 core 120 &* VhtT?=5  
Encoding settings : cabac=1 / ref=4 / deblock=1:0:0 / analyse=0x3:0x113 / me=hex / subme=7 / psy=1 / psy_rd=1.00:0.00 / mixed_ref=1 / me_range=16 / chroma_me=1 / trellis=0 / 8x8dct=1 / cqm=0 / deadzone=21,11 / fast_pskip=1 / chroma_qp_offset=-2 / threads=3 / sliced_threads=0 / nr=0 / decimate=1 / interlaced=0 / bluray_compat=0 / constrained_intra=0 / bframes=0 / weightp=2 / keyint=250 / keyint_min=25 / scenecut=40 / intra_refresh=0 / rc_lookahead=40 / rc=crf / mbtree=1 / crf=20.0 / qcomp=0.60 / qpmin=0 / qpmax=69 / qpstep=4 / ip_ratio=1.40 / aq=1:1.00 ie1~QQ  
Default : Yes +Z"Wa0wA  
Forced : No
Audio gW~YB2 $  
ID : 2 }R* %q  
Format : Vorbis 6nA9r5Ghv  
Format settings, Floor : 1 27Gff(  
Codec ID : A_VORBIS )a^&7  
Duration : 2h 44mn 3ML^ dZ'  
Bit rate mode : Variable PS~_a  
Bit rate : 128 Kbps %R5- 6  
Channel(s) : 2 channels ]+G .S-a  
Sampling rate : 48.0 KHz $}4ao2  
Compression mode : Lossy P*k n}:  
Delay relative to video : -33ms l9QIlTc7  
Stream size : 151 MiB (2%) Ifp8oL?S;  
Writing library : libVorbis (Schaufenugget) (20101101 (Schaufenugget)) p4uzw  
Default : Yes z&9ljQ iF  
Forced : No bM'F8 Fi  
Writing application : Lavc53.42.0
/\,3AInLb  
I*3 >>VN  
$JOtUB{  
蓝光原盘文件47GB,采用Kirara Encoder以品质20方式压制,分辨率1280x720,音频采用OGG,128Kbps。 gR/?MJ(v  
hc W>R  
整个压制和上传过程花了不少时间和心血,有兴趣的可以看看(我知道几乎没人感冒)。囧。  3B]E2  
xsU%?"r  
PS:从09年,SUPER JUNIOR的一神曲《Sorry Sorry》发表后,LZ开始关注和慢慢去了解这个韩国组合,直到现在,处于“半歌迷”状态,就是买过CD,收过视频,买票看过一次现场,而已。 A pzC  
xm=Gt$>.o  
曲目表(蓝色字体歌曲为电视台播放Cut掉的部分): fNda&  
H{*rV>%  
●Opening InL_JobE8r  
●Mr. Simple aY4v'[  
●美人(BONAMANA) p! k~uf U  
●SUPER GIRL k"=*'  
--- MC --- N*[b 26  
●It's You  Mp js  
●Hero 83]m/Iz  
●Sexy, Free & Single P];0,;nF  
●Boom Boom 7'At_oG  
●Club No.1 | oOAy  
●So Cold }T PyHq"  
●いのちの歌 8 mOGEx  
●I WANNA DANCE qHheF%[\5  
●BREAK DOWN \HrtPm`e  
●A-Oh <l!:#u  
●Go + Shake It Up! Af@\g-<W_  
●Rockstar Oc,HnyV+  
●Gray Paper @0 x   
●Daydream -Ju;i<  
--- MC ---
T#6g5Jnsp  
●アコースティックメドレー(Bittersweet + Someday + Memories) a* }>yad  
●SUNNY /oJ &\pI  
●Dancing Out QrFKjmD<  
--- MC --- 3(t3r::&  
●Marry U >hSu1s:  
●SORRY, SORRY 1R yE8DdP  
●★BAMBINA★ :.=j)ljTx  
●Sapphire Blue [n&ES\o#(  
--- MC --- T.')XKP)1N  
●So I O#):*II`9  
●Ending BHU$QX  
3G<4rH]  
1分钟样本试看: WI*CuJU<zJ  
链接: http://pan.baidu.com/s/1c01VoJm 密码: eess ZNDi;6e  
RL\?i~'KH  
此帖售价 1 金钱,已有 8 人购买 [记录] [购买]
购买后,将显示帖子中所有出售内容。
若发现会员采用欺骗的方法获取财富,请立刻举报,我们会对会员处以2-N倍的罚金,严重者封掉ID!
此段为出售的内容,购买后显示
K0B<9Wi |  
-F*vN'  
x@/:{B   
|*b-m k  
NOkgG0Z  
2条评分金钱+10威望+2
Andy 威望 +2 帅气 2014-07-15
Andy 金钱 +10 帅气 2014-07-15
离线耶稣

发帖
6834
金钱
227057
威望
2274
贡献值
1485
交易币
10529
只看该作者 1楼 发表于: 2014-07-15
9.64G 还是有点大。。  .w9LJ  
EiW|+@1  
DZ8|20b  

FRBu8WW0L  
Ma[EgG  
9Eyx Ob  
。。(⊙o⊙)…Mr simple S\e&xUA;|  

楼主留言:

我也觉得。



离线野生动物

发帖
477
金钱
212
威望
20
贡献值
3
交易币
2
只看该作者 2楼 发表于: 2014-07-15
谢谢楼主分享啦 >qjV{M  
离线callas

发帖
3830
金钱
38601
威望
317
贡献值
245
交易币
4823
只看该作者 3楼 发表于: 2014-07-17
楼主辛苦了,多谢。

杯具7k黨——
網速7k以下均可加入,可隨時交流慘痛的下載經驗
不管是下載下到昏頭,還是上傳上到頭大
歡迎悲慘的MJ資源收藏迷~~~
离线anny9926

发帖
1
金钱
6
威望
1
贡献值
0
交易币
2
只看该作者 4楼 发表于: 2014-08-04
Hope I still can download this.. thanks for sharing dear..
离线yanzi791024

发帖
1
金钱
11
威望
1
贡献值
0
交易币
2
只看该作者 5楼 发表于: 02-23
謝謝樓主的分享!
快速回复
限100 字节
 
上一个 下一个