论坛风格切换切换到宽版
  • 5693阅读
  • 29回复

1988.Bad演唱会.London(7月16日).480p.x264.29fps-MSZ压制【百度盘】 [复制链接]

上一主题 下一主题
离线mjghosts
 

发帖
8255
金钱
219223
威望
9187
贡献值
2734
交易币
4790
只看楼主 倒序阅读 楼主  发表于: 2014-07-17
下载链接请直转! b<rJ@1qtJ  
片源:官方产品
QI2T G,  
AfW9;{j&I  
这是个无优化的直接压制版本,内容与HappyLee的版本一样,大小也差不多,仅供认为有需要的少数人。 E :Y *;  
想要专业优化压制版请转至:http://www.mjsunny.com/read.php?tid=61039
eqE%ofW  
~cx/>Hu  
对比图(左MSZ,右HL): 68LB745  
FPPGf!Eq  
d6k`=Hlg  
V qW(S1w  
&Qdd\h#  
sf5koe  
f[/E $r99J  
Z*|qbu)  
General z_J"Qk  
Unique ID                      : 220418950284484459979866942911848828272 (0xA5D3254A63773593A3E532FEBD96CD70) 93d ht  
Complete name                  : E:\[MJSHOWZONE]1988.Bad演唱会.London(16th, July).480p.x264.29fps.mkv ewtoAru  
Format                         : Matroska ukSi9| 1-,  
Format version                 : Version 2 ~l@SGHx  
File size                      : 1.24 GiB HJ*W3Mg  
Duration                       : 2h 3mn ZIx,?E+eJ  
Overall bit rate mode          : Variable 89'XOXl&1  
Overall bit rate               : 1 439 Kbps E:&ga}h  
Writing application            : Kirara Encoder *Gm%Dn  
Writing library                : Kirara Encoder
Video 9)QvJ87e@7  
ID                             : 1 '7{0k{  
Format                         : AVC Rd5r~iT  
Format/Info                    : Advanced Video Codec 94F9f^ L  
Format profile                 : High@L4.1 ht S5<+Y  
Format settings, CABAC         : Yes QP?Z+P<  
Format settings, ReFrames      : 4 frames 4y+] V~p  
Codec ID                       : V_MPEG4/ISO/AVC 9frS!AQ  
Duration                       : 2h 3mn -~ `5kO~  
Bit rate                       : 1 314 Kbps c|Nv^V*2  
Width                          : 640 pixels 81/Bn!  
Height                         : 480 pixels Ajhrsa\~a  
Display aspect ratio           : 4:3 k"V3FXC)  
Frame rate mode                : Constant UPPDs"  
Frame rate                     : 29.970 fps t_WNEZW7f  
Color space                    : YUV ab' f:  
Chroma subsampling             : 4:2:0 ^Yn{Vi2.  
Bit depth                      : 8 bits ?PSm) ~ Oa  
Scan type                      : Progressive Y'Jb@l`$-  
Bits/(Pixel*Frame)             : 0.143 pP)0 l  
Stream size                    : 1.14 GiB (91%) ,l` q  
Writing library                : x264 core 120 r 06}@7  
Encoding settings              : cabac=1 / ref=4 / deblock=1:0:0 / analyse=0x3:0x113 / me=hex / subme=7 / psy=1 / psy_rd=1.00:0.00 / mixed_ref=1 / me_range=16 / chroma_me=1 / trellis=0 / 8x8dct=1 / cqm=0 / deadzone=21,11 / fast_pskip=1 / chroma_qp_offset=-2 / threads=3 / sliced_threads=0 / nr=0 / decimate=1 / interlaced=0 / bluray_compat=0 / constrained_intra=0 / bframes=0 / weightp=2 / keyint=250 / keyint_min=25 / scenecut=40 / intra_refresh=0 / rc_lookahead=40 / rc=crf / mbtree=1 / crf=22.5 / qcomp=0.60 / qpmin=0 / qpmax=69 / qpstep=4 / ip_ratio=1.40 / aq=1:1.00 zie])_8|h  
Default                        : Yes *#frbV?;  
Forced                         : No
Audio Lqbu]  
ID                             : 2 ho@f}4jhQ3  
Format                         : Vorbis IX^k<Jqr  
Format settings, Floor         : 1 %dS7u$Rnh  
Codec ID                       : A_VORBIS rFn;z}J2  
Duration                       : 2h 3mn co<){5zOT  
Bit rate mode                  : Variable or ~o'  
Bit rate                       : 96.0 Kbps *6q8kQsz^1  
Channel(s)                     : 2 channels IJ o`O  
Sampling rate                  : 48.0 KHz ||}|=Sz  
Compression mode               : Lossy 7~eo^/Pb S  
Stream size                    : 85.0 MiB (7%) }!& w<wR  
Writing library                : libVorbis (Schaufenugget) (20101101 (Schaufenugget)) .?_wcp=  
Default                        : Yes av gGz8  
Forced                         : No 4G@vO {$  
Writing application            : Lavc53.42.0
Cr4shdN34  
~DPg):cZ  
此帖售价 8 金钱,已有 27 人购买 [记录] [购买]
购买后,将显示帖子中所有出售内容。
若发现会员采用欺骗的方法获取财富,请立刻举报,我们会对会员处以2-N倍的罚金,严重者封掉ID!
此段为出售的内容,购买后显示
p2!x8`IB*  
PFG):i-?  
2条评分金钱+10威望+2
Andy 威望 +2 - 2014-07-17
Andy 金钱 +10 - 2014-07-17
离线六月的天

发帖
514
金钱
539
威望
40
贡献值
9
交易币
464
只看该作者 1楼 发表于: 2014-07-17
沙发沙发,,,谢谢楼主的分享,哈
老迈最帅

发帖
2894
金钱
59589
威望
727
贡献值
479
交易币
3807
只看该作者 2楼 发表于: 2014-07-17
离线野生动物

发帖
477
金钱
212
威望
20
贡献值
3
交易币
2
只看该作者 3楼 发表于: 2014-07-17
谢谢楼主分享啦
离线390348839

发帖
1033
金钱
11182
威望
293
贡献值
139
交易币
1375
只看该作者 4楼 发表于: 2014-07-17
感觉好碉堡的杨志!
离线耶稣

发帖
7190
金钱
276094
威望
2509
贡献值
1669
交易币
11317
只看该作者 5楼 发表于: 2014-07-17
嗯,下来看看



离线luisto

发帖
713
金钱
98
威望
85
贡献值
36
交易币
837
只看该作者 6楼 发表于: 2014-07-17
正好需要,收了
离线michael0829

发帖
955
金钱
9949
威望
90
贡献值
70
交易币
1204
只看该作者 7楼 发表于: 2014-07-17
辛苦了.谢谢分享
I Love You Michael Jackson Forever!
I Just Can't Stop Loving You Michel!

发帖
2612
金钱
69108
威望
1931
贡献值
703
交易币
3902
只看该作者 8楼 发表于: 2014-07-17
谢谢分享
迈克尔杰克逊纪念博客
http://blog.sina.com.cn/u/1879209312

发帖
706
金钱
3072
威望
203
贡献值
51
交易币
771
只看该作者 9楼 发表于: 2014-07-17
谢谢幽灵!
快速回复
限100 字节
 
上一个 下一个