论坛风格切换切换到宽版
  • 5785阅读
  • 29回复

1988.Bad演唱会.London(7月16日).480p.x264.29fps-MSZ压制【百度盘】 [复制链接]

上一主题 下一主题
离线mjghosts
 

发帖
8256
金钱
219439
威望
9187
贡献值
2734
交易币
4791
只看楼主 倒序阅读 楼主  发表于: 2014-07-17
下载链接请直转! VbMud]40F  
片源:官方产品
|(2#KMEWa  
lkly2|wA  
这是个无优化的直接压制版本,内容与HappyLee的版本一样,大小也差不多,仅供认为有需要的少数人。 S:Jg#1rww-  
想要专业优化压制版请转至:http://www.mjsunny.com/read.php?tid=61039
Hz[1c4)'F  
)f8;ze  
对比图(左MSZ,右HL): _L` uC jA  
LFqY2,#i  
C[hNngb7R  
avM8-&h  
O!hp=`B,jf  
K'e,9P{  
CB,2BTtRE  
'p\&Mc_Gu  
General =R 4]Kf  
Unique ID                      : 220418950284484459979866942911848828272 (0xA5D3254A63773593A3E532FEBD96CD70) !fd>wvJ,:  
Complete name                  : E:\[MJSHOWZONE]1988.Bad演唱会.London(16th, July).480p.x264.29fps.mkv !4gHv4v ;  
Format                         : Matroska 9z{g3m70@  
Format version                 : Version 2 4p+Veo6B  
File size                      : 1.24 GiB Rq e|7/As  
Duration                       : 2h 3mn fv+d3s?h  
Overall bit rate mode          : Variable ntB#2S  
Overall bit rate               : 1 439 Kbps e-UWbn'~  
Writing application            : Kirara Encoder Nu3IYS5&  
Writing library                : Kirara Encoder
Video %C #Ps   
ID                             : 1 0-aaLC~Z>  
Format                         : AVC ( xzruI5P  
Format/Info                    : Advanced Video Codec 6vxRam6[??  
Format profile                 : High@L4.1 4 #KC\C  
Format settings, CABAC         : Yes ;;rx)|\<R  
Format settings, ReFrames      : 4 frames I![/bwObG  
Codec ID                       : V_MPEG4/ISO/AVC xXI WEZA  
Duration                       : 2h 3mn _*[vKS A&  
Bit rate                       : 1 314 Kbps bA$ElKT  
Width                          : 640 pixels `s\[X-j]  
Height                         : 480 pixels z#|Auc0  
Display aspect ratio           : 4:3 >Wx9a"H^(  
Frame rate mode                : Constant a #s Nd  
Frame rate                     : 29.970 fps qK@,O \  
Color space                    : YUV `*yOc6i]  
Chroma subsampling             : 4:2:0 bO6cv{>x  
Bit depth                      : 8 bits qz Hsqlof  
Scan type                      : Progressive E5|GP  
Bits/(Pixel*Frame)             : 0.143 )' ,dP)b  
Stream size                    : 1.14 GiB (91%) ?}W#j  
Writing library                : x264 core 120 < 0S\P=\  
Encoding settings              : cabac=1 / ref=4 / deblock=1:0:0 / analyse=0x3:0x113 / me=hex / subme=7 / psy=1 / psy_rd=1.00:0.00 / mixed_ref=1 / me_range=16 / chroma_me=1 / trellis=0 / 8x8dct=1 / cqm=0 / deadzone=21,11 / fast_pskip=1 / chroma_qp_offset=-2 / threads=3 / sliced_threads=0 / nr=0 / decimate=1 / interlaced=0 / bluray_compat=0 / constrained_intra=0 / bframes=0 / weightp=2 / keyint=250 / keyint_min=25 / scenecut=40 / intra_refresh=0 / rc_lookahead=40 / rc=crf / mbtree=1 / crf=22.5 / qcomp=0.60 / qpmin=0 / qpmax=69 / qpstep=4 / ip_ratio=1.40 / aq=1:1.00 W$l4@A  
Default                        : Yes x 0vW9*&  
Forced                         : No
Audio JlE+CAny  
ID                             : 2 2JeEmG9  
Format                         : Vorbis ; +Ie<oW  
Format settings, Floor         : 1 |\"%Dy[m  
Codec ID                       : A_VORBIS ,y/m5-D!  
Duration                       : 2h 3mn u`-:'@4  
Bit rate mode                  : Variable n4"xVDL  
Bit rate                       : 96.0 Kbps -wNhbV2  
Channel(s)                     : 2 channels $m+Pl[s  
Sampling rate                  : 48.0 KHz mryT%zSlM  
Compression mode               : Lossy F:0 E- z'  
Stream size                    : 85.0 MiB (7%) gKPqU@$*  
Writing library                : libVorbis (Schaufenugget) (20101101 (Schaufenugget)) aKRnj!4z  
Default                        : Yes {gDoktC@M  
Forced                         : No y>g`R^^  
Writing application            : Lavc53.42.0
5(Xq58nhxI  
j2n 4; m  
此帖售价 8 金钱,已有 27 人购买 [记录] [购买]
购买后,将显示帖子中所有出售内容。
若发现会员采用欺骗的方法获取财富,请立刻举报,我们会对会员处以2-N倍的罚金,严重者封掉ID!
此段为出售的内容,购买后显示
|l?*' =  
jwwst\f  
2条评分金钱+10威望+2
Andy 威望 +2 - 2014-07-17
Andy 金钱 +10 - 2014-07-17
离线六月的天

发帖
515
金钱
542
威望
40
贡献值
9
交易币
465
只看该作者 1楼 发表于: 2014-07-17
沙发沙发,,,谢谢楼主的分享,哈
老迈最帅

发帖
2894
金钱
59589
威望
727
贡献值
479
交易币
3807
只看该作者 2楼 发表于: 2014-07-17
离线野生动物

发帖
477
金钱
212
威望
20
贡献值
3
交易币
2
只看该作者 3楼 发表于: 2014-07-17
谢谢楼主分享啦
离线390348839

发帖
1033
金钱
11182
威望
293
贡献值
139
交易币
1375
只看该作者 4楼 发表于: 2014-07-17
感觉好碉堡的杨志!
离线耶稣

发帖
7194
金钱
276651
威望
2518
贡献值
1671
交易币
11329
只看该作者 5楼 发表于: 2014-07-17
嗯,下来看看



离线luisto

发帖
713
金钱
98
威望
85
贡献值
36
交易币
837
只看该作者 6楼 发表于: 2014-07-17
正好需要,收了
离线michael0829

发帖
955
金钱
10149
威望
90
贡献值
70
交易币
1204
只看该作者 7楼 发表于: 2014-07-17
辛苦了.谢谢分享
I Love You Michael Jackson Forever!
I Just Can't Stop Loving You Michel!

发帖
2615
金钱
69251
威望
1959
贡献值
716
交易币
3909
只看该作者 8楼 发表于: 2014-07-17
谢谢分享
迈克尔杰克逊纪念博客
http://blog.sina.com.cn/u/1879209312

发帖
706
金钱
3072
威望
203
贡献值
51
交易币
771
只看该作者 9楼 发表于: 2014-07-17
谢谢幽灵!
快速回复
限100 字节
 
上一个 下一个