论坛风格切换切换到宽版
  • 6806阅读
  • 29回复

1988.Bad演唱会.London(7月16日).480p.x264.29fps-MSZ压制【百度盘】 [复制链接]

上一主题 下一主题
离线mjghosts
 

发帖
8279
金钱
220440
威望
9195
贡献值
2742
交易币
4818
只看楼主 倒序阅读 楼主  发表于: 2014-07-17
下载链接请直转! 1exfCm  
片源:官方产品
(h,Ws-O  
'[f Zt#  
这是个无优化的直接压制版本,内容与HappyLee的版本一样,大小也差不多,仅供认为有需要的少数人。 z_l. V/G)  
想要专业优化压制版请转至:http://www.mjsunny.com/read.php?tid=61039
1X&B:_  
!G+u j(  
对比图(左MSZ,右HL): 7>,rvW:]  
3dm'xe tM  
[h HG .  
6?o>{e7n^  
RGp'b  
w1i?# !|  
~6d5zI4\  
Le&;g4%  
General q"nGy#UWR  
Unique ID                      : 220418950284484459979866942911848828272 (0xA5D3254A63773593A3E532FEBD96CD70) Z,aGtJ.a'9  
Complete name                  : E:\[MJSHOWZONE]1988.Bad演唱会.London(16th, July).480p.x264.29fps.mkv |-61(X.  
Format                         : Matroska 38wq (  
Format version                 : Version 2 2AK}D%jfc  
File size                      : 1.24 GiB uV77E*+7\  
Duration                       : 2h 3mn -tyaE  
Overall bit rate mode          : Variable <Uwwux<v  
Overall bit rate               : 1 439 Kbps jL_5]pzJ  
Writing application            : Kirara Encoder FmI;lVF0j  
Writing library                : Kirara Encoder
Video Tf[dZ(+\  
ID                             : 1 %zflx~  
Format                         : AVC kf K[u/<i  
Format/Info                    : Advanced Video Codec 0BDS_Rx  
Format profile                 : High@L4.1 {(0Id!  
Format settings, CABAC         : Yes +{*)}[w{x  
Format settings, ReFrames      : 4 frames b9#m m  
Codec ID                       : V_MPEG4/ISO/AVC DKHM\yt  
Duration                       : 2h 3mn ;sQ2 0 B'  
Bit rate                       : 1 314 Kbps -( Kh.h  
Width                          : 640 pixels |*1xrM:v~  
Height                         : 480 pixels D!me%;  
Display aspect ratio           : 4:3 b"3uD`  
Frame rate mode                : Constant f}blB?e  
Frame rate                     : 29.970 fps C[0MA ,^  
Color space                    : YUV  ]CIe~q  
Chroma subsampling             : 4:2:0 f-&ATTx`J  
Bit depth                      : 8 bits 1 yJ75/  
Scan type                      : Progressive G g(NGT  
Bits/(Pixel*Frame)             : 0.143 $$\V 2%v  
Stream size                    : 1.14 GiB (91%) (H2ylMpQt  
Writing library                : x264 core 120 6N?#b66  
Encoding settings              : cabac=1 / ref=4 / deblock=1:0:0 / analyse=0x3:0x113 / me=hex / subme=7 / psy=1 / psy_rd=1.00:0.00 / mixed_ref=1 / me_range=16 / chroma_me=1 / trellis=0 / 8x8dct=1 / cqm=0 / deadzone=21,11 / fast_pskip=1 / chroma_qp_offset=-2 / threads=3 / sliced_threads=0 / nr=0 / decimate=1 / interlaced=0 / bluray_compat=0 / constrained_intra=0 / bframes=0 / weightp=2 / keyint=250 / keyint_min=25 / scenecut=40 / intra_refresh=0 / rc_lookahead=40 / rc=crf / mbtree=1 / crf=22.5 / qcomp=0.60 / qpmin=0 / qpmax=69 / qpstep=4 / ip_ratio=1.40 / aq=1:1.00 gY%OhYtF2  
Default                        : Yes ot0U-G(  
Forced                         : No
Audio &M$Bt} <  
ID                             : 2 !*5_pGe  
Format                         : Vorbis dK`(BA{`3  
Format settings, Floor         : 1 7MoR9,(  
Codec ID                       : A_VORBIS  w"BIv9N  
Duration                       : 2h 3mn X:U=MWc>  
Bit rate mode                  : Variable x\6] ;SXX  
Bit rate                       : 96.0 Kbps & \JLTw  
Channel(s)                     : 2 channels Shs')Zs bv  
Sampling rate                  : 48.0 KHz s:3aRQ%  
Compression mode               : Lossy UmYD]  
Stream size                    : 85.0 MiB (7%) &<`-:x12_  
Writing library                : libVorbis (Schaufenugget) (20101101 (Schaufenugget)) Ndo}Tk!  
Default                        : Yes o1Ne+Jt  
Forced                         : No KuIkul9^%  
Writing application            : Lavc53.42.0
nT_*EC<.  
m\_+)eI|  
此帖售价 8 金钱,已有 27 人购买 [记录] [购买]
购买后,将显示帖子中所有出售内容。
若发现会员采用欺骗的方法获取财富,请立刻举报,我们会对会员处以2-N倍的罚金,严重者封掉ID!
此段为出售的内容,购买后显示
?){0-A4  
3(aRs?/ O  
2条评分金钱+10威望+2
Andy 威望 +2 - 2014-07-17
Andy 金钱 +10 - 2014-07-17
离线六月的天

发帖
515
金钱
536
威望
40
贡献值
9
交易币
465
只看该作者 1楼 发表于: 2014-07-17
沙发沙发,,,谢谢楼主的分享,哈
老迈最帅

发帖
2894
金钱
59725
威望
727
贡献值
479
交易币
3807
只看该作者 2楼 发表于: 2014-07-17
离线野生动物

发帖
477
金钱
212
威望
20
贡献值
3
交易币
2
只看该作者 3楼 发表于: 2014-07-17
谢谢楼主分享啦
离线390348839

发帖
1033
金钱
11157
威望
293
贡献值
139
交易币
1375
只看该作者 4楼 发表于: 2014-07-17
感觉好碉堡的杨志!
在线耶稣

发帖
7284
金钱
290907
威望
2625
贡献值
1720
交易币
11543
只看该作者 5楼 发表于: 2014-07-17
嗯,下来看看


离线luisto

发帖
719
金钱
82
威望
85
贡献值
36
交易币
843
只看该作者 6楼 发表于: 2014-07-17
正好需要,收了
离线michael0829

发帖
960
金钱
11849
威望
90
贡献值
70
交易币
1209
只看该作者 7楼 发表于: 2014-07-17
辛苦了.谢谢分享
I Love You Michael Jackson Forever!
I Just Can't Stop Loving You Michel!

发帖
2620
金钱
69351
威望
1959
贡献值
716
交易币
3914
只看该作者 8楼 发表于: 2014-07-17
谢谢分享
迈克尔杰克逊纪念博客
http://blog.sina.com.cn/u/1879209312

发帖
706
金钱
3072
威望
203
贡献值
51
交易币
771
只看该作者 9楼 发表于: 2014-07-17
谢谢幽灵!
快速回复
限100 字节
 
上一个 下一个