论坛风格切换切换到宽版
  • 8485阅读
  • 29回复

1988.Bad演唱会.London(7月16日).480p.x264.29fps-MSZ压制【百度盘】 [复制链接]

上一主题 下一主题
离线mjghosts
 

发帖
8279
金钱
225793
威望
9196
贡献值
2742
交易币
4818
只看楼主 倒序阅读 楼主  发表于: 2014-07-17
下载链接请直转! _xM}*_<VP  
片源:官方产品
yQ+C}8r5  
!J+< M~o}  
这是个无优化的直接压制版本,内容与HappyLee的版本一样,大小也差不多,仅供认为有需要的少数人。 FrD,)Ad8Q  
想要专业优化压制版请转至:http://www.mjsunny.com/read.php?tid=61039
s~Od(,K  
4).>b3OhX  
对比图(左MSZ,右HL): #35@YMF  
1f^4J~{  
KW.QVBuVO#  
#c ndq[H  
`2@t) :  
:+SpZ>  
uYPdmrPB?l  
5CxD ys&<  
General -O2ZrJ!q  
Unique ID                      : 220418950284484459979866942911848828272 (0xA5D3254A63773593A3E532FEBD96CD70) X$zlR) Re  
Complete name                  : E:\[MJSHOWZONE]1988.Bad演唱会.London(16th, July).480p.x264.29fps.mkv dlC)&Ai  
Format                         : Matroska }!\ZJoa  
Format version                 : Version 2  UfEF>@0  
File size                      : 1.24 GiB 1e*+k$-{  
Duration                       : 2h 3mn ^WP`;e  
Overall bit rate mode          : Variable Y25S:XHk9  
Overall bit rate               : 1 439 Kbps V2cLwQ'0  
Writing application            : Kirara Encoder s<[%7 6Y!  
Writing library                : Kirara Encoder
Video 7.$0LN/a!Z  
ID                             : 1 L8N`<a5T  
Format                         : AVC Juj"cjob  
Format/Info                    : Advanced Video Codec +0\BI<aG  
Format profile                 : High@L4.1 k'{'6JR  
Format settings, CABAC         : Yes lN#W  
Format settings, ReFrames      : 4 frames I}Uj"m`>  
Codec ID                       : V_MPEG4/ISO/AVC wl H6  
Duration                       : 2h 3mn __M(dN(^  
Bit rate                       : 1 314 Kbps hRTw8-wy:  
Width                          : 640 pixels  P_6oMR  
Height                         : 480 pixels @dei} !e  
Display aspect ratio           : 4:3 5'wWj}0!%  
Frame rate mode                : Constant 9`  
Frame rate                     : 29.970 fps KGb:NQ=O6i  
Color space                    : YUV ;Gixu9u'  
Chroma subsampling             : 4:2:0 k?]`PUrV  
Bit depth                      : 8 bits >dO1)  
Scan type                      : Progressive %;S T7  
Bits/(Pixel*Frame)             : 0.143 D>tex/Of3  
Stream size                    : 1.14 GiB (91%) Lv;% z  
Writing library                : x264 core 120 EHI %QT  
Encoding settings              : cabac=1 / ref=4 / deblock=1:0:0 / analyse=0x3:0x113 / me=hex / subme=7 / psy=1 / psy_rd=1.00:0.00 / mixed_ref=1 / me_range=16 / chroma_me=1 / trellis=0 / 8x8dct=1 / cqm=0 / deadzone=21,11 / fast_pskip=1 / chroma_qp_offset=-2 / threads=3 / sliced_threads=0 / nr=0 / decimate=1 / interlaced=0 / bluray_compat=0 / constrained_intra=0 / bframes=0 / weightp=2 / keyint=250 / keyint_min=25 / scenecut=40 / intra_refresh=0 / rc_lookahead=40 / rc=crf / mbtree=1 / crf=22.5 / qcomp=0.60 / qpmin=0 / qpmax=69 / qpstep=4 / ip_ratio=1.40 / aq=1:1.00 /`6Y-8e2  
Default                        : Yes GZ=7)eJ~<  
Forced                         : No
Audio ?X $#J'U;  
ID                             : 2 Nk JOD3>U  
Format                         : Vorbis Q]h.{nN#PK  
Format settings, Floor         : 1 sF. oZ>  
Codec ID                       : A_VORBIS FS'|e?WU  
Duration                       : 2h 3mn O$eNG$7  
Bit rate mode                  : Variable r~[Bzw"c  
Bit rate                       : 96.0 Kbps xF8U )j !  
Channel(s)                     : 2 channels 42oW]b%P{;  
Sampling rate                  : 48.0 KHz .IU\wN  
Compression mode               : Lossy 9 _oAs"w  
Stream size                    : 85.0 MiB (7%) %f?Z/Wn  
Writing library                : libVorbis (Schaufenugget) (20101101 (Schaufenugget)) <GWzdj?  
Default                        : Yes r!<)CT}D  
Forced                         : No 3iIURSG@  
Writing application            : Lavc53.42.0
|SfCuV#g/<  
vlqL  
此帖售价 8 金钱,已有 27 人购买 [记录] [购买]
购买后,将显示帖子中所有出售内容。
若发现会员采用欺骗的方法获取财富,请立刻举报,我们会对会员处以2-N倍的罚金,严重者封掉ID!
此段为出售的内容,购买后显示
 y 2C Jk~  
>} E  
2条评分金钱+10威望+2
Andy 威望 +2 - 2014-07-17
Andy 金钱 +10 - 2014-07-17
离线六月的天

发帖
517
金钱
560
威望
40
贡献值
9
交易币
467
只看该作者 1楼 发表于: 2014-07-17
沙发沙发,,,谢谢楼主的分享,哈
老迈最帅

发帖
2895
金钱
59802
威望
727
贡献值
479
交易币
3808
只看该作者 2楼 发表于: 2014-07-17
离线野生动物

发帖
477
金钱
212
威望
20
贡献值
3
交易币
2
只看该作者 3楼 发表于: 2014-07-17
谢谢楼主分享啦
离线390348839

发帖
1038
金钱
11113
威望
293
贡献值
139
交易币
1380
只看该作者 4楼 发表于: 2014-07-17
感觉好碉堡的杨志!
离线耶稣

发帖
7297
金钱
299271
威望
2632
贡献值
1723
交易币
11568
只看该作者 5楼 发表于: 2014-07-17
嗯,下来看看


离线luisto

发帖
719
金钱
82
威望
85
贡献值
36
交易币
843
只看该作者 6楼 发表于: 2014-07-17
正好需要,收了
离线michael0829

发帖
961
金钱
13701
威望
90
贡献值
70
交易币
1210
只看该作者 7楼 发表于: 2014-07-17
辛苦了.谢谢分享
I Love You Michael Jackson Forever!
I Just Can't Stop Loving You Michel!

发帖
2627
金钱
69906
威望
1959
贡献值
716
交易币
3921
只看该作者 8楼 发表于: 2014-07-17
谢谢分享
迈克尔杰克逊纪念博客
http://blog.sina.com.cn/u/1879209312

发帖
706
金钱
3072
威望
203
贡献值
51
交易币
771
只看该作者 9楼 发表于: 2014-07-17
谢谢幽灵!
快速回复
限100 字节
 
上一个 下一个