论坛风格切换切换到宽版
  • 6218阅读
  • 46回复

1996.HIStory演唱会.Seoul_v2.480p.x264.29fps-MSZ压制【百度盘】 [复制链接]

上一主题 下一主题
离线mjghosts
 

发帖
8278
金钱
220226
威望
9195
贡献值
2742
交易币
4817
只看楼主 倒序阅读 楼主  发表于: 2014-07-19
下载链接请直转! ~0NZx8qG   
片源:官方字幕版(瑞典歌迷提供) (2(hl-- 'n  
|&JL6hN  
此前发布过ppz2001的VHS压制版本: 0[];c$r<  
http://www.mjsunny.com/read.php?tid=59706 b6lL8KOu  
s|%</fMt9  
这里想给大家分享一下我个人对质量高低的心得,共有4点: 5v3B8 @CsA  
1,清晰度 l^_X?L@  
2,色彩 -K0tK~%q  
3,流畅度 ;2iZX=P`n  
4,音质 !y),| #7P  
J+TYm%A;-  
任缺一点都请谨慎称某视频为“高质量版本”,其中第3点往往被忽略(笔者却认为十分重要)。当然也有不太在乎音质的童鞋。之前压制的版本在色彩和音质上已经算得上中上水平,但清晰和流畅度欠佳。这次采用的片源在以上提到的4点都比较出色,因此决定再献上这个版本供广大爱好者选择,画面四周的黑边经过裁剪,在保留画面完整的情况下裁剪掉多余的黑边部分,为求给大家更好的观赏效果。 J7xZo=@k  
|gaZq!l  
]* Hz'  
*dTw$T#  
M]2 c-  
RS1oPY  
+!<`$+W  
IIPf5 Z}A  
ieI-_]|[  
General )t4C*+9<U  
Unique ID                      : 317622113788547716325171892125397577676 (0xEEF3CB43391E5B8F6D736F33BE766FCC) L:<'TXsRA  
Complete name                  : E:\[MJSHOWZONE]1996.HIStory演唱会.Seoul_v2.480p.x264.29fps.mkv N9Ml&*%oX{  
Format                         : Matroska ;W].j%]L e  
Format version                 : Version 2 bhmjH(.t  
File size                      : 1.38 GiB fW _.  
Duration                       : 1h 59mn ;Y\,2b, xh  
Overall bit rate mode          : Variable 8H?AL RG  
Overall bit rate               : 1 648 Kbps =6&D4~R  
Writing application            : Kirara Encoder 'Aj>+H<B  
Writing library                : Kirara Encoder
Video ~py0Vx,F  
ID                             : 1 A#&qoZ(C  
Format                         : AVC %PbqASm  
Format/Info                    : Advanced Video Codec yX3H&F6  
Format profile                 : High@L4.1 jDXGm[U  
Format settings, CABAC         : Yes #UCQiQfP  
Format settings, ReFrames      : 4 frames  Cmx2/N  
Codec ID                       : V_MPEG4/ISO/AVC &Z;8J @  
Duration                       : 1h 59mn :CST!+)o  
Bit rate                       : 1 520 Kbps %>9+1lUhV  
Width                          : 640 pixels ?WQd  
Height                         : 480 pixels H")N_BB  
Display aspect ratio           : 4:3 }]g95xT  
Frame rate mode                : Constant qaMZfA  
Frame rate                     : 29.970 fps VM!-I8t  
Color space                    : YUV 'Vm5Cs$  
Chroma subsampling             : 4:2:0 ;# R3k  
Bit depth                      : 8 bits f[JI/H>  
Scan type                      : Progressive Z7/vrME6  
Bits/(Pixel*Frame)             : 0.165 |`_ <@b  
Stream size                    : 1.27 GiB (92%) :kWZSN8.D  
Writing library                : x264 core 120 I$aXnd6)  
Encoding settings              : cabac=1 / ref=4 / deblock=1:0:0 / analyse=0x3:0x113 / me=hex / subme=7 / psy=1 / psy_rd=1.00:0.00 / mixed_ref=1 / me_range=16 / chroma_me=1 / trellis=0 / 8x8dct=1 / cqm=0 / deadzone=21,11 / fast_pskip=1 / chroma_qp_offset=-2 / threads=3 / sliced_threads=0 / nr=0 / decimate=1 / interlaced=0 / bluray_compat=0 / constrained_intra=0 / bframes=0 / weightp=2 / keyint=250 / keyint_min=25 / scenecut=40 / intra_refresh=0 / rc_lookahead=40 / rc=crf / mbtree=1 / crf=22.5 / qcomp=0.60 / qpmin=0 / qpmax=69 / qpstep=4 / ip_ratio=1.40 / aq=1:1.00 dzgs%qtK  
Default                        : Yes ! (B_EM  
Forced                         : No
Audio M{*kB2jr  
ID                             : 2 La\Q'0  
Format                         : Vorbis S2Zx &D/_  
Format settings, Floor         : 1 ]t*33  
Codec ID                       : A_VORBIS [C~fBf5  
Duration                       : 1h 59mn %yeu"  
Bit rate mode                  : Variable *E.LP1xP  
Bit rate                       : 96.0 Kbps Cb4_ ?OR0  
Channel(s)                     : 2 channels <Kg2$lu(_`  
Sampling rate                  : 48.0 KHz 6s5yyy=L%~  
Compression mode               : Lossy 9j0o&Xn  
Stream size                    : 82.1 MiB (6%) `UQEXoB)  
Writing library                : libVorbis (Schaufenugget) (20101101 (Schaufenugget)) &atyDFJ'  
Default                        : Yes e^8BV;+c  
Forced                         : No j`9Qzi1  
Writing application            : Lavc53.42.0 CdL.?^  
mX;H((  
GW/WUzK  
此帖售价 3 金钱,已有 36 人购买 [记录] [购买]
购买后,将显示帖子中所有出售内容。
若发现会员采用欺骗的方法获取财富,请立刻举报,我们会对会员处以2-N倍的罚金,严重者封掉ID!
此段为出售的内容,购买后显示
!i Jipe5  
x.UaQ |F  
5v|EAjB6o  
7条评分贡献值+5金钱+40威望+12
lishuang11 贡献值 +5 大赞 2014-07-22
lishuang11 威望 +5 大赞 2014-07-22
lishuang11 金钱 +5 大赞 2014-07-22
HappyLee 威望 +5 很棒,感谢压制! 2014-07-19
HappyLee 金钱 +25 很棒,感谢压制! 2014-07-19
Andy 威望 +2 - 2014-07-19
Andy 金钱 +10 - 2014-07-19
离线野生动物

发帖
477
金钱
212
威望
20
贡献值
3
交易币
2
只看该作者 1楼 发表于: 2014-07-19
谢谢楼主分享啦

发帖
2894
金钱
59665
威望
727
贡献值
479
交易币
3807
只看该作者 2楼 发表于: 2014-07-19
离线耶稣

发帖
7281
金钱
289450
威望
2624
贡献值
1719
交易币
11536
只看该作者 3楼 发表于: 2014-07-19
谢谢分享  


离线390348839

发帖
1033
金钱
11157
威望
293
贡献值
139
交易币
1375
只看该作者 4楼 发表于: 2014-07-19
又要回复啊,回什么好

发帖
855
金钱
5102
威望
173
贡献值
43
交易币
1033
只看该作者 5楼 发表于: 2014-07-19
好东西  狠狠地赞一个

发帖
808
金钱
12722
威望
235
贡献值
115
交易币
1156
只看该作者 6楼 发表于: 2014-07-19
何谓字幕版同问

发帖
706
金钱
3072
威望
203
贡献值
51
交易币
771
只看该作者 7楼 发表于: 2014-07-19
需要洗掉之前那个么?
离线musickingdom

发帖
842
金钱
52
威望
109
贡献值
56
交易币
1041
只看该作者 8楼 发表于: 2014-07-19
终于除了这场压制,不过还是对片源不满意。
正在建设的土豆小站萌萌哒~http://www.tudou.com/home/_68623032/
离线mjghosts

发帖
8278
金钱
220226
威望
9195
贡献值
2742
交易币
4817
只看该作者 9楼 发表于: 2014-07-19
难道那么多人不知道韩国历史有个有字幕版有个无字幕版吗?
快速回复
限100 字节
 
上一个 下一个