论坛风格切换切换到宽版
  • 9685阅读
  • 47回复

1996.HIStory演唱会.Seoul_v2.480p.x264.29fps-MSZ压制【百度盘】 [复制链接]

上一主题 下一主题
离线mjghosts
 

发帖
8279
金钱
225793
威望
9196
贡献值
2742
交易币
4818
只看楼主 倒序阅读 楼主  发表于: 2014-07-19
下载链接请直转! ' V*}d  
片源:官方字幕版(瑞典歌迷提供) lw?C:-m  
6 OvH"/X4  
此前发布过ppz2001的VHS压制版本: -*Qg^1]i+  
http://www.mjsunny.com/read.php?tid=59706 gbh/ `  
u`oJ3mS;  
这里想给大家分享一下我个人对质量高低的心得,共有4点: d{(Rs.GuP  
1,清晰度 HM"(cB(n`  
2,色彩 5GPAt  
3,流畅度 2)n%rvCQ  
4,音质 /w2IL7}  
KK-+vq  
任缺一点都请谨慎称某视频为“高质量版本”,其中第3点往往被忽略(笔者却认为十分重要)。当然也有不太在乎音质的童鞋。之前压制的版本在色彩和音质上已经算得上中上水平,但清晰和流畅度欠佳。这次采用的片源在以上提到的4点都比较出色,因此决定再献上这个版本供广大爱好者选择,画面四周的黑边经过裁剪,在保留画面完整的情况下裁剪掉多余的黑边部分,为求给大家更好的观赏效果。 Aqg$q* Y  
F0r5$Pl*  
]Rp<64I o  
6jl{^dI  
f\~w!-  
F{}:e QD  
p4b6TI9;  
qEkhgJqk  
Me;Nn$'%  
General 0E&XD&D  
Unique ID                      : 317622113788547716325171892125397577676 (0xEEF3CB43391E5B8F6D736F33BE766FCC) qZSW5lC0  
Complete name                  : E:\[MJSHOWZONE]1996.HIStory演唱会.Seoul_v2.480p.x264.29fps.mkv %,)Xi  
Format                         : Matroska 0+S'i82=M  
Format version                 : Version 2 ve= nh]N  
File size                      : 1.38 GiB 9}Zi_xK&|e  
Duration                       : 1h 59mn *|:]("i  
Overall bit rate mode          : Variable 93#wU})  
Overall bit rate               : 1 648 Kbps y<5xlN(+v  
Writing application            : Kirara Encoder |4a#O8d  
Writing library                : Kirara Encoder
Video nS1 D&;#Y  
ID                             : 1 Ws`P(WHm  
Format                         : AVC ^T|~L<A3  
Format/Info                    : Advanced Video Codec f"5vpU^5*  
Format profile                 : High@L4.1 PZ"=t!  
Format settings, CABAC         : Yes x AD:Z "  
Format settings, ReFrames      : 4 frames g%Ap<iT  
Codec ID                       : V_MPEG4/ISO/AVC u%S&EuX  
Duration                       : 1h 59mn 'kK}9VKl  
Bit rate                       : 1 520 Kbps :0j9  
Width                          : 640 pixels k#% BxT  
Height                         : 480 pixels U&|=dH]-  
Display aspect ratio           : 4:3 AxUj CerNf  
Frame rate mode                : Constant 7$+n"Cfm  
Frame rate                     : 29.970 fps )R+@vh#Q<$  
Color space                    : YUV SJ;u,XyWn  
Chroma subsampling             : 4:2:0 `UL #g![J  
Bit depth                      : 8 bits ~xpU<Pd*  
Scan type                      : Progressive v-J*PB.0p  
Bits/(Pixel*Frame)             : 0.165 "]Wrir?l  
Stream size                    : 1.27 GiB (92%) )uiYu3 I  
Writing library                : x264 core 120 2i*-ET  
Encoding settings              : cabac=1 / ref=4 / deblock=1:0:0 / analyse=0x3:0x113 / me=hex / subme=7 / psy=1 / psy_rd=1.00:0.00 / mixed_ref=1 / me_range=16 / chroma_me=1 / trellis=0 / 8x8dct=1 / cqm=0 / deadzone=21,11 / fast_pskip=1 / chroma_qp_offset=-2 / threads=3 / sliced_threads=0 / nr=0 / decimate=1 / interlaced=0 / bluray_compat=0 / constrained_intra=0 / bframes=0 / weightp=2 / keyint=250 / keyint_min=25 / scenecut=40 / intra_refresh=0 / rc_lookahead=40 / rc=crf / mbtree=1 / crf=22.5 / qcomp=0.60 / qpmin=0 / qpmax=69 / qpstep=4 / ip_ratio=1.40 / aq=1:1.00 mufi>}  
Default                        : Yes m.e+S,i  
Forced                         : No
Audio DW&%"$2  
ID                             : 2 Osncl5PD)  
Format                         : Vorbis ef8_w6i  
Format settings, Floor         : 1 n+ 1!/H=d  
Codec ID                       : A_VORBIS P7ktr?V0a  
Duration                       : 1h 59mn n.9k<  
Bit rate mode                  : Variable 4HX qRFUD  
Bit rate                       : 96.0 Kbps fDe4 [QQ8  
Channel(s)                     : 2 channels F:$Dz?F0v  
Sampling rate                  : 48.0 KHz lIR0jgP@z  
Compression mode               : Lossy g;p]lVx=>  
Stream size                    : 82.1 MiB (6%) *Nfn6lVB  
Writing library                : libVorbis (Schaufenugget) (20101101 (Schaufenugget)) >Hh8K<@NL  
Default                        : Yes Ub1?dk   
Forced                         : No bXN-q!  
Writing application            : Lavc53.42.0 iEDZ\\,  
 eiLtZQ  
6{O#!o*g  
此帖售价 3 金钱,已有 37 人购买 [记录] [购买]
购买后,将显示帖子中所有出售内容。
若发现会员采用欺骗的方法获取财富,请立刻举报,我们会对会员处以2-N倍的罚金,严重者封掉ID!
此段为出售的内容,购买后显示
>M` swEj  
3t(8uG<rL  
uO$ujbWZ  
7条评分贡献值+5金钱+40威望+12
lishuang11 贡献值 +5 大赞 2014-07-22
lishuang11 威望 +5 大赞 2014-07-22
lishuang11 金钱 +5 大赞 2014-07-22
HappyLee 威望 +5 很棒,感谢压制! 2014-07-19
HappyLee 金钱 +25 很棒,感谢压制! 2014-07-19
Andy 威望 +2 - 2014-07-19
Andy 金钱 +10 - 2014-07-19
离线野生动物

发帖
477
金钱
212
威望
20
贡献值
3
交易币
2
只看该作者 1楼 发表于: 2014-07-19
谢谢楼主分享啦

发帖
2895
金钱
59802
威望
727
贡献值
479
交易币
3808
只看该作者 2楼 发表于: 2014-07-19
离线耶稣

发帖
7297
金钱
299271
威望
2632
贡献值
1723
交易币
11568
只看该作者 3楼 发表于: 2014-07-19
谢谢分享  


离线390348839

发帖
1038
金钱
11113
威望
293
贡献值
139
交易币
1380
只看该作者 4楼 发表于: 2014-07-19
又要回复啊,回什么好

发帖
859
金钱
5063
威望
173
贡献值
43
交易币
1037
只看该作者 5楼 发表于: 2014-07-19
好东西  狠狠地赞一个

发帖
808
金钱
12722
威望
235
贡献值
115
交易币
1156
只看该作者 6楼 发表于: 2014-07-19
何谓字幕版同问

发帖
706
金钱
3072
威望
203
贡献值
51
交易币
771
只看该作者 7楼 发表于: 2014-07-19
需要洗掉之前那个么?
离线musickingdom

发帖
846
金钱
62
威望
109
贡献值
56
交易币
1045
只看该作者 8楼 发表于: 2014-07-19
终于除了这场压制,不过还是对片源不满意。
正在建设的土豆小站萌萌哒~http://www.tudou.com/home/_68623032/
离线mjghosts

发帖
8279
金钱
225793
威望
9196
贡献值
2742
交易币
4818
只看该作者 9楼 发表于: 2014-07-19
难道那么多人不知道韩国历史有个有字幕版有个无字幕版吗?
快速回复
限100 字节
 
上一个 下一个