论坛风格切换切换到宽版
  • 6514阅读
  • 46回复

1996.HIStory演唱会.Seoul_v2.480p.x264.29fps-MSZ压制【百度盘】 [复制链接]

上一主题 下一主题
离线mjghosts
 

发帖
8279
金钱
220938
威望
9195
贡献值
2742
交易币
4818
只看楼主 倒序阅读 楼主  发表于: 2014-07-19
下载链接请直转! "rv~I_zl  
片源:官方字幕版(瑞典歌迷提供) I |Oco?Q"  
@N=vmtLP  
此前发布过ppz2001的VHS压制版本: YvR bM  
http://www.mjsunny.com/read.php?tid=59706 &V].,12x  
BoD{fg  
这里想给大家分享一下我个人对质量高低的心得,共有4点: b1&tk~D  
1,清晰度 ]aX@(3G1s  
2,色彩 *2AD#yIKC  
3,流畅度 *z0!=>(  
4,音质 6VW *8~~Xy  
1%Xh[  
任缺一点都请谨慎称某视频为“高质量版本”,其中第3点往往被忽略(笔者却认为十分重要)。当然也有不太在乎音质的童鞋。之前压制的版本在色彩和音质上已经算得上中上水平,但清晰和流畅度欠佳。这次采用的片源在以上提到的4点都比较出色,因此决定再献上这个版本供广大爱好者选择,画面四周的黑边经过裁剪,在保留画面完整的情况下裁剪掉多余的黑边部分,为求给大家更好的观赏效果。 t G_4>-Y#w  
DbGS]k<$  
[LoQYDku  
4]o+)d.`(  
B;k'J:-"  
Qs1p  
ng}C$d . I  
g5y+F]'I  
'+9<[]  
General MG?,,8sO  
Unique ID                      : 317622113788547716325171892125397577676 (0xEEF3CB43391E5B8F6D736F33BE766FCC) 71{Q#%5U~  
Complete name                  : E:\[MJSHOWZONE]1996.HIStory演唱会.Seoul_v2.480p.x264.29fps.mkv OlT8pG5Oa  
Format                         : Matroska d5^^h<'  
Format version                 : Version 2  SCfp5W7~  
File size                      : 1.38 GiB )#i@DHt=  
Duration                       : 1h 59mn 3Y Mqp~4  
Overall bit rate mode          : Variable 1 !_p  
Overall bit rate               : 1 648 Kbps >Lo\?X~  
Writing application            : Kirara Encoder R%KF/1;/  
Writing library                : Kirara Encoder
Video (ODwdN7;  
ID                             : 1 {A/^;X{N^  
Format                         : AVC sex\dg<  
Format/Info                    : Advanced Video Codec ZxNTuGOB:  
Format profile                 : High@L4.1 r>fGj\#R =  
Format settings, CABAC         : Yes m}'_Poc  
Format settings, ReFrames      : 4 frames Zkd{EMW  
Codec ID                       : V_MPEG4/ISO/AVC j+h+Y|4J  
Duration                       : 1h 59mn Jb"FY:/Qv+  
Bit rate                       : 1 520 Kbps U"7o;q  
Width                          : 640 pixels j~N*TXkC  
Height                         : 480 pixels 7 {92_xRL  
Display aspect ratio           : 4:3 KF'fg R  
Frame rate mode                : Constant V<9L-7X 8  
Frame rate                     : 29.970 fps K ar!  
Color space                    : YUV <9&GOaJ  
Chroma subsampling             : 4:2:0 ?xwi2<zz  
Bit depth                      : 8 bits h*^JFZb  
Scan type                      : Progressive T ^eD  
Bits/(Pixel*Frame)             : 0.165 u L v  
Stream size                    : 1.27 GiB (92%) E @r &K  
Writing library                : x264 core 120 7lYf+&JZ  
Encoding settings              : cabac=1 / ref=4 / deblock=1:0:0 / analyse=0x3:0x113 / me=hex / subme=7 / psy=1 / psy_rd=1.00:0.00 / mixed_ref=1 / me_range=16 / chroma_me=1 / trellis=0 / 8x8dct=1 / cqm=0 / deadzone=21,11 / fast_pskip=1 / chroma_qp_offset=-2 / threads=3 / sliced_threads=0 / nr=0 / decimate=1 / interlaced=0 / bluray_compat=0 / constrained_intra=0 / bframes=0 / weightp=2 / keyint=250 / keyint_min=25 / scenecut=40 / intra_refresh=0 / rc_lookahead=40 / rc=crf / mbtree=1 / crf=22.5 / qcomp=0.60 / qpmin=0 / qpmax=69 / qpstep=4 / ip_ratio=1.40 / aq=1:1.00 >8>s K(S]  
Default                        : Yes .5SYN -@  
Forced                         : No
Audio LCXWpU j~  
ID                             : 2 \u6.*w5TI  
Format                         : Vorbis U$@}!X  
Format settings, Floor         : 1 iig4JP'h  
Codec ID                       : A_VORBIS ,9KnC=_y  
Duration                       : 1h 59mn ]"O* &  
Bit rate mode                  : Variable UZ-pN_!Z:  
Bit rate                       : 96.0 Kbps # dUi['  
Channel(s)                     : 2 channels 00>knCe6  
Sampling rate                  : 48.0 KHz b!/-9{  
Compression mode               : Lossy ,l,q;]C%  
Stream size                    : 82.1 MiB (6%) BNO+-ob-  
Writing library                : libVorbis (Schaufenugget) (20101101 (Schaufenugget)) E KJ2P$  
Default                        : Yes 5]kv1nQ  
Forced                         : No 1bDXv, nD  
Writing application            : Lavc53.42.0 lG[j,MDs  
:S-{a  
}P\6}cK  
此帖售价 3 金钱,已有 36 人购买 [记录] [购买]
购买后,将显示帖子中所有出售内容。
若发现会员采用欺骗的方法获取财富,请立刻举报,我们会对会员处以2-N倍的罚金,严重者封掉ID!
此段为出售的内容,购买后显示
_1YC9}  
fMM%,/b{  
?jvuTS2  
7条评分贡献值+5金钱+40威望+12
lishuang11 贡献值 +5 大赞 2014-07-22
lishuang11 威望 +5 大赞 2014-07-22
lishuang11 金钱 +5 大赞 2014-07-22
HappyLee 威望 +5 很棒,感谢压制! 2014-07-19
HappyLee 金钱 +25 很棒,感谢压制! 2014-07-19
Andy 威望 +2 - 2014-07-19
Andy 金钱 +10 - 2014-07-19
离线野生动物

发帖
477
金钱
212
威望
20
贡献值
3
交易币
2
只看该作者 1楼 发表于: 2014-07-19
谢谢楼主分享啦

发帖
2894
金钱
59745
威望
727
贡献值
479
交易币
3807
只看该作者 2楼 发表于: 2014-07-19
离线耶稣

发帖
7287
金钱
291979
威望
2626
贡献值
1721
交易币
11550
只看该作者 3楼 发表于: 2014-07-19
谢谢分享  


离线390348839

发帖
1033
金钱
11157
威望
293
贡献值
139
交易币
1375
只看该作者 4楼 发表于: 2014-07-19
又要回复啊,回什么好

发帖
859
金钱
5063
威望
173
贡献值
43
交易币
1037
只看该作者 5楼 发表于: 2014-07-19
好东西  狠狠地赞一个

发帖
808
金钱
12722
威望
235
贡献值
115
交易币
1156
只看该作者 6楼 发表于: 2014-07-19
何谓字幕版同问

发帖
706
金钱
3072
威望
203
贡献值
51
交易币
771
只看该作者 7楼 发表于: 2014-07-19
需要洗掉之前那个么?
离线musickingdom

发帖
843
金钱
47
威望
109
贡献值
56
交易币
1042
只看该作者 8楼 发表于: 2014-07-19
终于除了这场压制,不过还是对片源不满意。
正在建设的土豆小站萌萌哒~http://www.tudou.com/home/_68623032/
离线mjghosts

发帖
8279
金钱
220938
威望
9195
贡献值
2742
交易币
4818
只看该作者 9楼 发表于: 2014-07-19
难道那么多人不知道韩国历史有个有字幕版有个无字幕版吗?
快速回复
限100 字节
 
上一个 下一个