论坛风格切换切换到宽版
  • 4699阅读
  • 46回复

1996.HIStory演唱会.Seoul_v2.480p.x264.29fps-MSZ压制【百度盘】 [复制链接]

上一主题 下一主题
离线mjghosts
 

发帖
8255
金钱
219223
威望
9187
贡献值
2734
交易币
4790
只看楼主 倒序阅读 楼主  发表于: 2014-07-19
下载链接请直转! VvbFp  
片源:官方字幕版(瑞典歌迷提供) ~`;rNnOT3  
YKZrEP 4^  
此前发布过ppz2001的VHS压制版本: FxG7Pk+=  
http://www.mjsunny.com/read.php?tid=59706 K[\'"HyQ,X  
v <\A%  
这里想给大家分享一下我个人对质量高低的心得,共有4点: .V9e=yW!*  
1,清晰度 (oK^c- x  
2,色彩 ek aFN\  
3,流畅度 u.pxz8  
4,音质 jg  2qGC  
`;,Pb&W~  
任缺一点都请谨慎称某视频为“高质量版本”,其中第3点往往被忽略(笔者却认为十分重要)。当然也有不太在乎音质的童鞋。之前压制的版本在色彩和音质上已经算得上中上水平,但清晰和流畅度欠佳。这次采用的片源在以上提到的4点都比较出色,因此决定再献上这个版本供广大爱好者选择,画面四周的黑边经过裁剪,在保留画面完整的情况下裁剪掉多余的黑边部分,为求给大家更好的观赏效果。 d<w~jP\  
d &cU*  
bok.j  
/5AW?2)  
k@>\LR/v  
qVjWV$j  
6TWWl U^e  
)o1eWL}  
HC {XX>F^  
General IJOvnZ("A  
Unique ID                      : 317622113788547716325171892125397577676 (0xEEF3CB43391E5B8F6D736F33BE766FCC) r,SnXjp@  
Complete name                  : E:\[MJSHOWZONE]1996.HIStory演唱会.Seoul_v2.480p.x264.29fps.mkv `i ,_aFB|  
Format                         : Matroska 80}+MWdo  
Format version                 : Version 2 -${DW^txMZ  
File size                      : 1.38 GiB TjWE_Bq]g  
Duration                       : 1h 59mn Gz I~TWc+G  
Overall bit rate mode          : Variable r r`;W}3  
Overall bit rate               : 1 648 Kbps JE 5  
Writing application            : Kirara Encoder idc`p?XP  
Writing library                : Kirara Encoder
Video 5cr(S~Q;  
ID                             : 1 gC%G;-gm  
Format                         : AVC pY)5bSA  
Format/Info                    : Advanced Video Codec m .IU ;cR  
Format profile                 : High@L4.1 dhg~$CVO  
Format settings, CABAC         : Yes F~#zxwd  
Format settings, ReFrames      : 4 frames Jo(`zuLJ  
Codec ID                       : V_MPEG4/ISO/AVC k;PAh>8  
Duration                       : 1h 59mn [sV"ws  
Bit rate                       : 1 520 Kbps :%&Q-kk4!  
Width                          : 640 pixels l} ^3fQXI  
Height                         : 480 pixels }UJv[  
Display aspect ratio           : 4:3 "@@I!RwA  
Frame rate mode                : Constant M$4k;  
Frame rate                     : 29.970 fps MfO:m[s  
Color space                    : YUV ,)+ o  
Chroma subsampling             : 4:2:0 'crlA~&#/  
Bit depth                      : 8 bits DBLk!~IF  
Scan type                      : Progressive -\ZcOXpMx=  
Bits/(Pixel*Frame)             : 0.165 exh/CK4;  
Stream size                    : 1.27 GiB (92%) >4Y3]6N0.F  
Writing library                : x264 core 120 682Z}"I0  
Encoding settings              : cabac=1 / ref=4 / deblock=1:0:0 / analyse=0x3:0x113 / me=hex / subme=7 / psy=1 / psy_rd=1.00:0.00 / mixed_ref=1 / me_range=16 / chroma_me=1 / trellis=0 / 8x8dct=1 / cqm=0 / deadzone=21,11 / fast_pskip=1 / chroma_qp_offset=-2 / threads=3 / sliced_threads=0 / nr=0 / decimate=1 / interlaced=0 / bluray_compat=0 / constrained_intra=0 / bframes=0 / weightp=2 / keyint=250 / keyint_min=25 / scenecut=40 / intra_refresh=0 / rc_lookahead=40 / rc=crf / mbtree=1 / crf=22.5 / qcomp=0.60 / qpmin=0 / qpmax=69 / qpstep=4 / ip_ratio=1.40 / aq=1:1.00 fy@avo9  
Default                        : Yes %+ 7p lM  
Forced                         : No
Audio i"zuil  
ID                             : 2 `.x$7!zLC  
Format                         : Vorbis :(dHY  
Format settings, Floor         : 1 :.(;<b<\  
Codec ID                       : A_VORBIS 7*j (*  
Duration                       : 1h 59mn )m6M9eC  
Bit rate mode                  : Variable bQe^Px5 !.  
Bit rate                       : 96.0 Kbps j.a`N2]WE  
Channel(s)                     : 2 channels pY4}>ju(g  
Sampling rate                  : 48.0 KHz f~E*Zz`;  
Compression mode               : Lossy Yw _+`,W   
Stream size                    : 82.1 MiB (6%) T|&[7%F3"  
Writing library                : libVorbis (Schaufenugget) (20101101 (Schaufenugget)) GdB.4s^  
Default                        : Yes xw{-9k-~  
Forced                         : No |+  N5z  
Writing application            : Lavc53.42.0 '65LKD  
2|\A7.  
r&-m=Kk$  
此帖售价 3 金钱,已有 36 人购买 [记录] [购买]
购买后,将显示帖子中所有出售内容。
若发现会员采用欺骗的方法获取财富,请立刻举报,我们会对会员处以2-N倍的罚金,严重者封掉ID!
此段为出售的内容,购买后显示
'` 'GK&)  
Vcd.mE(t%  
P"sA  
7条评分贡献值+5金钱+40威望+12
lishuang11 贡献值 +5 大赞 2014-07-22
lishuang11 威望 +5 大赞 2014-07-22
lishuang11 金钱 +5 大赞 2014-07-22
HappyLee 威望 +5 很棒,感谢压制! 2014-07-19
HappyLee 金钱 +25 很棒,感谢压制! 2014-07-19
Andy 威望 +2 - 2014-07-19
Andy 金钱 +10 - 2014-07-19
离线野生动物

发帖
477
金钱
212
威望
20
贡献值
3
交易币
2
只看该作者 1楼 发表于: 2014-07-19
谢谢楼主分享啦

发帖
2894
金钱
59589
威望
727
贡献值
479
交易币
3807
只看该作者 2楼 发表于: 2014-07-19
离线耶稣

发帖
7190
金钱
276094
威望
2509
贡献值
1669
交易币
11317
只看该作者 3楼 发表于: 2014-07-19
谢谢分享  



离线390348839

发帖
1033
金钱
11182
威望
293
贡献值
139
交易币
1375
只看该作者 4楼 发表于: 2014-07-19
又要回复啊,回什么好

发帖
854
金钱
5134
威望
172
贡献值
42
交易币
1028
只看该作者 5楼 发表于: 2014-07-19
好东西  狠狠地赞一个

发帖
808
金钱
12722
威望
235
贡献值
115
交易币
1156
只看该作者 6楼 发表于: 2014-07-19
何谓字幕版同问

发帖
706
金钱
3072
威望
203
贡献值
51
交易币
771
只看该作者 7楼 发表于: 2014-07-19
需要洗掉之前那个么?
离线musickingdom

发帖
835
金钱
55
威望
109
贡献值
56
交易币
1034
只看该作者 8楼 发表于: 2014-07-19
终于除了这场压制,不过还是对片源不满意。
正在建设的土豆小站萌萌哒~http://www.tudou.com/home/_68623032/
离线mjghosts

发帖
8255
金钱
219223
威望
9187
贡献值
2734
交易币
4790
只看该作者 9楼 发表于: 2014-07-19
难道那么多人不知道韩国历史有个有字幕版有个无字幕版吗?
快速回复
限100 字节
 
上一个 下一个