论坛风格切换切换到宽版
  • 4034阅读
  • 42回复

1997.HIStory演唱会.Copenhagen(TV1000).480p.x264.25fps-MSZ压制【百度盘】 [复制链接]

上一主题 下一主题
离线mjghosts
 

发帖
8248
金钱
217799
威望
9174
贡献值
2723
交易币
4759
只看楼主 倒序阅读 楼主  发表于: 2014-07-20
下载链接请直转!   *\sPHz.  
片源:MJSHOWZONE
Smr{+m a  
@5Xo2}o-Q  
此前发布过高质量版的MediaCorp5压制: ,_2-Op  
http://www.mjsunny.com/read.php?tid=59942 at: li  
fab'\|Y   
TV1000版虽然质量远远比不上5台版,但它无疑是最值得收藏的老版本,最完整(比5台版多出16分钟),且部分敏感歌词没有被河蟹,特此献上。
79\ wjR!T  
HA6tGZP*L  
i?00!t  
j8Z,:op  
v4$/LUJZp  
Kxe\H'rR  
G6SgVaM  
e UPa5{P  
General BK$y>= `  
Unique ID                      : 339470442046302177508911717464118296649 (0xFF63A10355B3511892731CC7355A8049) I-#H+\S  
Complete name                  : E:\[MJSHOWZONE]1997.HIStory演唱会.Copenhagen(TV1000).480p.x264.25fps.mkv HC`0Ni1  
Format                         : Matroska _3IT3mb2n  
Format version                 : Version 2 '|yxB')  
File size                      : 1.45 GiB 4P{|H  
Duration                       : 2h 19mn s.1F=u9a  
Overall bit rate mode          : Variable `$a!CJu,  
Overall bit rate               : 1 492 Kbps -"-.Z&#  
Writing application            : Kirara Encoder N:G]wsh  
Writing library                : Kirara Encoder
Video &M-vKc"d  
ID                             : 1 .2I?^w&j+  
Format                         : AVC 81nD:]7  
Format/Info                    : Advanced Video Codec 8#!g;`~ D  
Format profile                 : High@L4.1 V u")%(ix  
Format settings, CABAC         : Yes BP..p ^EPN  
Format settings, ReFrames      : 4 frames ;6@sC[  
Codec ID                       : V_MPEG4/ISO/AVC t U}6^yc  
Duration                       : 2h 19mn 5r)8MklZ  
Bit rate                       : 1 367 Kbps cFc(HADM`r  
Width                          : 640 pixels P@PF" {S  
Height                         : 480 pixels ?fH1?Z\'K  
Display aspect ratio           : 4:3 _%R^8FjH*  
Frame rate mode                : Constant )1!<<;@0  
Frame rate                     : 25.000 fps yVnG+R&  
Color space                    : YUV Y>w7%N  
Chroma subsampling             : 4:2:0 pWKE`x^  
Bit depth                      : 8 bits AC1RP`c  
Scan type                      : Progressive Zpg;hj5_  
Bits/(Pixel*Frame)             : 0.178 U\Vg&"P  
Stream size                    : 1.33 GiB (92%) Mc.{I"c@  
Writing library                : x264 core 120 iSO xQ  
Encoding settings              : cabac=1 / ref=4 / deblock=1:0:0 / analyse=0x3:0x113 / me=hex / subme=7 / psy=1 / psy_rd=1.00:0.00 / mixed_ref=1 / me_range=16 / chroma_me=1 / trellis=0 / 8x8dct=1 / cqm=0 / deadzone=21,11 / fast_pskip=1 / chroma_qp_offset=-2 / threads=3 / sliced_threads=0 / nr=0 / decimate=1 / interlaced=0 / bluray_compat=0 / constrained_intra=0 / bframes=0 / weightp=2 / keyint=250 / keyint_min=25 / scenecut=40 / intra_refresh=0 / rc_lookahead=40 / rc=crf / mbtree=1 / crf=21.0 / qcomp=0.60 / qpmin=0 / qpmax=69 / qpstep=4 / ip_ratio=1.40 / aq=1:1.00 zN!W_2W*  
Default                        : Yes ]:Ep1DIMl  
Forced                         : No
Audio "'[M~Js  
ID                             : 2 E>QS^)ih  
Format                         : Vorbis lVT*Ev{&.  
Format settings, Floor         : 1  it H  
Codec ID                       : A_VORBIS x} =,'Ko}3  
Duration                       : 2h 19mn t }4  
Bit rate mode                  : Variable tb?TPd-OY  
Bit rate                       : 96.0 Kbps 3. dSS  
Channel(s)                     : 2 channels &zgliT!If  
Sampling rate                  : 48.0 KHz 5I[:.o0  
Compression mode               : Lossy IIMf\JdM  
Stream size                    : 95.5 MiB (6%) 0u"j^v  
Writing library                : libVorbis (Schaufenugget) (20101101 (Schaufenugget)) ;L76V$&  
Default                        : Yes AWFq5YMSI  
Forced                         : No OP(om$xm  
Writing application            : Lavc53.42.0
(G{:O   
F6DVq8f9  
此帖售价 5 金钱,已有 32 人购买 [记录] [购买]
购买后,将显示帖子中所有出售内容。
若发现会员采用欺骗的方法获取财富,请立刻举报,我们会对会员处以2-N倍的罚金,严重者封掉ID!
此段为出售的内容,购买后显示
5条评分贡献值+5金钱+15威望+7
lishuang11 贡献值 +5 赞死 2014-07-22
lishuang11 威望 +5 赞死 2014-07-22
lishuang11 金钱 +5 赞死 2014-07-22
梁剑文 威望 +2 走你~~~~~~ 2014-07-20
梁剑文 金钱 +10 走你~~~~~~ 2014-07-20
离线梁剑文

发帖
2466
金钱
35616
威望
713
贡献值
273
交易币
3119
只看该作者 1楼 发表于: 2014-07-20
走你~~~~~~
离线野生动物

发帖
477
金钱
212
威望
20
贡献值
3
交易币
2
只看该作者 2楼 发表于: 2014-07-20
不贵啊,谢谢分享 hVAP )"5  

发帖
2894
金钱
59573
威望
727
贡献值
479
交易币
3807
只看该作者 3楼 发表于: 2014-07-20
坐等3台版哥德堡

内容来自Android手机客户端

离线923169333mj

发帖
857
金钱
15
威望
151
贡献值
58
交易币
1071
只看该作者 4楼 发表于: 2014-07-20
体积有点偏大,但毕竟是经典电视台的经典场次 值得一下
离线mjghosts

发帖
8248
金钱
217799
威望
9174
贡献值
2723
交易币
4759
只看该作者 5楼 发表于: 2014-07-20
回 蓝白色的香蕉 的帖子
蓝白色的香蕉:坐等3台版哥德堡 (2014-07-20 07:50)  ?$Dc>  
G+1i~&uV  
3台版哥德堡不打算压制了~
离线耶稣

发帖
7150
金钱
272459
威望
2491
贡献值
1655
交易币
11221
只看该作者 6楼 发表于: 2014-07-20
HD5也不压了吗? @= =)  
d+6q% U  
内容来自[手机版]

发帖
2606
金钱
69088
威望
1931
贡献值
703
交易币
3896
只看该作者 7楼 发表于: 2014-07-20
这个可以有
迈克尔杰克逊纪念博客
http://blog.sina.com.cn/u/1879209312
离线mjghosts

发帖
8248
金钱
217799
威望
9174
贡献值
2723
交易币
4759
只看该作者 8楼 发表于: 2014-07-20
回 mj帅哥 的帖子
mj帅哥:HD5也不压了吗?
内容来自[手机版]  (2014-07-20 11:13)  ;v2eAe@7  
n*na6rV\k  
再次弱弱的问一下,HD5在哪个点子上优胜于普通5台版?
离线耶稣

发帖
7150
金钱
272459
威望
2491
贡献值
1655
交易币
11221
只看该作者 9楼 发表于: 2014-07-20
回 mjghosts 的帖子
mjghosts:再次弱弱的问一下,HD5在哪个点子上优胜于普通5台版? (2014-07-20 11:26) @,sjM]  
N(4y}-w$  
HD5画面比例不正16:9、普通5台版4:3




快速回复
限100 字节
 
上一个 下一个