论坛风格切换切换到宽版
  • 8671阅读
  • 44回复

1997.HIStory演唱会.Copenhagen(TV1000).480p.x264.25fps-MSZ压制【百度盘】 [复制链接]

上一主题 下一主题
离线mjghosts
 

发帖
8279
金钱
225793
威望
9196
贡献值
2742
交易币
4818
只看楼主 倒序阅读 楼主  发表于: 2014-07-20
下载链接请直转!   rre;HJGEL  
片源:MJSHOWZONE
j}ruXg  
wr#+q1 v  
此前发布过高质量版的MediaCorp5压制: {@3=vBl%O+  
http://www.mjsunny.com/read.php?tid=59942 f,?7,?x  
I~mw\K{.3M  
TV1000版虽然质量远远比不上5台版,但它无疑是最值得收藏的老版本,最完整(比5台版多出16分钟),且部分敏感歌词没有被河蟹,特此献上。
"n05y}  
bRIb'%=+GA  
FEP\5d>  
{wMCo ,  
*J$=UG,u  
-BjB>Vt  
C( r?1ma  
&XZ>}^lD^  
General [qb#>P2G3  
Unique ID                      : 339470442046302177508911717464118296649 (0xFF63A10355B3511892731CC7355A8049) H- S28%.  
Complete name                  : E:\[MJSHOWZONE]1997.HIStory演唱会.Copenhagen(TV1000).480p.x264.25fps.mkv Karyipn}  
Format                         : Matroska / AW]12_  
Format version                 : Version 2 rK`*v*  
File size                      : 1.45 GiB _p90Zm-3X  
Duration                       : 2h 19mn M~^|dR)D  
Overall bit rate mode          : Variable I|08[ mO  
Overall bit rate               : 1 492 Kbps 6o {41@v(  
Writing application            : Kirara Encoder #lF8"@)a-$  
Writing library                : Kirara Encoder
Video 8 \%*4L'  
ID                             : 1 ;CFI*Wfp  
Format                         : AVC yX<Sk q  
Format/Info                    : Advanced Video Codec XWH~o:0<2  
Format profile                 : High@L4.1 -n+ =[M  
Format settings, CABAC         : Yes R~PD[.\u  
Format settings, ReFrames      : 4 frames <$qe2Ft Uq  
Codec ID                       : V_MPEG4/ISO/AVC !.Eua3:V*  
Duration                       : 2h 19mn 6Q"fRXM   
Bit rate                       : 1 367 Kbps h/?$~OD  
Width                          : 640 pixels Utd`T+AF*  
Height                         : 480 pixels KW`^uoY$  
Display aspect ratio           : 4:3 y=.`:EB9b  
Frame rate mode                : Constant W2yNwB+{  
Frame rate                     : 25.000 fps N_L~oX_  
Color space                    : YUV ? $$Xg3w_#  
Chroma subsampling             : 4:2:0 \0 j-p   
Bit depth                      : 8 bits Nhf@Y}Cu  
Scan type                      : Progressive u!CcTE*  
Bits/(Pixel*Frame)             : 0.178 0?,<7}"<X  
Stream size                    : 1.33 GiB (92%) MX 7 Y1  
Writing library                : x264 core 120 B4/\=MXb  
Encoding settings              : cabac=1 / ref=4 / deblock=1:0:0 / analyse=0x3:0x113 / me=hex / subme=7 / psy=1 / psy_rd=1.00:0.00 / mixed_ref=1 / me_range=16 / chroma_me=1 / trellis=0 / 8x8dct=1 / cqm=0 / deadzone=21,11 / fast_pskip=1 / chroma_qp_offset=-2 / threads=3 / sliced_threads=0 / nr=0 / decimate=1 / interlaced=0 / bluray_compat=0 / constrained_intra=0 / bframes=0 / weightp=2 / keyint=250 / keyint_min=25 / scenecut=40 / intra_refresh=0 / rc_lookahead=40 / rc=crf / mbtree=1 / crf=21.0 / qcomp=0.60 / qpmin=0 / qpmax=69 / qpstep=4 / ip_ratio=1.40 / aq=1:1.00 f = 'AI  
Default                        : Yes bx%Ky0Z  
Forced                         : No
Audio /$d #9Uv  
ID                             : 2 U!jRF  
Format                         : Vorbis gI/ SA  
Format settings, Floor         : 1 zmg :Z p=  
Codec ID                       : A_VORBIS HggINMG  
Duration                       : 2h 19mn * $|9e  
Bit rate mode                  : Variable b?-KC\}v  
Bit rate                       : 96.0 Kbps b2^O$ l  
Channel(s)                     : 2 channels i'`>YX  
Sampling rate                  : 48.0 KHz ahR-^^'$  
Compression mode               : Lossy yW;]J8 7*  
Stream size                    : 95.5 MiB (6%) Qv@)WJ="-0  
Writing library                : libVorbis (Schaufenugget) (20101101 (Schaufenugget)) -V52?Hq  
Default                        : Yes b\+9#)Up@  
Forced                         : No $u{ 8wF/)  
Writing application            : Lavc53.42.0
X-5&c$hv  
fg8U* 7  
此帖售价 5 金钱,已有 34 人购买 [记录] [购买]
购买后,将显示帖子中所有出售内容。
若发现会员采用欺骗的方法获取财富,请立刻举报,我们会对会员处以2-N倍的罚金,严重者封掉ID!
此段为出售的内容,购买后显示
5条评分贡献值+5金钱+15威望+7
lishuang11 贡献值 +5 赞死 2014-07-22
lishuang11 威望 +5 赞死 2014-07-22
lishuang11 金钱 +5 赞死 2014-07-22
梁剑文 威望 +2 走你~~~~~~ 2014-07-20
梁剑文 金钱 +10 走你~~~~~~ 2014-07-20
离线梁剑文

发帖
2466
金钱
35636
威望
713
贡献值
273
交易币
3119
只看该作者 1楼 发表于: 2014-07-20
走你~~~~~~
离线野生动物

发帖
477
金钱
212
威望
20
贡献值
3
交易币
2
只看该作者 2楼 发表于: 2014-07-20
不贵啊,谢谢分享 FW:x XK  

发帖
2895
金钱
59802
威望
727
贡献值
479
交易币
3808
只看该作者 3楼 发表于: 2014-07-20
坐等3台版哥德堡

内容来自Android手机客户端

离线923169333mj

发帖
866
金钱
33
威望
151
贡献值
58
交易币
1080
只看该作者 4楼 发表于: 2014-07-20
体积有点偏大,但毕竟是经典电视台的经典场次 值得一下
离线mjghosts

发帖
8279
金钱
225793
威望
9196
贡献值
2742
交易币
4818
只看该作者 5楼 发表于: 2014-07-20
回 蓝白色的香蕉 的帖子
蓝白色的香蕉:坐等3台版哥德堡 (2014-07-20 07:50)  w?c~be$  
]h&?^L<.  
3台版哥德堡不打算压制了~
离线耶稣

发帖
7297
金钱
299271
威望
2632
贡献值
1723
交易币
11568
只看该作者 6楼 发表于: 2014-07-20
HD5也不压了吗? Z*ZG5e  
z!L0j +  
内容来自[手机版]

发帖
2627
金钱
69906
威望
1959
贡献值
716
交易币
3921
只看该作者 7楼 发表于: 2014-07-20
这个可以有
迈克尔杰克逊纪念博客
http://blog.sina.com.cn/u/1879209312
离线mjghosts

发帖
8279
金钱
225793
威望
9196
贡献值
2742
交易币
4818
只看该作者 8楼 发表于: 2014-07-20
回 mj帅哥 的帖子
mj帅哥:HD5也不压了吗?
内容来自[手机版]  (2014-07-20 11:13)  =-tw5], L  
\1d (9jR  
再次弱弱的问一下,HD5在哪个点子上优胜于普通5台版?
离线耶稣

发帖
7297
金钱
299271
威望
2632
贡献值
1723
交易币
11568
只看该作者 9楼 发表于: 2014-07-20
回 mjghosts 的帖子
mjghosts:再次弱弱的问一下,HD5在哪个点子上优胜于普通5台版? (2014-07-20 11:26) )+}]+xRWGj  
c8L~S/t  
HD5画面比例不正16:9、普通5台版4:3


快速回复
限100 字节
 
上一个 下一个