论坛风格切换切换到宽版
  • 4189阅读
  • 42回复

1997.HIStory演唱会.Copenhagen(TV1000).480p.x264.25fps-MSZ压制【百度盘】 [复制链接]

上一主题 下一主题
离线mjghosts
 

发帖
8255
金钱
219223
威望
9187
贡献值
2734
交易币
4790
只看楼主 倒序阅读 楼主  发表于: 2014-07-20
下载链接请直转!   k/ 9S  
片源:MJSHOWZONE
4>&%N\$*  
q-fxs8+m|  
此前发布过高质量版的MediaCorp5压制: v} $KlT  
http://www.mjsunny.com/read.php?tid=59942 67/&.d!  
ul$^]ZWkI  
TV1000版虽然质量远远比不上5台版,但它无疑是最值得收藏的老版本,最完整(比5台版多出16分钟),且部分敏感歌词没有被河蟹,特此献上。
(gv1f  
p<2A4="&  
J<<0U;  
$vC!Us{z  
Jbud_.h9  
$W 46!U3  
o!`.LL%  
OKU9v{  
General 2Rc'1sCth-  
Unique ID                      : 339470442046302177508911717464118296649 (0xFF63A10355B3511892731CC7355A8049) ]bG8DEwD  
Complete name                  : E:\[MJSHOWZONE]1997.HIStory演唱会.Copenhagen(TV1000).480p.x264.25fps.mkv Ds4n>V,o  
Format                         : Matroska bJJB*$jW=  
Format version                 : Version 2 bDa(@QJ-  
File size                      : 1.45 GiB *]Nd I  
Duration                       : 2h 19mn | I_,;c  
Overall bit rate mode          : Variable F6*n,[5(  
Overall bit rate               : 1 492 Kbps nPp\IE}:  
Writing application            : Kirara Encoder A)/ 8FYc  
Writing library                : Kirara Encoder
Video !424K-nW  
ID                             : 1 T/DKT1P-  
Format                         : AVC a?bSMt}  
Format/Info                    : Advanced Video Codec V!#+Ti/w4  
Format profile                 : High@L4.1 QiB ^U^f  
Format settings, CABAC         : Yes ^&oa\7<'  
Format settings, ReFrames      : 4 frames N|[P%WM3  
Codec ID                       : V_MPEG4/ISO/AVC DIR_W-z  
Duration                       : 2h 19mn ".jY3<bQg  
Bit rate                       : 1 367 Kbps +b_g,RNs!  
Width                          : 640 pixels .#zmX\a  
Height                         : 480 pixels 1"J\iwN3  
Display aspect ratio           : 4:3 'EFSr!+  
Frame rate mode                : Constant / sI0{  
Frame rate                     : 25.000 fps ~e,k71  
Color space                    : YUV sM)qzO2wh  
Chroma subsampling             : 4:2:0 k2Yh?OH  
Bit depth                      : 8 bits L}O_1+b  
Scan type                      : Progressive 4qq+7B  
Bits/(Pixel*Frame)             : 0.178 VfAC&3 %M  
Stream size                    : 1.33 GiB (92%) k.nq,  
Writing library                : x264 core 120 FoY_5/  
Encoding settings              : cabac=1 / ref=4 / deblock=1:0:0 / analyse=0x3:0x113 / me=hex / subme=7 / psy=1 / psy_rd=1.00:0.00 / mixed_ref=1 / me_range=16 / chroma_me=1 / trellis=0 / 8x8dct=1 / cqm=0 / deadzone=21,11 / fast_pskip=1 / chroma_qp_offset=-2 / threads=3 / sliced_threads=0 / nr=0 / decimate=1 / interlaced=0 / bluray_compat=0 / constrained_intra=0 / bframes=0 / weightp=2 / keyint=250 / keyint_min=25 / scenecut=40 / intra_refresh=0 / rc_lookahead=40 / rc=crf / mbtree=1 / crf=21.0 / qcomp=0.60 / qpmin=0 / qpmax=69 / qpstep=4 / ip_ratio=1.40 / aq=1:1.00 rlSar$  
Default                        : Yes w?^qAj(*d  
Forced                         : No
Audio ]`%}Q  
ID                             : 2 O>]I!n`!!A  
Format                         : Vorbis vR$[#`X  
Format settings, Floor         : 1 :o$k(X7a  
Codec ID                       : A_VORBIS +3]1AJa  
Duration                       : 2h 19mn yVQ0;h  
Bit rate mode                  : Variable =7{n 2  
Bit rate                       : 96.0 Kbps  ~DYUI#x  
Channel(s)                     : 2 channels v@_}R_pX  
Sampling rate                  : 48.0 KHz 5>z`==N)  
Compression mode               : Lossy 38<!Dt+S(,  
Stream size                    : 95.5 MiB (6%) 9!CD25u  
Writing library                : libVorbis (Schaufenugget) (20101101 (Schaufenugget)) WI@l2`X  
Default                        : Yes ]70V  
Forced                         : No 0?@;zTE0  
Writing application            : Lavc53.42.0
e,J q<=j  
),DLrGOl  
此帖售价 5 金钱,已有 32 人购买 [记录] [购买]
购买后,将显示帖子中所有出售内容。
若发现会员采用欺骗的方法获取财富,请立刻举报,我们会对会员处以2-N倍的罚金,严重者封掉ID!
此段为出售的内容,购买后显示
5条评分贡献值+5金钱+15威望+7
lishuang11 贡献值 +5 赞死 2014-07-22
lishuang11 威望 +5 赞死 2014-07-22
lishuang11 金钱 +5 赞死 2014-07-22
梁剑文 威望 +2 走你~~~~~~ 2014-07-20
梁剑文 金钱 +10 走你~~~~~~ 2014-07-20
离线梁剑文

发帖
2466
金钱
35616
威望
713
贡献值
273
交易币
3119
只看该作者 1楼 发表于: 2014-07-20
走你~~~~~~
离线野生动物

发帖
477
金钱
212
威望
20
贡献值
3
交易币
2
只看该作者 2楼 发表于: 2014-07-20
不贵啊,谢谢分享 %df[8eX{  

发帖
2894
金钱
59589
威望
727
贡献值
479
交易币
3807
只看该作者 3楼 发表于: 2014-07-20
坐等3台版哥德堡

内容来自Android手机客户端

离线923169333mj

发帖
857
金钱
15
威望
151
贡献值
58
交易币
1071
只看该作者 4楼 发表于: 2014-07-20
体积有点偏大,但毕竟是经典电视台的经典场次 值得一下
离线mjghosts

发帖
8255
金钱
219223
威望
9187
贡献值
2734
交易币
4790
只看该作者 5楼 发表于: 2014-07-20
回 蓝白色的香蕉 的帖子
蓝白色的香蕉:坐等3台版哥德堡 (2014-07-20 07:50)  aAlES< r  
92@/8,[  
3台版哥德堡不打算压制了~
离线耶稣

发帖
7190
金钱
276082
威望
2509
贡献值
1669
交易币
11317
只看该作者 6楼 发表于: 2014-07-20
HD5也不压了吗? dx=\Pq  
G;:D6\  
内容来自[手机版]

发帖
2612
金钱
69108
威望
1931
贡献值
703
交易币
3902
只看该作者 7楼 发表于: 2014-07-20
这个可以有
迈克尔杰克逊纪念博客
http://blog.sina.com.cn/u/1879209312
离线mjghosts

发帖
8255
金钱
219223
威望
9187
贡献值
2734
交易币
4790
只看该作者 8楼 发表于: 2014-07-20
回 mj帅哥 的帖子
mj帅哥:HD5也不压了吗?
内容来自[手机版]  (2014-07-20 11:13)  TO,XN\{y  
tny^sG/'  
再次弱弱的问一下,HD5在哪个点子上优胜于普通5台版?
离线耶稣

发帖
7190
金钱
276082
威望
2509
贡献值
1669
交易币
11317
只看该作者 9楼 发表于: 2014-07-20
回 mjghosts 的帖子
mjghosts:再次弱弱的问一下,HD5在哪个点子上优胜于普通5台版? (2014-07-20 11:26) E/:mO~1< c  
S@^o=B]]  
HD5画面比例不正16:9、普通5台版4:3



快速回复
限100 字节
 
上一个 下一个