论坛风格切换切换到宽版
  • 4027阅读
  • 31回复

961007.HIStory演唱会.Tunis.480p.x264.25fps-MSZ压制【百度盘】 [复制链接]

上一主题 下一主题
离线mjghosts
 

发帖
8248
金钱
217821
威望
9174
贡献值
2723
交易币
4759
只看楼主 倒序阅读 楼主  发表于: 2014-07-20
下载链接请直转! QUp()B1  
片源:michaelvideos.ro
`}KK@(Y  
-bK#&o,  
历史巡演-突尼斯站私拍版,画面很稳定几乎没有任何抖动情况,但画质和音质均一般,该场TV版缺失的Intro和History可以用私拍版补全,是这个私拍版最大的价值。 DT_HG|  
/I3#WUc;![  
PS:截至目前,MJSHOWZONE把所有已出现的VHS-DVD的历史巡演私拍版全部压制和分享完毕,如有疑问或场次缺漏欢迎发言。
?]081l7cd  
~l%Dcp  
W;coi4   
&_ Ewu@4  
General twqjaFA>  
Unique ID                      : 95387882337392305668949046931546275377 (0x47C309B3531C4BF2632B6AD9638D7E31) m& DDz+g  
Complete name                  : E:\[MJSHOWZONE]19961007.HIStory演唱会.Tunis.480p.x264.25fps-117min.mkv &%`IPhbT  
Format                         : Matroska wh:O"&qk  
Format version                 : Version 2 qx<`Kc4  
File size                      : 771 MiB _cx}e!BK#  
Duration                       : 1h 57mn :cop0;X:Wm  
Overall bit rate mode          : Variable ^u#!Yo.!(  
Overall bit rate               : 918 Kbps uAR!JJ  
Writing application            : Kirara Encoder 34 W#  
Writing library                : Kirara Encoder
Video zr?%k]A%UO  
ID                             : 1 X&h4A4#P  
Format                         : AVC K Ii Vz<  
Format/Info                    : Advanced Video Codec |Sy |E  
Format profile                 : High@L4.1 EXg\a#4['  
Format settings, CABAC         : Yes ;g: TsYwM  
Format settings, ReFrames      : 4 frames Y4}!9x  
Codec ID                       : V_MPEG4/ISO/AVC `!DrB08A  
Duration                       : 1h 57mn Er Ji  
Bit rate                       : 804 Kbps 0]{h,W3]@[  
Width                          : 640 pixels Q3\j4;jI(  
Height                         : 480 pixels s2iR  }<  
Display aspect ratio           : 4:3 4hg]/X"H#  
Frame rate mode                : Constant g4P059  
Frame rate                     : 25.000 fps oDTt+b  
Color space                    : YUV ^Qrdh0j  
Chroma subsampling             : 4:2:0 Miqu  
Bit depth                      : 8 bits !E,$@mvd  
Scan type                      : Progressive x:O?Fj  
Bits/(Pixel*Frame)             : 0.105 JSt%L|}Y  
Stream size                    : 675 MiB (88%) 0K`3BuBs  
Writing library                : x264 core 120 xIf,1g@Cq9  
Encoding settings              : cabac=1 / ref=4 / deblock=1:0:0 / analyse=0x3:0x113 / me=hex / subme=7 / psy=1 / psy_rd=1.00:0.00 / mixed_ref=1 / me_range=16 / chroma_me=1 / trellis=0 / 8x8dct=1 / cqm=0 / deadzone=21,11 / fast_pskip=1 / chroma_qp_offset=-2 / threads=3 / sliced_threads=0 / nr=0 / decimate=1 / interlaced=0 / bluray_compat=0 / constrained_intra=0 / bframes=0 / weightp=2 / keyint=250 / keyint_min=25 / scenecut=40 / intra_refresh=0 / rc_lookahead=40 / rc=crf / mbtree=1 / crf=24.0 / qcomp=0.60 / qpmin=0 / qpmax=69 / qpstep=4 / ip_ratio=1.40 / aq=1:1.00 y. @7aT5  
Default                        : Yes c~b[_J)  
Forced                         : No
Audio ..3TB=Z#  
ID                             : 2 z9U<Z^4z+  
Format                         : Vorbis Hu|NS{Ke-  
Format settings, Floor         : 1 XgP7 !  
Codec ID                       : A_VORBIS bdk"7N  
Duration                       : 1h 57mn 9 }iEEI  
Bit rate mode                  : Variable u1/4WYJeJ  
Bit rate                       : 96.0 Kbps l|^p;z: d  
Channel(s)                     : 2 channels F:x" RbbF  
Sampling rate                  : 48.0 KHz )TFaG[tj  
Compression mode               : Lossy YwQxN"  
Stream size                    : 80.6 MiB (10%) N\l\ M  
Writing library                : libVorbis (Schaufenugget) (20101101 (Schaufenugget)) dE^:-t  
Default                        : Yes D3$PvX[f  
Forced                         : No {'E%SIRZ)  
Writing application            : Lavc53.42.0
q|b#=Af]g  
q6f+tdg=  
此帖售价 2 金钱,已有 20 人购买 [记录] [购买]
购买后,将显示帖子中所有出售内容。
若发现会员采用欺骗的方法获取财富,请立刻举报,我们会对会员处以2-N倍的罚金,严重者封掉ID!
此段为出售的内容,购买后显示
离线耶稣

发帖
7151
金钱
272586
威望
2492
贡献值
1656
交易币
11226
只看该作者 1楼 发表于: 2014-07-20
感谢感谢





发帖
2894
金钱
59573
威望
727
贡献值
479
交易币
3807
只看该作者 2楼 发表于: 2014-07-20
tv版画质还没业余的好

内容来自Android手机客户端

离线野生动物

发帖
477
金钱
212
威望
20
贡献值
3
交易币
2
只看该作者 3楼 发表于: 2014-07-20
谢谢楼主分享啦

发帖
706
金钱
3072
威望
203
贡献值
51
交易币
771
只看该作者 4楼 发表于: 2014-07-20
谢谢幽灵~

发帖
808
金钱
12722
威望
235
贡献值
115
交易币
1156
只看该作者 5楼 发表于: 2014-07-20
谢谢,收了
离线musickingdom

发帖
835
金钱
50
威望
109
贡献值
56
交易币
1034
只看该作者 6楼 发表于: 2014-07-20
支持稀缺资源压制
正在建设的土豆小站萌萌哒~http://www.tudou.com/home/_68623032/
离线mjlove98

发帖
2562
金钱
4352
威望
197
贡献值
123
交易币
2640
只看该作者 8楼 发表于: 2014-07-21
感谢楼主了。
发帖
*
金钱
*
威望
*
贡献值
*
交易币
*
只看该作者 9楼 发表于: 2014-07-21
感谢压制
快速回复
限100 字节
 
上一个 下一个