论坛风格切换切换到宽版
  • 4629阅读
  • 31回复

961007.HIStory演唱会.Tunis.480p.x264.25fps-MSZ压制【百度盘】 [复制链接]

上一主题 下一主题
在线mjghosts
 

发帖
8261
金钱
219535
威望
9187
贡献值
2734
交易币
4796
只看楼主 倒序阅读 楼主  发表于: 2014-07-20
下载链接请直转! /.<%y 8v  
片源:michaelvideos.ro
, f9V`Pz)  
x&9}] E^<  
历史巡演-突尼斯站私拍版,画面很稳定几乎没有任何抖动情况,但画质和音质均一般,该场TV版缺失的Intro和History可以用私拍版补全,是这个私拍版最大的价值。 o`S|  
?8[,0l:|  
PS:截至目前,MJSHOWZONE把所有已出现的VHS-DVD的历史巡演私拍版全部压制和分享完毕,如有疑问或场次缺漏欢迎发言。
{a`t1oX(  
)\!_`ob  
<>/0 ;J1<  
0,+RF "R  
General hJY= )  
Unique ID                      : 95387882337392305668949046931546275377 (0x47C309B3531C4BF2632B6AD9638D7E31) MGpP'G:v  
Complete name                  : E:\[MJSHOWZONE]19961007.HIStory演唱会.Tunis.480p.x264.25fps-117min.mkv Z$!>hiz2  
Format                         : Matroska K6<@DP+/  
Format version                 : Version 2 +U/+iI>0  
File size                      : 771 MiB t mAj  
Duration                       : 1h 57mn \jLn5$OW  
Overall bit rate mode          : Variable _mVq9nBEf  
Overall bit rate               : 918 Kbps 2w)[1s[  
Writing application            : Kirara Encoder 55xa Z#|  
Writing library                : Kirara Encoder
Video >zcR ?PPs  
ID                             : 1 &}}c>]m  
Format                         : AVC j3{8]D  
Format/Info                    : Advanced Video Codec dw{L,u`68  
Format profile                 : High@L4.1 ~lO^ C  
Format settings, CABAC         : Yes ZuZe8&  
Format settings, ReFrames      : 4 frames dqwCyYC  
Codec ID                       : V_MPEG4/ISO/AVC 9x;CJhX  
Duration                       : 1h 57mn heQ<%NIA"  
Bit rate                       : 804 Kbps y4* }E  
Width                          : 640 pixels ~=HrD?-99p  
Height                         : 480 pixels t\LAotTF/  
Display aspect ratio           : 4:3 FPj j1U`C  
Frame rate mode                : Constant JU^ {!u  
Frame rate                     : 25.000 fps QC@nRy8%  
Color space                    : YUV Br w-"tmx  
Chroma subsampling             : 4:2:0 S[!sJ-rG  
Bit depth                      : 8 bits ap|7./yg  
Scan type                      : Progressive v:otR%yt  
Bits/(Pixel*Frame)             : 0.105 TAfLC)  
Stream size                    : 675 MiB (88%)  L~F"  
Writing library                : x264 core 120 kmHIU}Z  
Encoding settings              : cabac=1 / ref=4 / deblock=1:0:0 / analyse=0x3:0x113 / me=hex / subme=7 / psy=1 / psy_rd=1.00:0.00 / mixed_ref=1 / me_range=16 / chroma_me=1 / trellis=0 / 8x8dct=1 / cqm=0 / deadzone=21,11 / fast_pskip=1 / chroma_qp_offset=-2 / threads=3 / sliced_threads=0 / nr=0 / decimate=1 / interlaced=0 / bluray_compat=0 / constrained_intra=0 / bframes=0 / weightp=2 / keyint=250 / keyint_min=25 / scenecut=40 / intra_refresh=0 / rc_lookahead=40 / rc=crf / mbtree=1 / crf=24.0 / qcomp=0.60 / qpmin=0 / qpmax=69 / qpstep=4 / ip_ratio=1.40 / aq=1:1.00 R.n:W;^`  
Default                        : Yes Z"spua5  
Forced                         : No
Audio OcR6\t'  
ID                             : 2 T\;7'  
Format                         : Vorbis aD yHIh8  
Format settings, Floor         : 1 5I#L|+  
Codec ID                       : A_VORBIS "#7~}Z B  
Duration                       : 1h 57mn W)WL1@!Z  
Bit rate mode                  : Variable V}?d ,.m`{  
Bit rate                       : 96.0 Kbps 02g!mJW>}y  
Channel(s)                     : 2 channels [S{KGe:g  
Sampling rate                  : 48.0 KHz Z";~]]$!Y  
Compression mode               : Lossy r{DR$jD  
Stream size                    : 80.6 MiB (10%) N}ur0 'J0  
Writing library                : libVorbis (Schaufenugget) (20101101 (Schaufenugget)) kpc3l[.A  
Default                        : Yes H(qDQqJHYy  
Forced                         : No M%dJqwH5{  
Writing application            : Lavc53.42.0
ex_Zw+n  
wps`2`z  
此帖售价 2 金钱,已有 20 人购买 [记录] [购买]
购买后,将显示帖子中所有出售内容。
若发现会员采用欺骗的方法获取财富,请立刻举报,我们会对会员处以2-N倍的罚金,严重者封掉ID!
此段为出售的内容,购买后显示
离线耶稣

发帖
7209
金钱
278155
威望
2544
贡献值
1685
交易币
11368
只看该作者 1楼 发表于: 2014-07-20
感谢感谢




发帖
2894
金钱
59605
威望
727
贡献值
479
交易币
3807
只看该作者 2楼 发表于: 2014-07-20
tv版画质还没业余的好

内容来自Android手机客户端

离线野生动物

发帖
477
金钱
212
威望
20
贡献值
3
交易币
2
只看该作者 3楼 发表于: 2014-07-20
谢谢楼主分享啦

发帖
706
金钱
3072
威望
203
贡献值
51
交易币
771
只看该作者 4楼 发表于: 2014-07-20
谢谢幽灵~

发帖
808
金钱
12722
威望
235
贡献值
115
交易币
1156
只看该作者 5楼 发表于: 2014-07-20
谢谢,收了
离线musickingdom

发帖
835
金钱
57
威望
109
贡献值
56
交易币
1034
只看该作者 6楼 发表于: 2014-07-20
支持稀缺资源压制
正在建设的土豆小站萌萌哒~http://www.tudou.com/home/_68623032/
离线mjlove98

发帖
2589
金钱
4045
威望
197
贡献值
123
交易币
2667
只看该作者 8楼 发表于: 2014-07-21
感谢楼主了。
发帖
*
金钱
*
威望
*
贡献值
*
交易币
*
只看该作者 9楼 发表于: 2014-07-21
感谢压制
快速回复
限100 字节
 
上一个 下一个