论坛风格切换切换到宽版
  • 4158阅读
  • 31回复

961007.HIStory演唱会.Tunis.480p.x264.25fps-MSZ压制【百度盘】 [复制链接]

上一主题 下一主题
离线mjghosts
 

发帖
8255
金钱
219218
威望
9187
贡献值
2734
交易币
4790
只看楼主 倒序阅读 楼主  发表于: 2014-07-20
下载链接请直转! MWn L#!  
片源:michaelvideos.ro
|W~V@n8"6  
C#**)  
历史巡演-突尼斯站私拍版,画面很稳定几乎没有任何抖动情况,但画质和音质均一般,该场TV版缺失的Intro和History可以用私拍版补全,是这个私拍版最大的价值。  i_E#cU  
CyK$XDHa  
PS:截至目前,MJSHOWZONE把所有已出现的VHS-DVD的历史巡演私拍版全部压制和分享完毕,如有疑问或场次缺漏欢迎发言。
/|u]Y/ *  
R26tQbwE  
?N!j.E4=  
OJ_2z|f<  
General 5%Fn^u:  
Unique ID                      : 95387882337392305668949046931546275377 (0x47C309B3531C4BF2632B6AD9638D7E31) ]tdo&  
Complete name                  : E:\[MJSHOWZONE]19961007.HIStory演唱会.Tunis.480p.x264.25fps-117min.mkv |jaY[_ .@  
Format                         : Matroska "<.  
Format version                 : Version 2 ndCS<ojcBP  
File size                      : 771 MiB kO3k| 6f=  
Duration                       : 1h 57mn )[M<72  
Overall bit rate mode          : Variable !^w\$cw&  
Overall bit rate               : 918 Kbps zloaU  
Writing application            : Kirara Encoder @aD~YtL"n  
Writing library                : Kirara Encoder
Video 9-E>n)  
ID                             : 1 }AsF\W+5  
Format                         : AVC qnfRN'  
Format/Info                    : Advanced Video Codec U_{JM`JY  
Format profile                 : High@L4.1 Ae_ E;[mj  
Format settings, CABAC         : Yes qVRO"/R  
Format settings, ReFrames      : 4 frames ? -F'0-t4%  
Codec ID                       : V_MPEG4/ISO/AVC U)/Ul>dY  
Duration                       : 1h 57mn o&F.mYnqX  
Bit rate                       : 804 Kbps WJSHLy<a  
Width                          : 640 pixels mV(x&`Cx  
Height                         : 480 pixels PKM$*_LcGI  
Display aspect ratio           : 4:3 +e]b,9.sR  
Frame rate mode                : Constant &'yV:g3H  
Frame rate                     : 25.000 fps 4b(irDT3F  
Color space                    : YUV [;#.DH]  
Chroma subsampling             : 4:2:0 P_lcX;O  
Bit depth                      : 8 bits rnhf(K.{3  
Scan type                      : Progressive ` dUiz5o'  
Bits/(Pixel*Frame)             : 0.105 ^$,kTU'=  
Stream size                    : 675 MiB (88%) 8v=47G  
Writing library                : x264 core 120  ;yER V  
Encoding settings              : cabac=1 / ref=4 / deblock=1:0:0 / analyse=0x3:0x113 / me=hex / subme=7 / psy=1 / psy_rd=1.00:0.00 / mixed_ref=1 / me_range=16 / chroma_me=1 / trellis=0 / 8x8dct=1 / cqm=0 / deadzone=21,11 / fast_pskip=1 / chroma_qp_offset=-2 / threads=3 / sliced_threads=0 / nr=0 / decimate=1 / interlaced=0 / bluray_compat=0 / constrained_intra=0 / bframes=0 / weightp=2 / keyint=250 / keyint_min=25 / scenecut=40 / intra_refresh=0 / rc_lookahead=40 / rc=crf / mbtree=1 / crf=24.0 / qcomp=0.60 / qpmin=0 / qpmax=69 / qpstep=4 / ip_ratio=1.40 / aq=1:1.00 n03SX aU~V  
Default                        : Yes %+! 9  
Forced                         : No
Audio P~ZV:Of  
ID                             : 2 I64:-P[\  
Format                         : Vorbis Ng39D#_)  
Format settings, Floor         : 1 !cq| g  
Codec ID                       : A_VORBIS V1>94/waa  
Duration                       : 1h 57mn f vM3.P  
Bit rate mode                  : Variable hJ*E"{xs  
Bit rate                       : 96.0 Kbps ,UZE;lXJ'Q  
Channel(s)                     : 2 channels &2]D+aL|h  
Sampling rate                  : 48.0 KHz ZWW8Hr  
Compression mode               : Lossy +&zCmkVC7  
Stream size                    : 80.6 MiB (10%) KR(ftG'  
Writing library                : libVorbis (Schaufenugget) (20101101 (Schaufenugget)) (g:W|hS  
Default                        : Yes iC+H;s5<  
Forced                         : No LHz<=]?@  
Writing application            : Lavc53.42.0
K$GXXE`  
Ru aJ9O  
此帖售价 2 金钱,已有 20 人购买 [记录] [购买]
购买后,将显示帖子中所有出售内容。
若发现会员采用欺骗的方法获取财富,请立刻举报,我们会对会员处以2-N倍的罚金,严重者封掉ID!
此段为出售的内容,购买后显示
离线耶稣

发帖
7190
金钱
276046
威望
2509
贡献值
1669
交易币
11317
只看该作者 1楼 发表于: 2014-07-20
感谢感谢




发帖
2894
金钱
59589
威望
727
贡献值
479
交易币
3807
只看该作者 2楼 发表于: 2014-07-20
tv版画质还没业余的好

内容来自Android手机客户端

离线野生动物

发帖
477
金钱
212
威望
20
贡献值
3
交易币
2
只看该作者 3楼 发表于: 2014-07-20
谢谢楼主分享啦

发帖
706
金钱
3072
威望
203
贡献值
51
交易币
771
只看该作者 4楼 发表于: 2014-07-20
谢谢幽灵~

发帖
808
金钱
12722
威望
235
贡献值
115
交易币
1156
只看该作者 5楼 发表于: 2014-07-20
谢谢,收了
离线musickingdom

发帖
835
金钱
55
威望
109
贡献值
56
交易币
1034
只看该作者 6楼 发表于: 2014-07-20
支持稀缺资源压制
正在建设的土豆小站萌萌哒~http://www.tudou.com/home/_68623032/
离线mjlove98

发帖
2581
金钱
4098
威望
197
贡献值
123
交易币
2659
只看该作者 8楼 发表于: 2014-07-21
感谢楼主了。
发帖
*
金钱
*
威望
*
贡献值
*
交易币
*
只看该作者 9楼 发表于: 2014-07-21
感谢压制
快速回复
限100 字节
 
上一个 下一个