论坛风格切换切换到宽版
  • 5392阅读
  • 31回复

961007.HIStory演唱会.Tunis.480p.x264.25fps-MSZ压制【百度盘】 [复制链接]

上一主题 下一主题
离线mjghosts
 

发帖
8278
金钱
220226
威望
9195
贡献值
2742
交易币
4817
只看楼主 倒序阅读 楼主  发表于: 2014-07-20
下载链接请直转! sNf& "C!;  
片源:michaelvideos.ro
}@DCcf$<  
Fs+ tcr/\[  
历史巡演-突尼斯站私拍版,画面很稳定几乎没有任何抖动情况,但画质和音质均一般,该场TV版缺失的Intro和History可以用私拍版补全,是这个私拍版最大的价值。 'yo@5*x7  
6FS%9.Ws  
PS:截至目前,MJSHOWZONE把所有已出现的VHS-DVD的历史巡演私拍版全部压制和分享完毕,如有疑问或场次缺漏欢迎发言。
Psb !Z(  
l#)X/(?;  
lu utyK!  
[4KQcmJc#  
General 62xOh\(  
Unique ID                      : 95387882337392305668949046931546275377 (0x47C309B3531C4BF2632B6AD9638D7E31) CEfqFn3^  
Complete name                  : E:\[MJSHOWZONE]19961007.HIStory演唱会.Tunis.480p.x264.25fps-117min.mkv so))J`ca)  
Format                         : Matroska 8}%F`=Y0  
Format version                 : Version 2 B4s$| i{D  
File size                      : 771 MiB (3e.q'  
Duration                       : 1h 57mn =%_=!%  
Overall bit rate mode          : Variable qI'pjTMDY  
Overall bit rate               : 918 Kbps h!tpi`8\z  
Writing application            : Kirara Encoder dv+Gv7&2/  
Writing library                : Kirara Encoder
Video [kg^S`gc#  
ID                             : 1 1zRYd`IPoq  
Format                         : AVC %OoH<\w w  
Format/Info                    : Advanced Video Codec +'8a>K^  
Format profile                 : High@L4.1 0SvPr [ >  
Format settings, CABAC         : Yes N3$1f$`  
Format settings, ReFrames      : 4 frames ~QSX 1w"  
Codec ID                       : V_MPEG4/ISO/AVC =4`wYh  
Duration                       : 1h 57mn {C&U q#V  
Bit rate                       : 804 Kbps P@PF" {S  
Width                          : 640 pixels 6!>p<p"Ns  
Height                         : 480 pixels y>}r  
Display aspect ratio           : 4:3 C*ep8{B  
Frame rate mode                : Constant 7YD+zd:  
Frame rate                     : 25.000 fps +Kb 7N, "  
Color space                    : YUV -_nQn  
Chroma subsampling             : 4:2:0 5e. aTW;U  
Bit depth                      : 8 bits g ptf*^s  
Scan type                      : Progressive A0 Nx?  
Bits/(Pixel*Frame)             : 0.105 I3.. Yk%7  
Stream size                    : 675 MiB (88%) d~qQ_2M[G  
Writing library                : x264 core 120 =oI[E~1<  
Encoding settings              : cabac=1 / ref=4 / deblock=1:0:0 / analyse=0x3:0x113 / me=hex / subme=7 / psy=1 / psy_rd=1.00:0.00 / mixed_ref=1 / me_range=16 / chroma_me=1 / trellis=0 / 8x8dct=1 / cqm=0 / deadzone=21,11 / fast_pskip=1 / chroma_qp_offset=-2 / threads=3 / sliced_threads=0 / nr=0 / decimate=1 / interlaced=0 / bluray_compat=0 / constrained_intra=0 / bframes=0 / weightp=2 / keyint=250 / keyint_min=25 / scenecut=40 / intra_refresh=0 / rc_lookahead=40 / rc=crf / mbtree=1 / crf=24.0 / qcomp=0.60 / qpmin=0 / qpmax=69 / qpstep=4 / ip_ratio=1.40 / aq=1:1.00 )9"^ D  
Default                        : Yes `;Tf_6c  
Forced                         : No
Audio nC p/.]Y*  
ID                             : 2 r{v3 XD/  
Format                         : Vorbis IOZw[9](+  
Format settings, Floor         : 1 aC[G_ACwc  
Codec ID                       : A_VORBIS g7]S  
Duration                       : 1h 57mn 6d]4 %QT  
Bit rate mode                  : Variable +h"i6`g  
Bit rate                       : 96.0 Kbps zNX=V!$  
Channel(s)                     : 2 channels lVT*Ev{&.  
Sampling rate                  : 48.0 KHz &'12,'8  
Compression mode               : Lossy R-zS7Jyox  
Stream size                    : 80.6 MiB (10%) EgG3XhfS  
Writing library                : libVorbis (Schaufenugget) (20101101 (Schaufenugget)) CP9Q|'oJ  
Default                        : Yes 1ik.|T<f0  
Forced                         : No p}==aNZK  
Writing application            : Lavc53.42.0
u `ww  
^vh!1"T  
此帖售价 2 金钱,已有 20 人购买 [记录] [购买]
购买后,将显示帖子中所有出售内容。
若发现会员采用欺骗的方法获取财富,请立刻举报,我们会对会员处以2-N倍的罚金,严重者封掉ID!
此段为出售的内容,购买后显示
离线耶稣

发帖
7281
金钱
289450
威望
2624
贡献值
1719
交易币
11536
只看该作者 1楼 发表于: 2014-07-20
感谢感谢



发帖
2894
金钱
59665
威望
727
贡献值
479
交易币
3807
只看该作者 2楼 发表于: 2014-07-20
tv版画质还没业余的好

内容来自Android手机客户端

离线野生动物

发帖
477
金钱
212
威望
20
贡献值
3
交易币
2
只看该作者 3楼 发表于: 2014-07-20
谢谢楼主分享啦

发帖
706
金钱
3072
威望
203
贡献值
51
交易币
771
只看该作者 4楼 发表于: 2014-07-20
谢谢幽灵~

发帖
808
金钱
12722
威望
235
贡献值
115
交易币
1156
只看该作者 5楼 发表于: 2014-07-20
谢谢,收了
离线musickingdom

发帖
842
金钱
52
威望
109
贡献值
56
交易币
1041
只看该作者 6楼 发表于: 2014-07-20
支持稀缺资源压制
正在建设的土豆小站萌萌哒~http://www.tudou.com/home/_68623032/
离线HappyLee

发帖
2728
金钱
106946
威望
2729
贡献值
1385
交易币
3898
只看该作者 7楼 发表于: 2014-07-21
强大,这么多私拍版居然压制全了!幽灵兄辛苦了!
离线mjlove98

发帖
2613
金钱
3616
威望
197
贡献值
123
交易币
2691
只看该作者 8楼 发表于: 2014-07-21
感谢楼主了。
发帖
*
金钱
*
威望
*
贡献值
*
交易币
*
只看该作者 9楼 发表于: 2014-07-21
感谢压制
快速回复
限100 字节
 
上一个 下一个