论坛风格切换切换到宽版
  • 4081阅读
  • 54回复

1996.HIStory演唱会.Brunei_v2高音质.480p.x264.25fps-MSZ压制【百度盘】 [复制链接]

上一主题 下一主题
离线mjghosts
 

发帖
8251
金钱
218537
威望
9176
贡献值
2723
交易币
4762
只看楼主 倒序阅读 楼主  发表于: 2014-12-22
下载链接请直转! Qqm?%7A1  
片源:MJSHOWZONE
.j}]J:{%  
b8WtNVd  
奉上最新制作并压制的版本,引用老外发布的5G优化版音频,进行二次优化,且调节了Smooth Criminal和Heal The World两首歌的音画同步。另外,因为该DVD画面中多次出现作者ID水印,笔者用优化版同源的DVD(MJLand_ro版,无间奏)自己进行画面降噪、调色处理。色彩偏淡,但个人感觉挺自然。毕竟这一场画质就这样了,还有色块问题很难修复。总体来说,观看效果还是比上一发布版本http://www.mjsunny.com/read.php?tid=59210要好一截,推荐! qO6M5g:   
5`h$^l/  
"\|P6H  
.}IW!$ dq  
Af3|l  
10S I&O  
General -S$F\%  
Unique ID                      : 288766646826737861892916373194475129550 (0xD93E6EE69D30D47056CD1CB443F14ACE) ] Q5:JV  
Complete name                  : H:\14 压制作品\[MJSHOWZONE]1996.HIStory演唱会.Brunei_v2(HQ Audio).480p.x264.25fps.mkv EI_-5TtRD  
Format                         : Matroska 56;u 7  
Format version                 : Version 2 4=Th<,<  
File size                      : 850 MiB ,rMf;/[  
Duration                       : 1h 50mn ]?6wU-a  
Overall bit rate mode          : Variable 6KddHyFz  
Overall bit rate               : 1 076 Kbps T5:Q_o]  
Writing application            : Kirara Encoder <^YvgQ,m  
Writing library                : Kirara Encoder
Video "xlR>M6e  
ID                             : 1 ^yW['H6V  
Format                         : AVC B $u/n  
Format/Info                    : Advanced Video Codec (OiV IH  
Format profile                 : High@L4.1 ]'5Xjcx  
Format settings, CABAC         : Yes iq' PeVo  
Format settings, ReFrames      : 4 frames f2e;N[D  
Codec ID                       : V_MPEG4/ISO/AVC F^GNOD3J  
Duration                       : 1h 50mn )Fx]LeI;  
Bit rate                       : 958 Kbps ]W;6gmV  
Width                          : 640 pixels CHGa_  
Height                         : 480 pixels 0si1:+t-[+  
Display aspect ratio           : 4:3 y'm!h?8  
Frame rate mode                : Constant V8/4:Va7 s  
Frame rate                     : 25.000 fps X\`']\l  
Color space                    : YUV H$Kc~#=  
Chroma subsampling             : 4:2:0 Mz&/.A  
Bit depth                      : 8 bits ~vA{I%z5~  
Scan type                      : Progressive X.>=&~[  
Bits/(Pixel*Frame)             : 0.125 US$$ADq  
Stream size                    : 757 MiB (89%) RiQ ]AsTtl  
Writing library                : x264 core 120 WGz)-IB!PE  
Encoding settings              : cabac=1 / ref=4 / deblock=1:0:0 / analyse=0x3:0x113 / me=hex / subme=7 / psy=1 / psy_rd=1.00:0.00 / mixed_ref=1 / me_range=16 / chroma_me=1 / trellis=0 / 8x8dct=1 / cqm=0 / deadzone=21,11 / fast_pskip=1 / chroma_qp_offset=-2 / threads=3 / sliced_threads=0 / nr=0 / decimate=1 / interlaced=0 / bluray_compat=0 / constrained_intra=0 / bframes=0 / weightp=2 / keyint=250 / keyint_min=25 / scenecut=40 / intra_refresh=0 / rc_lookahead=40 / rc=crf / mbtree=1 / crf=21.0 / qcomp=0.60 / qpmin=0 / qpmax=69 / qpstep=4 / ip_ratio=1.40 / aq=1:1.00 36{GZDGQ  
Default                        : Yes n1PptR  
Forced                         : No
Audio -8^qtB  
ID                             : 2 Y5tyFi#w[  
Format                         : Vorbis ^m%#1Zd  
Format settings, Floor         : 1 !Q[v"6?  
Codec ID                       : A_VORBIS f7a4E+}  
Duration                       : 1h 50mn Gt.'_hf Js  
Bit rate mode                  : Variable I5M\PK/  
Bit rate                       : 96.0 Kbps :rL%,o"  
Channel(s)                     : 2 channels w&?XsO@0W  
Sampling rate                  : 48.0 KHz P{9:XSa%  
Compression mode               : Lossy zz*PAYl.  
Stream size                    : 75.8 MiB (9%) -LiGO#U  
Writing library                : libVorbis (Schaufenugget) (20101101 (Schaufenugget)) eJo" Z  
Default                        : Yes DDr\Kv)k(  
Forced                         : No v8-My1toV  
Writing application            : Lavc53.42.0
iL;V5|(sb  
9Rk(q4.OP  
此帖售价 10 金钱,已有 41 人购买 [记录] [购买]
购买后,将显示帖子中所有出售内容。
若发现会员采用欺骗的方法获取财富,请立刻举报,我们会对会员处以2-N倍的罚金,严重者封掉ID!
此段为出售的内容,购买后显示
6条评分贡献值+12金钱+32威望+12
MJ之王 贡献值 +5 好东西,顶!!! 2014-12-23
MJ之王 威望 +5 好东西,顶!!! 2014-12-23
MJ之王 金钱 +25 好东西,顶!!! 2014-12-23
lishuang11 贡献值 +7 哥儿已强烈的阅 2014-12-22
lishuang11 威望 +7 哥儿已强烈的阅 2014-12-22
lishuang11 金钱 +7 哥儿已强烈的阅 2014-12-22

发帖
847
金钱
16918
威望
917
贡献值
404
交易币
1125
只看该作者 1楼 发表于: 2014-12-22
幽灵大哥从来木有停止过给力
I'll never let you part,for you are always in my heart.
http://www.mjsunny.com/read.php?tid=62616
离线王子起航

发帖
183
金钱
4991
威望
58
贡献值
4
交易币
202
只看该作者 2楼 发表于: 2014-12-22
就是喜欢这样的文件,比那种DVD文件夹方便,还不占地方~V2是什么意思呢?
离线耶稣

发帖
7158
金钱
273325
威望
2493
贡献值
1657
交易币
11237
只看该作者 3楼 发表于: 2014-12-22
优化也就那样 了,这场也只有替换音轨了。。
离线mjghosts

发帖
8251
金钱
218537
威望
9176
贡献值
2723
交易币
4762
只看该作者 4楼 发表于: 2014-12-22
回 王子起航 的帖子
王子起航:就是喜欢这样的文件,比那种DVD文件夹方便,还不占地方~V2是什么意思呢? (2014-12-22 13:34)  .eD&UQ  
#&Tm%CvB  
V2是个标记,意思是Version 2,即版本二。
离线mjghosts

发帖
8251
金钱
218537
威望
9176
贡献值
2723
交易币
4762
只看该作者 5楼 发表于: 2014-12-22
回 怪盗基德 的帖子
怪盗基德:优化也就那样 了,这场也只有替换音轨了。。 (2014-12-22 13:40)  ,7@\e &/&  
9 ~W]D!m,  
嗯,这场的画质也就稍微比VCD好一点。
离线mjghosts

发帖
8251
金钱
218537
威望
9176
贡献值
2723
交易币
4762
只看该作者 6楼 发表于: 2014-12-22
回 土肥圆巨蟹座 的帖子
土肥圆巨蟹座:幽灵大哥从来木有停止过给力[表情]  (2014-12-22 13:27)  o[JZ>nm  
bs% RWwn  
谢支持。

发帖
2609
金钱
69107
威望
1931
贡献值
703
交易币
3899
只看该作者 7楼 发表于: 2014-12-22
居然给发上来了支持个
迈克尔杰克逊纪念博客
http://blog.sina.com.cn/u/1879209312
离线迈迷澈华

发帖
134
金钱
787
威望
29
贡献值
5
交易币
104
只看该作者 8楼 发表于: 2014-12-22
不错,以前非常喜欢这场的BJ,就是音质忍不了

发帖
706
金钱
3072
威望
203
贡献值
51
交易币
771
只看该作者 9楼 发表于: 2014-12-22
可以洗掉之前那个了...
快速回复
限100 字节
 
上一个 下一个