论坛风格切换切换到宽版
  • 3488阅读
  • 51回复

1996.HIStory演唱会.Brunei_v2高音质.480p.x264.25fps-MSZ压制【百度盘】 [复制链接]

上一主题 下一主题
离线mjghosts
 

发帖
8235
金钱
214510
威望
9169
贡献值
2718
交易币
4726
只看楼主 倒序阅读 楼主  发表于: 2014-12-22
下载链接请直转! F;pTXt}?5  
片源:MJSHOWZONE
_B}9 f  
l(gJLjTH%  
奉上最新制作并压制的版本,引用老外发布的5G优化版音频,进行二次优化,且调节了Smooth Criminal和Heal The World两首歌的音画同步。另外,因为该DVD画面中多次出现作者ID水印,笔者用优化版同源的DVD(MJLand_ro版,无间奏)自己进行画面降噪、调色处理。色彩偏淡,但个人感觉挺自然。毕竟这一场画质就这样了,还有色块问题很难修复。总体来说,观看效果还是比上一发布版本http://www.mjsunny.com/read.php?tid=59210要好一截,推荐! F{;; :  
+yCTH  
k5wi'  
{8 N=WZ  
~\ [?wN  
9#Bx]wy  
General )&,K94  
Unique ID                      : 288766646826737861892916373194475129550 (0xD93E6EE69D30D47056CD1CB443F14ACE)  &{ZSE^  
Complete name                  : H:\14 压制作品\[MJSHOWZONE]1996.HIStory演唱会.Brunei_v2(HQ Audio).480p.x264.25fps.mkv 5ITq?%{M  
Format                         : Matroska NAJVr}4f  
Format version                 : Version 2 +s~.A_7)  
File size                      : 850 MiB m$:&P|!'p  
Duration                       : 1h 50mn !` 26\@1  
Overall bit rate mode          : Variable CVQB"L  
Overall bit rate               : 1 076 Kbps .'d2J>~N  
Writing application            : Kirara Encoder o~1 Kp!U  
Writing library                : Kirara Encoder
Video v>m n/a  
ID                             : 1 ^Z}Ob= .G  
Format                         : AVC *#&*`iJ(  
Format/Info                    : Advanced Video Codec &`!^Zq vG  
Format profile                 : High@L4.1 n$["z w  
Format settings, CABAC         : Yes u8vuwbra!  
Format settings, ReFrames      : 4 frames p>*i$  
Codec ID                       : V_MPEG4/ISO/AVC b~0N^p[&%  
Duration                       : 1h 50mn ktH8as^54!  
Bit rate                       : 958 Kbps 6][1 <}8  
Width                          : 640 pixels @gfDp<  
Height                         : 480 pixels wz /GB8P  
Display aspect ratio           : 4:3 {rH9grb  
Frame rate mode                : Constant {1lO  
Frame rate                     : 25.000 fps `)>7)={  
Color space                    : YUV $p* p  
Chroma subsampling             : 4:2:0 @9G- m(?*  
Bit depth                      : 8 bits {U!uVQC'  
Scan type                      : Progressive T=Z.U$  
Bits/(Pixel*Frame)             : 0.125 #=e;?w  
Stream size                    : 757 MiB (89%) 7 6fIC  
Writing library                : x264 core 120 v6a]1B   
Encoding settings              : cabac=1 / ref=4 / deblock=1:0:0 / analyse=0x3:0x113 / me=hex / subme=7 / psy=1 / psy_rd=1.00:0.00 / mixed_ref=1 / me_range=16 / chroma_me=1 / trellis=0 / 8x8dct=1 / cqm=0 / deadzone=21,11 / fast_pskip=1 / chroma_qp_offset=-2 / threads=3 / sliced_threads=0 / nr=0 / decimate=1 / interlaced=0 / bluray_compat=0 / constrained_intra=0 / bframes=0 / weightp=2 / keyint=250 / keyint_min=25 / scenecut=40 / intra_refresh=0 / rc_lookahead=40 / rc=crf / mbtree=1 / crf=21.0 / qcomp=0.60 / qpmin=0 / qpmax=69 / qpstep=4 / ip_ratio=1.40 / aq=1:1.00 jdqj=Yc  
Default                        : Yes TW&DFKK`  
Forced                         : No
Audio !cEG}(|h  
ID                             : 2 !mfJpJ  
Format                         : Vorbis x<(b|2qf  
Format settings, Floor         : 1 zzpZ19"`1  
Codec ID                       : A_VORBIS /ONV5IkPy  
Duration                       : 1h 50mn _uxPx21g}  
Bit rate mode                  : Variable > dZ3+f  
Bit rate                       : 96.0 Kbps 1cN')"  
Channel(s)                     : 2 channels |!z2oO  
Sampling rate                  : 48.0 KHz 0OZMlt%z  
Compression mode               : Lossy n$+M%}/f  
Stream size                    : 75.8 MiB (9%) lPq\=V  
Writing library                : libVorbis (Schaufenugget) (20101101 (Schaufenugget)) lvSdY(8  
Default                        : Yes Nud,\mXrY[  
Forced                         : No <-C!;Ce{  
Writing application            : Lavc53.42.0
'?Bg;Z'L%  
,{}#8r`+*  
此帖售价 10 金钱,已有 38 人购买 [记录] [购买]
购买后,将显示帖子中所有出售内容。
若发现会员采用欺骗的方法获取财富,请立刻举报,我们会对会员处以2-N倍的罚金,严重者封掉ID!
此段为出售的内容,购买后显示
6条评分贡献值+12金钱+32威望+12
MJ之王 贡献值 +5 好东西,顶!!! 2014-12-23
MJ之王 威望 +5 好东西,顶!!! 2014-12-23
MJ之王 金钱 +25 好东西,顶!!! 2014-12-23
lishuang11 贡献值 +7 哥儿已强烈的阅 2014-12-22
lishuang11 威望 +7 哥儿已强烈的阅 2014-12-22
lishuang11 金钱 +7 哥儿已强烈的阅 2014-12-22

发帖
847
金钱
17110
威望
917
贡献值
404
交易币
1125
只看该作者 1楼 发表于: 2014-12-22
幽灵大哥从来木有停止过给力
I'll never let you part,for you are always in my heart.
http://www.mjsunny.com/read.php?tid=62616
离线王子起航

发帖
182
金钱
4989
威望
58
贡献值
4
交易币
201
只看该作者 2楼 发表于: 2014-12-22
就是喜欢这样的文件,比那种DVD文件夹方便,还不占地方~V2是什么意思呢?
离线耶稣

发帖
7108
金钱
259742
威望
2458
贡献值
1632
交易币
11115
只看该作者 3楼 发表于: 2014-12-22
优化也就那样 了,这场也只有替换音轨了。。
离线mjghosts

发帖
8235
金钱
214510
威望
9169
贡献值
2718
交易币
4726
只看该作者 4楼 发表于: 2014-12-22
回 王子起航 的帖子
王子起航:就是喜欢这样的文件,比那种DVD文件夹方便,还不占地方~V2是什么意思呢? (2014-12-22 13:34)  \w[%n0  
@$Kq<P  
V2是个标记,意思是Version 2,即版本二。
离线mjghosts

发帖
8235
金钱
214510
威望
9169
贡献值
2718
交易币
4726
只看该作者 5楼 发表于: 2014-12-22
回 怪盗基德 的帖子
怪盗基德:优化也就那样 了,这场也只有替换音轨了。。 (2014-12-22 13:40)  ~K~b`|1  
eg"=H50  
嗯,这场的画质也就稍微比VCD好一点。
离线mjghosts

发帖
8235
金钱
214510
威望
9169
贡献值
2718
交易币
4726
只看该作者 6楼 发表于: 2014-12-22
回 土肥圆巨蟹座 的帖子
土肥圆巨蟹座:幽灵大哥从来木有停止过给力[表情]  (2014-12-22 13:27)  \:'%9 x  
$Of0n` e  
谢支持。

发帖
2596
金钱
69275
威望
1930
贡献值
702
交易币
3882
只看该作者 7楼 发表于: 2014-12-22
居然给发上来了支持个
迈克尔杰克逊纪念博客
http://blog.sina.com.cn/u/1879209312
离线迈迷澈华

发帖
134
金钱
787
威望
29
贡献值
5
交易币
104
只看该作者 8楼 发表于: 2014-12-22
不错,以前非常喜欢这场的BJ,就是音质忍不了

发帖
706
金钱
3072
威望
203
贡献值
51
交易币
771
只看该作者 9楼 发表于: 2014-12-22
可以洗掉之前那个了...
快速回复
限100 字节
 
上一个 下一个