论坛风格切换切换到宽版
  • 4223阅读
  • 54回复

1996.HIStory演唱会.Brunei_v2高音质.480p.x264.25fps-MSZ压制【百度盘】 [复制链接]

上一主题 下一主题
离线mjghosts
 

发帖
8256
金钱
219309
威望
9187
贡献值
2734
交易币
4791
只看楼主 倒序阅读 楼主  发表于: 2014-12-22
下载链接请直转! 2xJT!lN  
片源:MJSHOWZONE
lS:R##  
*E-VS= #  
奉上最新制作并压制的版本,引用老外发布的5G优化版音频,进行二次优化,且调节了Smooth Criminal和Heal The World两首歌的音画同步。另外,因为该DVD画面中多次出现作者ID水印,笔者用优化版同源的DVD(MJLand_ro版,无间奏)自己进行画面降噪、调色处理。色彩偏淡,但个人感觉挺自然。毕竟这一场画质就这样了,还有色块问题很难修复。总体来说,观看效果还是比上一发布版本http://www.mjsunny.com/read.php?tid=59210要好一截,推荐! 9X2 lH~C  
\p&a c&]  
$EuWQq7OI2  
(KDv>@5  
Hx]{'?   
=>7\s}QZ  
General  xedbr  
Unique ID                      : 288766646826737861892916373194475129550 (0xD93E6EE69D30D47056CD1CB443F14ACE) m )2t<  
Complete name                  : H:\14 压制作品\[MJSHOWZONE]1996.HIStory演唱会.Brunei_v2(HQ Audio).480p.x264.25fps.mkv X|WAUp?  
Format                         : Matroska \q8D7/q  
Format version                 : Version 2 ]bq<vI%  
File size                      : 850 MiB oR=^NEJv  
Duration                       : 1h 50mn _cZ`7 ]Z  
Overall bit rate mode          : Variable I [J0r  
Overall bit rate               : 1 076 Kbps !Cj1:P  
Writing application            : Kirara Encoder A}#@(ma7  
Writing library                : Kirara Encoder
Video >?,arER  
ID                             : 1 N,w;s-*  
Format                         : AVC WT!8.M;Kv  
Format/Info                    : Advanced Video Codec R0fZ9_d7}  
Format profile                 : High@L4.1 4];Qpln  
Format settings, CABAC         : Yes Y.yM1 z  
Format settings, ReFrames      : 4 frames yov:JnWo  
Codec ID                       : V_MPEG4/ISO/AVC 1+o>#8D  
Duration                       : 1h 50mn muo7KUT  
Bit rate                       : 958 Kbps (@M=W.M#  
Width                          : 640 pixels x}1(okc  
Height                         : 480 pixels v>g1\y Iw  
Display aspect ratio           : 4:3 ;oC85I  
Frame rate mode                : Constant n=t%,[Op  
Frame rate                     : 25.000 fps d[rxmEXht  
Color space                    : YUV X\$|oiR  
Chroma subsampling             : 4:2:0 J~<:yBup}  
Bit depth                      : 8 bits |fTQ\q]W  
Scan type                      : Progressive Z/;rM8[{&  
Bits/(Pixel*Frame)             : 0.125 xvp{F9~qT  
Stream size                    : 757 MiB (89%) +#Ov9b  
Writing library                : x264 core 120 0<v~J9i  
Encoding settings              : cabac=1 / ref=4 / deblock=1:0:0 / analyse=0x3:0x113 / me=hex / subme=7 / psy=1 / psy_rd=1.00:0.00 / mixed_ref=1 / me_range=16 / chroma_me=1 / trellis=0 / 8x8dct=1 / cqm=0 / deadzone=21,11 / fast_pskip=1 / chroma_qp_offset=-2 / threads=3 / sliced_threads=0 / nr=0 / decimate=1 / interlaced=0 / bluray_compat=0 / constrained_intra=0 / bframes=0 / weightp=2 / keyint=250 / keyint_min=25 / scenecut=40 / intra_refresh=0 / rc_lookahead=40 / rc=crf / mbtree=1 / crf=21.0 / qcomp=0.60 / qpmin=0 / qpmax=69 / qpstep=4 / ip_ratio=1.40 / aq=1:1.00 $am7 xd  
Default                        : Yes &R*d/~SU  
Forced                         : No
Audio o{UwUMw5`  
ID                             : 2 M_79\Gz"  
Format                         : Vorbis KM0#M'dXy  
Format settings, Floor         : 1 b55|JWfC`  
Codec ID                       : A_VORBIS rKJ%/7m  
Duration                       : 1h 50mn },i?3dSvl  
Bit rate mode                  : Variable 79x^zqLb  
Bit rate                       : 96.0 Kbps dc?Yk3(Y  
Channel(s)                     : 2 channels a-QHm;_S  
Sampling rate                  : 48.0 KHz bQ .y,+  
Compression mode               : Lossy %eT/:I  
Stream size                    : 75.8 MiB (9%) O^:Pr8|{J  
Writing library                : libVorbis (Schaufenugget) (20101101 (Schaufenugget)) HPpnw] _  
Default                        : Yes s{iYf :  
Forced                         : No {O^1WgGc[  
Writing application            : Lavc53.42.0
?tSY=DK\n  
|Xu7cCh$me  
此帖售价 10 金钱,已有 41 人购买 [记录] [购买]
购买后,将显示帖子中所有出售内容。
若发现会员采用欺骗的方法获取财富,请立刻举报,我们会对会员处以2-N倍的罚金,严重者封掉ID!
此段为出售的内容,购买后显示
6条评分贡献值+12金钱+32威望+12
MJ之王 贡献值 +5 好东西,顶!!! 2014-12-23
MJ之王 威望 +5 好东西,顶!!! 2014-12-23
MJ之王 金钱 +25 好东西,顶!!! 2014-12-23
lishuang11 贡献值 +7 哥儿已强烈的阅 2014-12-22
lishuang11 威望 +7 哥儿已强烈的阅 2014-12-22
lishuang11 金钱 +7 哥儿已强烈的阅 2014-12-22

发帖
847
金钱
16652
威望
917
贡献值
404
交易币
1125
只看该作者 1楼 发表于: 2014-12-22
幽灵大哥从来木有停止过给力
I'll never let you part,for you are always in my heart.
http://www.mjsunny.com/read.php?tid=62616
离线王子起航

发帖
183
金钱
4996
威望
58
贡献值
4
交易币
202
只看该作者 2楼 发表于: 2014-12-22
就是喜欢这样的文件,比那种DVD文件夹方便,还不占地方~V2是什么意思呢?
离线耶稣

发帖
7193
金钱
276356
威望
2517
贡献值
1670
交易币
11324
只看该作者 3楼 发表于: 2014-12-22
优化也就那样 了,这场也只有替换音轨了。。
离线mjghosts

发帖
8256
金钱
219309
威望
9187
贡献值
2734
交易币
4791
只看该作者 4楼 发表于: 2014-12-22
回 王子起航 的帖子
王子起航:就是喜欢这样的文件,比那种DVD文件夹方便,还不占地方~V2是什么意思呢? (2014-12-22 13:34)  I]jVnQ>&  
3 3s.p'  
V2是个标记,意思是Version 2,即版本二。
离线mjghosts

发帖
8256
金钱
219309
威望
9187
贡献值
2734
交易币
4791
只看该作者 5楼 发表于: 2014-12-22
回 怪盗基德 的帖子
怪盗基德:优化也就那样 了,这场也只有替换音轨了。。 (2014-12-22 13:40)  wHEt;rc(  
9V9K3xWn  
嗯,这场的画质也就稍微比VCD好一点。
离线mjghosts

发帖
8256
金钱
219309
威望
9187
贡献值
2734
交易币
4791
只看该作者 6楼 发表于: 2014-12-22
回 土肥圆巨蟹座 的帖子
土肥圆巨蟹座:幽灵大哥从来木有停止过给力[表情]  (2014-12-22 13:27)   od$$g(  
] *U+nG  
谢支持。

发帖
2615
金钱
69213
威望
1949
贡献值
711
交易币
3909
只看该作者 7楼 发表于: 2014-12-22
居然给发上来了支持个
迈克尔杰克逊纪念博客
http://blog.sina.com.cn/u/1879209312
离线迈迷澈华

发帖
134
金钱
787
威望
29
贡献值
5
交易币
104
只看该作者 8楼 发表于: 2014-12-22
不错,以前非常喜欢这场的BJ,就是音质忍不了

发帖
706
金钱
3072
威望
203
贡献值
51
交易币
771
只看该作者 9楼 发表于: 2014-12-22
可以洗掉之前那个了...
快速回复
限100 字节
 
上一个 下一个