论坛风格切换切换到宽版
  • 1577阅读
  • 13回复

97“历史”慕尼黑 avi无台标版 优化压制[480p] [复制链接]

上一主题 下一主题
 

发帖
450
金钱
813
威望
301
贡献值
110
交易币
672
只看楼主 倒序阅读 楼主  发表于: 2015-04-24
炒个冷饭吧,文件源自二锅头发布的没台标avi,主要调整了色彩,降噪。  
uO":\<1#  
D:\D盘需拷贝文件\MJ\MJ-97历史德国慕尼黑[无台标版].优化压制.mkv
  General
    Unique ID : 215972572713085477821327820521603152310 (0xA27ACDF369E75B0D964A6B364D1139B6)
    Complete name : D:\D盘需拷贝文件\MJ\MJ-97历史德国慕尼黑[无台标版].优化压制.mkv
    Format : Matroska
    Format version : Version 2
    File size : 1.21 GiB
    Duration : 2h 2mn
    Overall bit rate mode : Variable
    Overall bit rate : 1 415 Kbps
    Encoded date : UTC 2015-04-24 13:18:20
    Writing application : mkvmerge v5.2.1 ('A Far Off Place') built on Jan  2 2012 23:21:10
    Writing library : libebml v1.2.3 + libmatroska v1.3.0
  Video #1
    ID : 1
    Format : AVC
    Format/Info : Advanced Video Codec
    Format profile : High@L3.0
    Format settings, CABAC : Yes
    Format settings, ReFrames : 4 frames
    Muxing mode : Header stripping
    Codec ID : V_MPEG4/ISO/AVC
    Duration : 2h 2mn
    Bit rate : 1 212 Kbps
    Width : 640 pixels
    Height : 480 pixels
    Display aspect ratio : 4:3
    Frame rate mode : Constant
    Frame rate : 29.970 fps
    Color space : YUV
    Chroma subsampling : 4:2:0
    Bit depth : 8 bits
    Scan type : Progressive
    Bits/(Pixel*Frame) : 0.132
    Stream size : 1.04 GiB (86%)
    Writing library : x264 core 120 r2164 da19765
    Encoding settings : cabac=1 / ref=1 / deblock=1:0:0 / analyse=0x3:0x113 / me=hex / subme=2 / psy=1 / psy_rd=1.00:0.00 / mixed_ref=0 / me_range=16 / chroma_me=1 / trellis=0 / 8x8dct=1 / cqm=0 / deadzone=21,11 / fast_pskip=1 / chroma_qp_offset=0 / threads=3 / sliced_threads=0 / nr=0 / decimate=1 / interlaced=0 / bluray_compat=0 / constrained_intra=0 / bframes=3 / b_pyramid=2 / b_adapt=1 / b_bias=0 / direct=1 / weightb=1 / open_gop=0 / weightp=1 / keyint=300 / keyint_min=29 / scenecut=40 / intra_refresh=0 / rc_lookahead=10 / rc=crf / mbtree=1 / crf=24.0 / qcomp=0.60 / qpmin=0 / qpmax=69 / qpstep=4 / ip_ratio=1.40 / aq=1:1.00
    Language : English
    Default : Yes
    Forced : No
  Audio #2
    ID : 2
    Format : MPEG Audio
    Format version : Version 1
    Format profile : Layer 3
    Mode : Joint stereo
    Mode extension : MS Stereo
    Muxing mode : Header stripping
    Codec ID : A_MPEG/L3
    Codec ID/Hint : MP3
    Duration : 1h 1mn
    Bit rate mode : Variable
    Bit rate : 175 Kbps
    Channel count : 2 channels
    Sampling rate : 44.1 KHz
    Compression mode : Lossy
    Stream size : 76.4 MiB (6%)
    Writing library : LAME3.93 
    Encoding settings : -m j -V 4 -q 5 -lowpass 18.9 --abr 175
    Default : Yes
    Forced : No
Mq*Sp UR  
aC%0jJ<eo  
此帖售价 5 金钱,已有 10 人购买 [记录] [购买]
购买后,将显示帖子中所有出售内容。
若发现会员采用欺骗的方法获取财富,请立刻举报,我们会对会员处以2-N倍的罚金,严重者封掉ID!
此段为出售的内容,购买后显示
2条评分金钱+20威望+10
christinacc 威望 +10 - 2015-04-25
christinacc 金钱 +20 - 2015-04-25
人活一世,生命只有一次,一定要好好的善待自己和亲人与朋友,更要自强自立。
离线q965488338

发帖
709
金钱
28390
威望
224
贡献值
96
交易币
1082
只看该作者 1楼 发表于: 2015-04-24
支持压制!!
离线MC雷战

发帖
682
金钱
23300
威望
207
贡献值
148
交易币
39
只看该作者 2楼 发表于: 2015-04-24
好好支持
[img]
离线wannam

发帖
2702
金钱
87012
威望
382
贡献值
189
交易币
3345
只看该作者 3楼 发表于: 2015-04-25
谢谢压制,支持
离线王子起航

发帖
183
金钱
4986
威望
58
贡献值
4
交易币
202
只看该作者 4楼 发表于: 2015-04-25
色调变暖了。
离线mich008

发帖
832
金钱
5941
威望
24
贡献值
15
交易币
894
只看该作者 5楼 发表于: 2015-04-25
来支持一个

发帖
853
金钱
5129
威望
172
贡献值
42
交易币
1027
只看该作者 6楼 发表于: 2015-04-25
支持制作!
离线bachelor

发帖
1788
金钱
12700
威望
202
贡献值
21
交易币
1450
只看该作者 7楼 发表于: 2015-04-25
清晰度还需要在提高
离线hzh

发帖
8786
金钱
99303
威望
625
贡献值
341
交易币
10054
只看该作者 8楼 发表于: 2015-04-26
来支持一个
离线耶稣

发帖
7147
金钱
272129
威望
2491
贡献值
1655
交易币
11218
只看该作者 9楼 发表于: 2015-04-27
好像很不错的样子~




快速回复
限100 字节
 
上一个 下一个