论坛风格切换切换到宽版
  • 1423阅读
  • 6回复

This is it就是这样BDrip [复制链接]

上一主题 下一主题
离线耶稣
 

发帖
7190
金钱
276046
威望
2509
贡献值
1669
交易币
11317
只看楼主 倒序阅读 楼主  发表于: 2015-08-09
VTdZ&%@  
vL7}0n>tz  
STMcMm3  
WJ@,f%=<~  
General K67x.PZ  
Unique ID                                : 210936701486699514128764959739620145396 (0x9EB0EE5477533F5DD291C28985C8B8F4) x;I*Ho  
Complete name                            : E:\迈克尔杰克逊\迈克尔·杰克逊:就是这样.This.Is.It.2009.BDRip.mkv 8K qv)FjB  
Format                                   : Matroska XjC+kH  
Format version                           : Version 2 1+]e?  
File size                                : 2.73 GiB iL(E`_I<  
Duration                                 : 1h 51mn S7V;sR"V2  
Overall bit rate                         : 3 514 Kbps iU &V}p  
Encoded date                             : UTC 2012-08-11 00:43:17 ,}NG@JID  
Writing application                      : mkvmerge v3.3.0 ('Language') built on May  9 2010 02:39:50 #xO`k1W.  
Writing library                          : libebml v0.7.7 + libmatroska v0.8.1 /HLQ  
pgI@[zp7  
Video ( \]_/ W  
ID                                       : 1 4kx#=MLt  
Format                                   : AVC {|a' =I#2  
Format/Info                              : Advanced Video Codec fz:F*zT1  
Format profile                           : High@L4.1 pnf3YuB  
Format settings, CABAC                   : Yes _wm"v19  
Format settings, ReFrames                : 9 frames 'I;pS)sb  
Codec ID                                 : V_MPEG4/ISO/AVC U,)+wZJ  
Duration                                 : 1h 51mn W(EU*~<UC  
Bit rate                                 : 2 873 Kbps ~bg FU  
Width                                    : 1 280 pixels `$Q $l  
Height                                   : 720 pixels TqCzpf&&h/  
Display aspect ratio                     : 16:9 2g|+*.*`  
Frame rate mode                          : Constant pZF`+6 42  
Frame rate                               : 23.976 fps gy,B+~p  
Color space                              : YUV BIS5u4  
Chroma subsampling                       : 4:2:0 /id(atiF^  
Bit depth                                : 8 bits NkA|T1w7  
Scan type                                : Progressive m'@NF--#Oq  
Bits/(Pixel*Frame)                       : 0.130 Tgc)'8A;BN  
Stream size                              : 2.18 GiB (80%) ]t(;bD hT  
Writing library                          : x264 core 125 r2208 d9d2288 !*'uPw:l2  
Encoding settings                        : cabac=1 / ref=9 / deblock=1:-1:-1 / analyse=0x3:0x133 / me=tesa / subme=11 / psy=1 / psy_rd=1.00:0.15 / mixed_ref=1 / me_range=24 / chroma_me=1 / trellis=2 / 8x8dct=1 / cqm=0 / deadzone=21,11 / fast_pskip=0 / chroma_qp_offset=-3 / threads=36 / lookahead_threads=6 / sliced_threads=0 / nr=0 / decimate=1 / interlaced=0 / bluray_compat=0 / constrained_intra=0 / bframes=16 / b_pyramid=2 / b_adapt=2 / b_bias=0 / direct=3 / weightb=1 / open_gop=0 / weightp=2 / keyint=250 / keyint_min=23 / scenecut=40 / intra_refresh=0 / rc_lookahead=60 / rc=2pass / mbtree=1 / bitrate=2873 / ratetol=1.0 / qcomp=0.60 / qpmin=0 / qpmax=69 / qpstep=4 / cplxblur=20.0 / qblur=0.5 / ip_ratio=1.40 / aq=1:1.00 ":tQYo]d  
Default                                  : Yes Yx>=(B  
Forced                                   : No LSs!U 3"  
vdyLwBz:  
Audio KD11<&4_x  
ID                                       : 2 hB]4Tn5H  
Format                                   : AC-3 mQ*:?\@  
Format/Info                              : Audio Coding 3 $DuX1T  
Mode extension                           : CM (complete main) p(g0+.?`~  
Format settings, Endianness              : Big n}Pz:  
Codec ID                                 : A_AC3 uQIa"u7  
Duration                                 : 1h 51mn ( qG | .a  
Bit rate mode                            : Constant yqi=9NB  
Bit rate                                 : 640 Kbps c'ExZ)RJ  
Channel(s)                               : 6 channels WP{!|d&  
Channel positions                        : Front: L C R, Side: L R, LFE g b:)t }|  
Sampling rate                            : 48.0 KHz ME4Ir  
Bit depth                                : 16 bits vl+vzAd  
Compression mode                         : Lossy s2s}5b3  
Stream size                              : 510 MiB (18%) lrQ +G@#  
Default                                  : Yes ~Mu=,OT  
Forced                                   : No MW&ww14  
U)mg]o-VE  
P){F2&!P  
360云盘 j(JUOief  
尽情欣赏! +Fu=9j/,j  
此帖售价 1 金钱,已有 3 人购买 [记录] [购买]
购买后,将显示帖子中所有出售内容。
若发现会员采用欺骗的方法获取财富,请立刻举报,我们会对会员处以2-N倍的罚金,严重者封掉ID!
此段为出售的内容,购买后显示
t%jB[w&,os  
"+^d.13+]  
nx<q]J uv\  
"DV.%7*^  
YE#OAfj~  



离线q965488338

发帖
709
金钱
28408
威望
224
贡献值
96
交易币
1082
只看该作者 1楼 发表于: 2015-08-09
感谢!!!!
离线wannam

发帖
2702
金钱
87028
威望
382
贡献值
189
交易币
3345
只看该作者 2楼 发表于: 2015-08-10
谢谢分享!!!这个有没有字幕啊?我上次用电视搜索又看了一遍,还有三四个花絮,有一个花絮很棒,把smooth criminal那一段创意都解释清楚了。可惜没办法下载分享。不知道你们看过没有

楼主留言:

http://www.mjsunny.com/read.php?tid=60437&ds=1#tpc

离线bachelor

发帖
1791
金钱
12714
威望
202
贡献值
21
交易币
1453
只看该作者 3楼 发表于: 2015-08-10
辛苦了,谢谢了
离线wannam

发帖
2702
金钱
87028
威望
382
贡献值
189
交易币
3345
只看该作者 4楼 发表于: 2015-08-10
果然那个115也是挂了的,不过还好看过。。。下次想看了还可以再看一遍2333 h\:"k_u#  
完整版sc新mv没看过。。。
离线henry

发帖
979
金钱
4
威望
81
贡献值
21
交易币
1029
只看该作者 5楼 发表于: 2016-01-19
發現百度的7.7G沒有分檔下不了 唯有收下這個
离线qq8508633

发帖
73
金钱
41
威望
7
贡献值
9
交易币
113
只看该作者 6楼 发表于: 2017-12-21
消息
快速回复
限100 字节
 
上一个 下一个