论坛风格切换切换到宽版
  • 1181阅读
  • 5回复

This is it就是这样BDrip [复制链接]

上一主题 下一主题
离线耶稣
 

发帖
7087
金钱
254785
威望
2445
贡献值
1619
交易币
11054
只看楼主 倒序阅读 楼主  发表于: 2015-08-09
)i"52!  
 c?*x2Vk  
A;TNR  
79uAsI2-Y  
General :j[=   
Unique ID                                : 210936701486699514128764959739620145396 (0x9EB0EE5477533F5DD291C28985C8B8F4) WtlLqD!_D  
Complete name                            : E:\迈克尔杰克逊\迈克尔·杰克逊:就是这样.This.Is.It.2009.BDRip.mkv CN6b 982&  
Format                                   : Matroska =.IAd< C  
Format version                           : Version 2 -+Z&O?pSH  
File size                                : 2.73 GiB ^= '+#|:  
Duration                                 : 1h 51mn )5x,-m@  
Overall bit rate                         : 3 514 Kbps bKQ-PM&I/t  
Encoded date                             : UTC 2012-08-11 00:43:17 w_#5Na}>d  
Writing application                      : mkvmerge v3.3.0 ('Language') built on May  9 2010 02:39:50 AE4>pzBe  
Writing library                          : libebml v0.7.7 + libmatroska v0.8.1 \Bn$b2j!%  
mg *kB:p  
Video BoXGoFn  
ID                                       : 1 \E,Fe:/g  
Format                                   : AVC vU, ]UJ}  
Format/Info                              : Advanced Video Codec Sv03="&  
Format profile                           : High@L4.1 e[J0+ x#;r  
Format settings, CABAC                   : Yes fAV=O%^  
Format settings, ReFrames                : 9 frames ( O/+.qb  
Codec ID                                 : V_MPEG4/ISO/AVC oj~0zJI  
Duration                                 : 1h 51mn 3QzHQU  
Bit rate                                 : 2 873 Kbps '1yy&QUZq  
Width                                    : 1 280 pixels zE\@x+k.  
Height                                   : 720 pixels XK4idC  
Display aspect ratio                     : 16:9 V_"K  
Frame rate mode                          : Constant =D2x@ank[  
Frame rate                               : 23.976 fps '9MtIcNb  
Color space                              : YUV :5`BhFAd  
Chroma subsampling                       : 4:2:0 er?'o1M  
Bit depth                                : 8 bits -  zQ  
Scan type                                : Progressive FV&&  
Bits/(Pixel*Frame)                       : 0.130 Jyx6{O j  
Stream size                              : 2.18 GiB (80%) FSqS]6b3  
Writing library                          : x264 core 125 r2208 d9d2288 $:%?-xy(  
Encoding settings                        : cabac=1 / ref=9 / deblock=1:-1:-1 / analyse=0x3:0x133 / me=tesa / subme=11 / psy=1 / psy_rd=1.00:0.15 / mixed_ref=1 / me_range=24 / chroma_me=1 / trellis=2 / 8x8dct=1 / cqm=0 / deadzone=21,11 / fast_pskip=0 / chroma_qp_offset=-3 / threads=36 / lookahead_threads=6 / sliced_threads=0 / nr=0 / decimate=1 / interlaced=0 / bluray_compat=0 / constrained_intra=0 / bframes=16 / b_pyramid=2 / b_adapt=2 / b_bias=0 / direct=3 / weightb=1 / open_gop=0 / weightp=2 / keyint=250 / keyint_min=23 / scenecut=40 / intra_refresh=0 / rc_lookahead=60 / rc=2pass / mbtree=1 / bitrate=2873 / ratetol=1.0 / qcomp=0.60 / qpmin=0 / qpmax=69 / qpstep=4 / cplxblur=20.0 / qblur=0.5 / ip_ratio=1.40 / aq=1:1.00 uOqWMRsoi  
Default                                  : Yes p*rBT,'  
Forced                                   : No <aR8fU  
;(Q4x"?I  
Audio l K%pxqx  
ID                                       : 2 WlF"[mU-  
Format                                   : AC-3 n^|n6(EZ  
Format/Info                              : Audio Coding 3 *r)/.rK_  
Mode extension                           : CM (complete main) kScq#<Y&  
Format settings, Endianness              : Big SUXRWFl  
Codec ID                                 : A_AC3 mvI[=e*  
Duration                                 : 1h 51mn @kUCc1LT  
Bit rate mode                            : Constant etj8M y6=  
Bit rate                                 : 640 Kbps OWFLw  
Channel(s)                               : 6 channels bE.,)GY  
Channel positions                        : Front: L C R, Side: L R, LFE ziR}  
Sampling rate                            : 48.0 KHz m5SJB]a/  
Bit depth                                : 16 bits .v%H%z~Rl#  
Compression mode                         : Lossy [s$vY~_  
Stream size                              : 510 MiB (18%) 9l9 nT  
Default                                  : Yes 7OX5"u!2  
Forced                                   : No uyMxBc%6  
{^2``NYM_  
72R|zR  
360云盘 ]#;;)K}>  
尽情欣赏! L\}o(P(  
此帖售价 1 金钱,已有 2 人购买 [记录] [购买]
购买后,将显示帖子中所有出售内容。
若发现会员采用欺骗的方法获取财富,请立刻举报,我们会对会员处以2-N倍的罚金,严重者封掉ID!
此段为出售的内容,购买后显示
p'fq&a+  
}#5V t  
3:Q5dr+1_  
;+] mcgN!  
#'[4k:  




离线q965488338

发帖
709
金钱
28138
威望
224
贡献值
96
交易币
1082
只看该作者 1楼 发表于: 2015-08-09
感谢!!!!
离线wannam

发帖
2699
金钱
86933
威望
382
贡献值
189
交易币
3342
只看该作者 2楼 发表于: 2015-08-10
谢谢分享!!!这个有没有字幕啊?我上次用电视搜索又看了一遍,还有三四个花絮,有一个花絮很棒,把smooth criminal那一段创意都解释清楚了。可惜没办法下载分享。不知道你们看过没有

楼主留言:

http://www.mjsunny.com/read.php?tid=60437&ds=1#tpc

离线bachelor

发帖
1775
金钱
12643
威望
202
贡献值
21
交易币
1437
只看该作者 3楼 发表于: 2015-08-10
辛苦了,谢谢了
离线wannam

发帖
2699
金钱
86933
威望
382
贡献值
189
交易币
3342
只看该作者 4楼 发表于: 2015-08-10
果然那个115也是挂了的,不过还好看过。。。下次想看了还可以再看一遍2333 DU$#tg}{  
完整版sc新mv没看过。。。
离线henry

发帖
917
金钱
1457
威望
86
贡献值
21
交易币
967
只看该作者 5楼 发表于: 2016-01-19
發現百度的7.7G沒有分檔下不了 唯有收下這個
快速回复
限100 字节
 
上一个 下一个