论坛风格切换切换到宽版
  • 1333阅读
  • 6回复

This is it就是这样BDrip [复制链接]

上一主题 下一主题
离线耶稣
 

发帖
7139
金钱
270076
威望
2488
贡献值
1652
交易币
11198
只看楼主 倒序阅读 楼主  发表于: 2015-08-09
'jwTGT5x  
(N9`WuI  
;W =by2x*  
F .& *D~f  
General 0honHP  
Unique ID                                : 210936701486699514128764959739620145396 (0x9EB0EE5477533F5DD291C28985C8B8F4) uFa-QG^Y{  
Complete name                            : E:\迈克尔杰克逊\迈克尔·杰克逊:就是这样.This.Is.It.2009.BDRip.mkv @V*au:  
Format                                   : Matroska X]>[Qz)K^  
Format version                           : Version 2 Oym]&SrbS  
File size                                : 2.73 GiB + >Fv*lux  
Duration                                 : 1h 51mn .jy)>"h0  
Overall bit rate                         : 3 514 Kbps r{c5dQ  
Encoded date                             : UTC 2012-08-11 00:43:17 -U&098}<K  
Writing application                      : mkvmerge v3.3.0 ('Language') built on May  9 2010 02:39:50 I-j(e)P(o_  
Writing library                          : libebml v0.7.7 + libmatroska v0.8.1 vsxvHot=  
vjY);aQ  
Video yRSy(/L^+  
ID                                       : 1 F\I5fNs@  
Format                                   : AVC 1 / F<T  
Format/Info                              : Advanced Video Codec }"!6Xm  
Format profile                           : High@L4.1 P DNt4=C  
Format settings, CABAC                   : Yes pU[a[  
Format settings, ReFrames                : 9 frames })Ix .!p  
Codec ID                                 : V_MPEG4/ISO/AVC fLf#2EA  
Duration                                 : 1h 51mn XL%vO#YT  
Bit rate                                 : 2 873 Kbps 0EF,uRb  
Width                                    : 1 280 pixels ~`a#h#  
Height                                   : 720 pixels )L&n)w  
Display aspect ratio                     : 16:9 Mr@<ZTw  
Frame rate mode                          : Constant je$R\7B<  
Frame rate                               : 23.976 fps x|P<F2L  
Color space                              : YUV X}ey0)g%  
Chroma subsampling                       : 4:2:0 W,L>'$#pM  
Bit depth                                : 8 bits Z &ua,:5  
Scan type                                : Progressive @p?b"?QaB  
Bits/(Pixel*Frame)                       : 0.130 :d:|7hlNQ  
Stream size                              : 2.18 GiB (80%) ^loF#d= s  
Writing library                          : x264 core 125 r2208 d9d2288 xP|%rl4  
Encoding settings                        : cabac=1 / ref=9 / deblock=1:-1:-1 / analyse=0x3:0x133 / me=tesa / subme=11 / psy=1 / psy_rd=1.00:0.15 / mixed_ref=1 / me_range=24 / chroma_me=1 / trellis=2 / 8x8dct=1 / cqm=0 / deadzone=21,11 / fast_pskip=0 / chroma_qp_offset=-3 / threads=36 / lookahead_threads=6 / sliced_threads=0 / nr=0 / decimate=1 / interlaced=0 / bluray_compat=0 / constrained_intra=0 / bframes=16 / b_pyramid=2 / b_adapt=2 / b_bias=0 / direct=3 / weightb=1 / open_gop=0 / weightp=2 / keyint=250 / keyint_min=23 / scenecut=40 / intra_refresh=0 / rc_lookahead=60 / rc=2pass / mbtree=1 / bitrate=2873 / ratetol=1.0 / qcomp=0.60 / qpmin=0 / qpmax=69 / qpstep=4 / cplxblur=20.0 / qblur=0.5 / ip_ratio=1.40 / aq=1:1.00 g6k&c"%IQ(  
Default                                  : Yes >8.v.;`  
Forced                                   : No K%.YNVHHC  
'/n%}=a=  
Audio HquB*=^xh  
ID                                       : 2 %^)JaEUC  
Format                                   : AC-3 qJAv=D  
Format/Info                              : Audio Coding 3 ,sQ0atk7ma  
Mode extension                           : CM (complete main) LgD{!  
Format settings, Endianness              : Big C$Hl`>?$  
Codec ID                                 : A_AC3 Q'%5"&XFD  
Duration                                 : 1h 51mn 8 MACbLY  
Bit rate mode                            : Constant t,r&SrC  
Bit rate                                 : 640 Kbps %I2xK.8=  
Channel(s)                               : 6 channels W> -E.#!_  
Channel positions                        : Front: L C R, Side: L R, LFE G \aLg  
Sampling rate                            : 48.0 KHz 8bKWIN g_n  
Bit depth                                : 16 bits u^4"96aXJ  
Compression mode                         : Lossy 9OO_Hp#|9  
Stream size                              : 510 MiB (18%) Ubos#hP  
Default                                  : Yes fG[3%e  
Forced                                   : No G:6$P%.  
& 4Iqm(  
i2%m}S;D9  
360云盘 "!_ 4%z-  
尽情欣赏! K1wN9D{t'  
此帖售价 1 金钱,已有 3 人购买 [记录] [购买]
购买后,将显示帖子中所有出售内容。
若发现会员采用欺骗的方法获取财富,请立刻举报,我们会对会员处以2-N倍的罚金,严重者封掉ID!
此段为出售的内容,购买后显示
{ALBmSapK"  
]3 8<ly7  
6xzR*~ 7  
oTV8rG  
r/$)c_x`  





离线q965488338

发帖
709
金钱
28369
威望
224
贡献值
96
交易币
1082
只看该作者 1楼 发表于: 2015-08-09
感谢!!!!
离线wannam

发帖
2702
金钱
87012
威望
382
贡献值
189
交易币
3345
只看该作者 2楼 发表于: 2015-08-10
谢谢分享!!!这个有没有字幕啊?我上次用电视搜索又看了一遍,还有三四个花絮,有一个花絮很棒,把smooth criminal那一段创意都解释清楚了。可惜没办法下载分享。不知道你们看过没有

楼主留言:

http://www.mjsunny.com/read.php?tid=60437&ds=1#tpc

离线bachelor

发帖
1788
金钱
12700
威望
202
贡献值
21
交易币
1450
只看该作者 3楼 发表于: 2015-08-10
辛苦了,谢谢了
离线wannam

发帖
2702
金钱
87012
威望
382
贡献值
189
交易币
3345
只看该作者 4楼 发表于: 2015-08-10
果然那个115也是挂了的,不过还好看过。。。下次想看了还可以再看一遍2333 lvlH5Fc  
完整版sc新mv没看过。。。
离线henry

发帖
939
金钱
1211
威望
86
贡献值
21
交易币
989
只看该作者 5楼 发表于: 2016-01-19
發現百度的7.7G沒有分檔下不了 唯有收下這個
离线qq8508633

发帖
73
金钱
41
威望
7
贡献值
9
交易币
113
只看该作者 6楼 发表于: 2017-12-21
消息
快速回复
限100 字节
 
上一个 下一个