论坛风格切换切换到宽版
  • 1536阅读
  • 6回复

This is it就是这样BDrip [复制链接]

上一主题 下一主题
离线耶稣
 

发帖
7203
金钱
277425
威望
2521
贡献值
1672
交易币
11342
只看楼主 倒序阅读 楼主  发表于: 2015-08-09
e=OHO,74z"  
C6;2Dd]"N  
@F<{/|P  
f47]gtB-  
General V2Vr7v=Y"  
Unique ID                                : 210936701486699514128764959739620145396 (0x9EB0EE5477533F5DD291C28985C8B8F4) K>$f#^  
Complete name                            : E:\迈克尔杰克逊\迈克尔·杰克逊:就是这样.This.Is.It.2009.BDRip.mkv OB(o OPH  
Format                                   : Matroska t^~vi'bB  
Format version                           : Version 2 "=Br&FN{|  
File size                                : 2.73 GiB }8ubGMr,Y  
Duration                                 : 1h 51mn U"k$qZ[  
Overall bit rate                         : 3 514 Kbps n^4R]9U  
Encoded date                             : UTC 2012-08-11 00:43:17 W7qh1}_%  
Writing application                      : mkvmerge v3.3.0 ('Language') built on May  9 2010 02:39:50 q*3OWr  
Writing library                          : libebml v0.7.7 + libmatroska v0.8.1 ^9[Q;=R  
G tI )O}  
Video EnM  
ID                                       : 1 FOXSs8"c]!  
Format                                   : AVC CQ!pt@|d  
Format/Info                              : Advanced Video Codec )!"fUz$  
Format profile                           : High@L4.1 H$h#n~W~  
Format settings, CABAC                   : Yes ,dIev<  
Format settings, ReFrames                : 9 frames .G O0xnm  
Codec ID                                 : V_MPEG4/ISO/AVC Jl/wP   
Duration                                 : 1h 51mn jW'YQrj{<Y  
Bit rate                                 : 2 873 Kbps gg/`{  
Width                                    : 1 280 pixels RuPnWx!  
Height                                   : 720 pixels |\,OlX,  
Display aspect ratio                     : 16:9 |./mPV r  
Frame rate mode                          : Constant %j7b0pb  
Frame rate                               : 23.976 fps KNVu[P)rv  
Color space                              : YUV +hyOc|5  
Chroma subsampling                       : 4:2:0 oW3"J6,S  
Bit depth                                : 8 bits b[74$W{  
Scan type                                : Progressive n Nt28n@  
Bits/(Pixel*Frame)                       : 0.130 j6m;03<|  
Stream size                              : 2.18 GiB (80%) >+2&7u  
Writing library                          : x264 core 125 r2208 d9d2288 C96/   
Encoding settings                        : cabac=1 / ref=9 / deblock=1:-1:-1 / analyse=0x3:0x133 / me=tesa / subme=11 / psy=1 / psy_rd=1.00:0.15 / mixed_ref=1 / me_range=24 / chroma_me=1 / trellis=2 / 8x8dct=1 / cqm=0 / deadzone=21,11 / fast_pskip=0 / chroma_qp_offset=-3 / threads=36 / lookahead_threads=6 / sliced_threads=0 / nr=0 / decimate=1 / interlaced=0 / bluray_compat=0 / constrained_intra=0 / bframes=16 / b_pyramid=2 / b_adapt=2 / b_bias=0 / direct=3 / weightb=1 / open_gop=0 / weightp=2 / keyint=250 / keyint_min=23 / scenecut=40 / intra_refresh=0 / rc_lookahead=60 / rc=2pass / mbtree=1 / bitrate=2873 / ratetol=1.0 / qcomp=0.60 / qpmin=0 / qpmax=69 / qpstep=4 / cplxblur=20.0 / qblur=0.5 / ip_ratio=1.40 / aq=1:1.00 4{P+p!4  
Default                                  : Yes n:5M E*  
Forced                                   : No EW `hL~{  
-o ).<&#  
Audio =oBpS=<7  
ID                                       : 2 ~YYnn7)  
Format                                   : AC-3 ]~TsmR[  
Format/Info                              : Audio Coding 3 Tc WCr  
Mode extension                           : CM (complete main) kKX' Y+  
Format settings, Endianness              : Big ]fyfL|(;  
Codec ID                                 : A_AC3 G@8)3 @  
Duration                                 : 1h 51mn Y}?8  
Bit rate mode                            : Constant P?0X az  
Bit rate                                 : 640 Kbps K`4lL5oH  
Channel(s)                               : 6 channels &\h7E   
Channel positions                        : Front: L C R, Side: L R, LFE 1dH|/9  
Sampling rate                            : 48.0 KHz |2(q9j  
Bit depth                                : 16 bits !_Lmrs  
Compression mode                         : Lossy  384n1?  
Stream size                              : 510 MiB (18%) t>j_C{X1(  
Default                                  : Yes +-izC%G  
Forced                                   : No 8U{D)KgS  
&jqaW 2  
n Bu!2c  
360云盘 \""^'pP@  
尽情欣赏! xl}rdnf}  
此帖售价 1 金钱,已有 3 人购买 [记录] [购买]
购买后,将显示帖子中所有出售内容。
若发现会员采用欺骗的方法获取财富,请立刻举报,我们会对会员处以2-N倍的罚金,严重者封掉ID!
此段为出售的内容,购买后显示
s(,S~  
(v]%kXy/G  
!<[+u  
u64#,mC[*  
cO?*(e1m=  



离线q965488338

发帖
709
金钱
28408
威望
224
贡献值
96
交易币
1082
只看该作者 1楼 发表于: 2015-08-09
感谢!!!!
离线wannam

发帖
2703
金钱
87079
威望
382
贡献值
189
交易币
3346
只看该作者 2楼 发表于: 2015-08-10
谢谢分享!!!这个有没有字幕啊?我上次用电视搜索又看了一遍,还有三四个花絮,有一个花絮很棒,把smooth criminal那一段创意都解释清楚了。可惜没办法下载分享。不知道你们看过没有

楼主留言:

http://www.mjsunny.com/read.php?tid=60437&ds=1#tpc

离线bachelor

发帖
1795
金钱
12732
威望
202
贡献值
21
交易币
1457
只看该作者 3楼 发表于: 2015-08-10
辛苦了,谢谢了
离线wannam

发帖
2703
金钱
87079
威望
382
贡献值
189
交易币
3346
只看该作者 4楼 发表于: 2015-08-10
果然那个115也是挂了的,不过还好看过。。。下次想看了还可以再看一遍2333 I!hh_  
完整版sc新mv没看过。。。
离线henry

发帖
981
金钱
11
威望
81
贡献值
21
交易币
1031
只看该作者 5楼 发表于: 2016-01-19
發現百度的7.7G沒有分檔下不了 唯有收下這個
离线qq8508633

发帖
73
金钱
41
威望
7
贡献值
9
交易币
113
只看该作者 6楼 发表于: 2017-12-21
消息
快速回复
限100 字节
 
上一个 下一个