论坛风格切换切换到宽版
  • 1612阅读
  • 6回复

This is it就是这样BDrip [复制链接]

上一主题 下一主题
离线耶稣
 

发帖
7210
金钱
278339
威望
2544
贡献值
1685
交易币
11369
只看楼主 倒序阅读 楼主  发表于: 2015-08-09
('J@GTe@xj  
o3`U;@&u  
{,JO}Dmu5  
|hxiARr4  
General f~wON>$K  
Unique ID                                : 210936701486699514128764959739620145396 (0x9EB0EE5477533F5DD291C28985C8B8F4) :+DrV\)  
Complete name                            : E:\迈克尔杰克逊\迈克尔·杰克逊:就是这样.This.Is.It.2009.BDRip.mkv  .x%w#  
Format                                   : Matroska ;ZUj2WxE  
Format version                           : Version 2 )KE  
File size                                : 2.73 GiB H;4QuB'^  
Duration                                 : 1h 51mn te( H6c#0  
Overall bit rate                         : 3 514 Kbps rs?Dn6:;B  
Encoded date                             : UTC 2012-08-11 00:43:17 OiQf=Uz\  
Writing application                      : mkvmerge v3.3.0 ('Language') built on May  9 2010 02:39:50 %4m Nk}tyH  
Writing library                          : libebml v0.7.7 + libmatroska v0.8.1 pZ'q_Oux  
GIzB1cl:  
Video ^%,{R},s  
ID                                       : 1 't`h?VvL  
Format                                   : AVC +Mq\3  
Format/Info                              : Advanced Video Codec ^+D/59I  
Format profile                           : High@L4.1 :41Y  
Format settings, CABAC                   : Yes ?)-6~p 4N  
Format settings, ReFrames                : 9 frames I :<,9.   
Codec ID                                 : V_MPEG4/ISO/AVC 4& cQW)  
Duration                                 : 1h 51mn Rb:H3zh  
Bit rate                                 : 2 873 Kbps ~'lT8 n_  
Width                                    : 1 280 pixels 1<'z)r4  
Height                                   : 720 pixels  Kg';[G\  
Display aspect ratio                     : 16:9 pF8$83S  
Frame rate mode                          : Constant fE~KWLm  
Frame rate                               : 23.976 fps )&_bY~P  
Color space                              : YUV mv99SOe[Fz  
Chroma subsampling                       : 4:2:0 V\zcv@  
Bit depth                                : 8 bits 'Hx#DhiFz  
Scan type                                : Progressive m8F$h-  
Bits/(Pixel*Frame)                       : 0.130 d]e36Dwk  
Stream size                              : 2.18 GiB (80%) @>O7/d?O  
Writing library                          : x264 core 125 r2208 d9d2288 xF!IT"5D  
Encoding settings                        : cabac=1 / ref=9 / deblock=1:-1:-1 / analyse=0x3:0x133 / me=tesa / subme=11 / psy=1 / psy_rd=1.00:0.15 / mixed_ref=1 / me_range=24 / chroma_me=1 / trellis=2 / 8x8dct=1 / cqm=0 / deadzone=21,11 / fast_pskip=0 / chroma_qp_offset=-3 / threads=36 / lookahead_threads=6 / sliced_threads=0 / nr=0 / decimate=1 / interlaced=0 / bluray_compat=0 / constrained_intra=0 / bframes=16 / b_pyramid=2 / b_adapt=2 / b_bias=0 / direct=3 / weightb=1 / open_gop=0 / weightp=2 / keyint=250 / keyint_min=23 / scenecut=40 / intra_refresh=0 / rc_lookahead=60 / rc=2pass / mbtree=1 / bitrate=2873 / ratetol=1.0 / qcomp=0.60 / qpmin=0 / qpmax=69 / qpstep=4 / cplxblur=20.0 / qblur=0.5 / ip_ratio=1.40 / aq=1:1.00 Eh8GqFEM  
Default                                  : Yes 0]7jb_n1  
Forced                                   : No Y9X,2L7V  
-lJ|x>PG'  
Audio zgjgEhnvU  
ID                                       : 2 .t\J @?Z  
Format                                   : AC-3 Z~Q5<A9Jz  
Format/Info                              : Audio Coding 3 $V 3If  
Mode extension                           : CM (complete main) >I@&"&d  
Format settings, Endianness              : Big 0x~+=GUN  
Codec ID                                 : A_AC3 (Z>?\iNJ  
Duration                                 : 1h 51mn ;g?PK5rB(  
Bit rate mode                            : Constant xMk>r1Ud  
Bit rate                                 : 640 Kbps i}8OaX3x  
Channel(s)                               : 6 channels ,Dv*<La`\  
Channel positions                        : Front: L C R, Side: L R, LFE IrYj#,xJ  
Sampling rate                            : 48.0 KHz OSO MFt  
Bit depth                                : 16 bits I@m(}  
Compression mode                         : Lossy q'S[TFMNE  
Stream size                              : 510 MiB (18%) r8YM#dF  
Default                                  : Yes <UO[*_,\  
Forced                                   : No UUz{Qm%  
UBW,Q+Q  
rOLZiET  
360云盘 [H\0 '  
尽情欣赏! jjH2!R]^>  
此帖售价 1 金钱,已有 3 人购买 [记录] [购买]
购买后,将显示帖子中所有出售内容。
若发现会员采用欺骗的方法获取财富,请立刻举报,我们会对会员处以2-N倍的罚金,严重者封掉ID!
此段为出售的内容,购买后显示
_}47U7s8  
c86?-u')  
=C$"e4%Be  
pFd{Tdh  
, SUx!o  



离线q965488338

发帖
709
金钱
28408
威望
224
贡献值
96
交易币
1082
只看该作者 1楼 发表于: 2015-08-09
感谢!!!!
离线wannam

发帖
2703
金钱
87081
威望
382
贡献值
189
交易币
3346
只看该作者 2楼 发表于: 2015-08-10
谢谢分享!!!这个有没有字幕啊?我上次用电视搜索又看了一遍,还有三四个花絮,有一个花絮很棒,把smooth criminal那一段创意都解释清楚了。可惜没办法下载分享。不知道你们看过没有

楼主留言:

http://www.mjsunny.com/read.php?tid=60437&ds=1#tpc

离线bachelor

发帖
1795
金钱
12732
威望
202
贡献值
21
交易币
1457
只看该作者 3楼 发表于: 2015-08-10
辛苦了,谢谢了
离线wannam

发帖
2703
金钱
87081
威望
382
贡献值
189
交易币
3346
只看该作者 4楼 发表于: 2015-08-10
果然那个115也是挂了的,不过还好看过。。。下次想看了还可以再看一遍2333 ='.G,aJ9  
完整版sc新mv没看过。。。
离线henry

发帖
982
金钱
14
威望
81
贡献值
21
交易币
1032
只看该作者 5楼 发表于: 2016-01-19
發現百度的7.7G沒有分檔下不了 唯有收下這個
离线qq8508633

发帖
73
金钱
41
威望
7
贡献值
9
交易币
113
只看该作者 6楼 发表于: 2017-12-21
消息
快速回复
限100 字节
 
上一个 下一个