论坛风格切换切换到宽版
  • 999阅读
  • 5回复

This is it就是这样BDrip [复制链接]

上一主题 下一主题
离线耶稣
 

发帖
6542
金钱
196731
威望
2070
贡献值
1354
交易币
9868
只看楼主 倒序阅读 楼主  发表于: 2015-08-09
v+|N7  
oA&V,r  
vO2o/   
:,=no>mMx  
General DT@6Q.  
Unique ID                                : 210936701486699514128764959739620145396 (0x9EB0EE5477533F5DD291C28985C8B8F4) :sBg+MS  
Complete name                            : E:\迈克尔杰克逊\迈克尔·杰克逊:就是这样.This.Is.It.2009.BDRip.mkv \dbjh{  
Format                                   : Matroska Q- %Q7n'c  
Format version                           : Version 2 D!~-53f@  
File size                                : 2.73 GiB +!V*{<K  
Duration                                 : 1h 51mn  )>Oip  
Overall bit rate                         : 3 514 Kbps 85l 1  
Encoded date                             : UTC 2012-08-11 00:43:17 l/_3H\iM  
Writing application                      : mkvmerge v3.3.0 ('Language') built on May  9 2010 02:39:50 c@:r\]  
Writing library                          : libebml v0.7.7 + libmatroska v0.8.1 SG8H~]CO)  
 pFGK-J  
Video r+0"1\f3  
ID                                       : 1 BSG_),AH  
Format                                   : AVC ,qpn4`zE~  
Format/Info                              : Advanced Video Codec B N@*CG  
Format profile                           : High@L4.1 :N%cIxrqP  
Format settings, CABAC                   : Yes ";9cYoKRY  
Format settings, ReFrames                : 9 frames =+97VO(w]G  
Codec ID                                 : V_MPEG4/ISO/AVC H]Q Z4(  
Duration                                 : 1h 51mn OqY8\>f-  
Bit rate                                 : 2 873 Kbps ;Mc\>i/  
Width                                    : 1 280 pixels u=jF\W9  
Height                                   : 720 pixels +e%9P%[+  
Display aspect ratio                     : 16:9 mmAikT#k  
Frame rate mode                          : Constant z* YkD"]B  
Frame rate                               : 23.976 fps  {IYfq)c  
Color space                              : YUV ly}6zOC\  
Chroma subsampling                       : 4:2:0 n(/(F `  
Bit depth                                : 8 bits ]=2Ba<)m  
Scan type                                : Progressive m7zen530  
Bits/(Pixel*Frame)                       : 0.130 dZIAotHN:  
Stream size                              : 2.18 GiB (80%) (\, <RC\  
Writing library                          : x264 core 125 r2208 d9d2288 G6w&C^J*8>  
Encoding settings                        : cabac=1 / ref=9 / deblock=1:-1:-1 / analyse=0x3:0x133 / me=tesa / subme=11 / psy=1 / psy_rd=1.00:0.15 / mixed_ref=1 / me_range=24 / chroma_me=1 / trellis=2 / 8x8dct=1 / cqm=0 / deadzone=21,11 / fast_pskip=0 / chroma_qp_offset=-3 / threads=36 / lookahead_threads=6 / sliced_threads=0 / nr=0 / decimate=1 / interlaced=0 / bluray_compat=0 / constrained_intra=0 / bframes=16 / b_pyramid=2 / b_adapt=2 / b_bias=0 / direct=3 / weightb=1 / open_gop=0 / weightp=2 / keyint=250 / keyint_min=23 / scenecut=40 / intra_refresh=0 / rc_lookahead=60 / rc=2pass / mbtree=1 / bitrate=2873 / ratetol=1.0 / qcomp=0.60 / qpmin=0 / qpmax=69 / qpstep=4 / cplxblur=20.0 / qblur=0.5 / ip_ratio=1.40 / aq=1:1.00  Mhm3u  
Default                                  : Yes VJDF/)X3$  
Forced                                   : No \6-x~%xK  
$\Bzp<SN`  
Audio UQ:H3  
ID                                       : 2 =<e|<EwSZ  
Format                                   : AC-3 u pg?  
Format/Info                              : Audio Coding 3 Tz4,lwuWX7  
Mode extension                           : CM (complete main) U&yXs'3a&  
Format settings, Endianness              : Big y  >r7(qg  
Codec ID                                 : A_AC3 Ehi)n)HhG"  
Duration                                 : 1h 51mn `E+)e?z  
Bit rate mode                            : Constant 26PUO$&b.  
Bit rate                                 : 640 Kbps S-}MS"  
Channel(s)                               : 6 channels 8@]*X,umc  
Channel positions                        : Front: L C R, Side: L R, LFE +KgoLa  
Sampling rate                            : 48.0 KHz 4)0 %^\p  
Bit depth                                : 16 bits I$/*Pt];  
Compression mode                         : Lossy E9z^#@s  
Stream size                              : 510 MiB (18%) A<P3X/i  
Default                                  : Yes E}AOtY5a  
Forced                                   : No W9n0Jv  
j(^ot001%v  
,K9\;{C  
360云盘 7jvy]5y8&~  
尽情欣赏! -YM#.lQ  
此帖售价 1 金钱,已有 2 人购买 [记录] [购买]
购买后,将显示帖子中所有出售内容。
若发现会员采用欺骗的方法获取财富,请立刻举报,我们会对会员处以2-N倍的罚金,严重者封掉ID!
此段为出售的内容,购买后显示
Y.` {]rC  
Oop5bg  
~3byAL  
$YZsaw  
GMmz`O XN  



离线q965488338

发帖
709
金钱
27830
威望
224
贡献值
96
交易币
1082
只看该作者 1楼 发表于: 2015-08-09
感谢!!!!
离线wannam

发帖
2666
金钱
80617
威望
382
贡献值
189
交易币
3309
只看该作者 2楼 发表于: 2015-08-10
谢谢分享!!!这个有没有字幕啊?我上次用电视搜索又看了一遍,还有三四个花絮,有一个花絮很棒,把smooth criminal那一段创意都解释清楚了。可惜没办法下载分享。不知道你们看过没有

楼主留言:

http://www.mjsunny.com/read.php?tid=60437&ds=1#tpc

离线bachelor

发帖
1724
金钱
12466
威望
202
贡献值
21
交易币
1386
只看该作者 3楼 发表于: 2015-08-10
辛苦了,谢谢了
离线wannam

发帖
2666
金钱
80617
威望
382
贡献值
189
交易币
3309
只看该作者 4楼 发表于: 2015-08-10
果然那个115也是挂了的,不过还好看过。。。下次想看了还可以再看一遍2333  o _CVZ  
完整版sc新mv没看过。。。
离线henry

发帖
821
金钱
3788
威望
86
贡献值
19
交易币
863
只看该作者 5楼 发表于: 2016-01-19
發現百度的7.7G沒有分檔下不了 唯有收下這個
快速回复
限100 字节
 
上一个 下一个