论坛风格切换切换到宽版
  • 869阅读
  • 5回复

This is it就是这样BDrip [复制链接]

上一主题 下一主题
在线耶稣
 

发帖
6458
金钱
181072
威望
1800
贡献值
1197
交易币
9628
只看楼主 倒序阅读 楼主  发表于: 2015-08-09
vq:OH H  
1 lCikS^c  
WfT)CIKs  
[S&O-b8A  
General :8Ts'OGwI  
Unique ID                                : 210936701486699514128764959739620145396 (0x9EB0EE5477533F5DD291C28985C8B8F4) <C"N X  
Complete name                            : E:\迈克尔杰克逊\迈克尔·杰克逊:就是这样.This.Is.It.2009.BDRip.mkv )):22}I#  
Format                                   : Matroska k-cIb@+"  
Format version                           : Version 2 x$?7)F&z  
File size                                : 2.73 GiB \P~rg~  
Duration                                 : 1h 51mn  ]RX tC*  
Overall bit rate                         : 3 514 Kbps P[I*%  
Encoded date                             : UTC 2012-08-11 00:43:17 ?I2k6%a  
Writing application                      : mkvmerge v3.3.0 ('Language') built on May  9 2010 02:39:50 'Rkvsch  
Writing library                          : libebml v0.7.7 + libmatroska v0.8.1 A6UdWK  
2u*h*/  
Video g3~~"`2  
ID                                       : 1 E7NbPNd  
Format                                   : AVC r]JC~{  
Format/Info                              : Advanced Video Codec (o6[4( G  
Format profile                           : High@L4.1 WW [`E  
Format settings, CABAC                   : Yes j`|^s}8t  
Format settings, ReFrames                : 9 frames Fi?Q 4b  
Codec ID                                 : V_MPEG4/ISO/AVC \5_P5q:`  
Duration                                 : 1h 51mn aFr!PQp4{  
Bit rate                                 : 2 873 Kbps Q3Z%a|3W  
Width                                    : 1 280 pixels juYA`:qE&  
Height                                   : 720 pixels I`"-$99|t1  
Display aspect ratio                     : 16:9 Z.aLk4QO@  
Frame rate mode                          : Constant *qO]v9 j  
Frame rate                               : 23.976 fps B3cf] S%  
Color space                              : YUV t(j_eq}J  
Chroma subsampling                       : 4:2:0 OC?Zw@  
Bit depth                                : 8 bits ^x_ >r6  
Scan type                                : Progressive B-\,2rCCZ  
Bits/(Pixel*Frame)                       : 0.130 z)&naw.  
Stream size                              : 2.18 GiB (80%) |6sT,/6  
Writing library                          : x264 core 125 r2208 d9d2288 wuIsO;}/9  
Encoding settings                        : cabac=1 / ref=9 / deblock=1:-1:-1 / analyse=0x3:0x133 / me=tesa / subme=11 / psy=1 / psy_rd=1.00:0.15 / mixed_ref=1 / me_range=24 / chroma_me=1 / trellis=2 / 8x8dct=1 / cqm=0 / deadzone=21,11 / fast_pskip=0 / chroma_qp_offset=-3 / threads=36 / lookahead_threads=6 / sliced_threads=0 / nr=0 / decimate=1 / interlaced=0 / bluray_compat=0 / constrained_intra=0 / bframes=16 / b_pyramid=2 / b_adapt=2 / b_bias=0 / direct=3 / weightb=1 / open_gop=0 / weightp=2 / keyint=250 / keyint_min=23 / scenecut=40 / intra_refresh=0 / rc_lookahead=60 / rc=2pass / mbtree=1 / bitrate=2873 / ratetol=1.0 / qcomp=0.60 / qpmin=0 / qpmax=69 / qpstep=4 / cplxblur=20.0 / qblur=0.5 / ip_ratio=1.40 / aq=1:1.00 -}_cO|kk  
Default                                  : Yes 5 Q6{(q|M  
Forced                                   : No pYLY;qkG"  
!cN?SGafZI  
Audio nW $A^  
ID                                       : 2 f[JI/H>  
Format                                   : AC-3 MtZt8s  
Format/Info                              : Audio Coding 3 IOsXPf9@  
Mode extension                           : CM (complete main) Pn'`Q S?  
Format settings, Endianness              : Big i O%Zd[  
Codec ID                                 : A_AC3 VO. -.  
Duration                                 : 1h 51mn '?{0z!!  
Bit rate mode                            : Constant hi;WFyJTu  
Bit rate                                 : 640 Kbps U;x1}eFT  
Channel(s)                               : 6 channels kf+JM/  
Channel positions                        : Front: L C R, Side: L R, LFE !sg%6H?}  
Sampling rate                            : 48.0 KHz U;';"9C2>  
Bit depth                                : 16 bits d3EjI6R*z  
Compression mode                         : Lossy vQ:x% =]  
Stream size                              : 510 MiB (18%) xNC* ]8d  
Default                                  : Yes ZhGh {D[,  
Forced                                   : No %'{V%IXQ  
gf:vb*#Wa  
/;(<fh<bY  
360云盘 X!U]`Qh  
尽情欣赏! -/M9 vS  
此帖售价 1 金钱,已有 2 人购买 [记录] [购买]
购买后,将显示帖子中所有出售内容。
若发现会员采用欺骗的方法获取财富,请立刻举报,我们会对会员处以2-N倍的罚金,严重者封掉ID!
此段为出售的内容,购买后显示
hf_R\C(c  
v$t{o{3  
W:`5nj]H9  
rumAo'T/%  
f|X[gL,B  



离线q965488338

发帖
709
金钱
27814
威望
224
贡献值
96
交易币
1082
只看该作者 1楼 发表于: 2015-08-09
感谢!!!!
离线wannam

发帖
2547
金钱
69379
威望
363
贡献值
169
交易币
3190
只看该作者 2楼 发表于: 2015-08-10
谢谢分享!!!这个有没有字幕啊?我上次用电视搜索又看了一遍,还有三四个花絮,有一个花絮很棒,把smooth criminal那一段创意都解释清楚了。可惜没办法下载分享。不知道你们看过没有

楼主留言:

http://www.mjsunny.com/read.php?tid=60437&ds=1#tpc

离线bachelor

发帖
1708
金钱
12386
威望
202
贡献值
21
交易币
1370
只看该作者 3楼 发表于: 2015-08-10
辛苦了,谢谢了
离线wannam

发帖
2547
金钱
69379
威望
363
贡献值
169
交易币
3190
只看该作者 4楼 发表于: 2015-08-10
果然那个115也是挂了的,不过还好看过。。。下次想看了还可以再看一遍2333 Q,~x#  
完整版sc新mv没看过。。。
离线henry

发帖
814
金钱
3942
威望
86
贡献值
19
交易币
856
只看该作者 5楼 发表于: 2016-01-19
發現百度的7.7G沒有分檔下不了 唯有收下這個
快速回复
限100 字节
 
上一个 下一个