论坛风格切换切换到宽版
  • 1064阅读
  • 5回复

This is it就是这样BDrip [复制链接]

上一主题 下一主题
在线耶稣
 

发帖
6640
金钱
211207
威望
2159
贡献值
1418
交易币
10170
只看楼主 倒序阅读 楼主  发表于: 2015-08-09
jTa\I&s,A  
\^)i!@v  
>Hf{Mx{<  
!se1W5ke#  
General "Zp&7hI  
Unique ID                                : 210936701486699514128764959739620145396 (0x9EB0EE5477533F5DD291C28985C8B8F4) MK1\  
Complete name                            : E:\迈克尔杰克逊\迈克尔·杰克逊:就是这样.This.Is.It.2009.BDRip.mkv ~ZKJ:&f  
Format                                   : Matroska ~$J ;yo~  
Format version                           : Version 2 x^ `/&+m  
File size                                : 2.73 GiB .S//T/3O]Q  
Duration                                 : 1h 51mn |  0  
Overall bit rate                         : 3 514 Kbps #,#`< h!  
Encoded date                             : UTC 2012-08-11 00:43:17 q`xc h[H  
Writing application                      : mkvmerge v3.3.0 ('Language') built on May  9 2010 02:39:50 Y`g oV  
Writing library                          : libebml v0.7.7 + libmatroska v0.8.1 Qs1CK;+zU  
AjK5x@\  
Video 5wue2/gl  
ID                                       : 1 r#zcl)rbU  
Format                                   : AVC 1jKpLTSs  
Format/Info                              : Advanced Video Codec )Cy>'l*Og7  
Format profile                           : High@L4.1 m.lR]!Y=w  
Format settings, CABAC                   : Yes )LGVR 3#  
Format settings, ReFrames                : 9 frames NjIPHM$g  
Codec ID                                 : V_MPEG4/ISO/AVC ?t 'V5$k\  
Duration                                 : 1h 51mn ~Dt$}l-9  
Bit rate                                 : 2 873 Kbps 2M x\D  
Width                                    : 1 280 pixels 8?Rp2n*o  
Height                                   : 720 pixels j|KDgI<0  
Display aspect ratio                     : 16:9 }+@!c%TCx~  
Frame rate mode                          : Constant r^m&<)Ca  
Frame rate                               : 23.976 fps t?"(Zb  
Color space                              : YUV 8KJUC&`  
Chroma subsampling                       : 4:2:0 |OeWM  
Bit depth                                : 8 bits iqlb,8  
Scan type                                : Progressive rd7p$e=i  
Bits/(Pixel*Frame)                       : 0.130 ( v*xW.  
Stream size                              : 2.18 GiB (80%) C:J frg`  
Writing library                          : x264 core 125 r2208 d9d2288 q8P&rMwy  
Encoding settings                        : cabac=1 / ref=9 / deblock=1:-1:-1 / analyse=0x3:0x133 / me=tesa / subme=11 / psy=1 / psy_rd=1.00:0.15 / mixed_ref=1 / me_range=24 / chroma_me=1 / trellis=2 / 8x8dct=1 / cqm=0 / deadzone=21,11 / fast_pskip=0 / chroma_qp_offset=-3 / threads=36 / lookahead_threads=6 / sliced_threads=0 / nr=0 / decimate=1 / interlaced=0 / bluray_compat=0 / constrained_intra=0 / bframes=16 / b_pyramid=2 / b_adapt=2 / b_bias=0 / direct=3 / weightb=1 / open_gop=0 / weightp=2 / keyint=250 / keyint_min=23 / scenecut=40 / intra_refresh=0 / rc_lookahead=60 / rc=2pass / mbtree=1 / bitrate=2873 / ratetol=1.0 / qcomp=0.60 / qpmin=0 / qpmax=69 / qpstep=4 / cplxblur=20.0 / qblur=0.5 / ip_ratio=1.40 / aq=1:1.00 0`"oR3JY  
Default                                  : Yes =\lw.59  
Forced                                   : No :\[l~S  
GST#b6S  
Audio ,ayEZ#4.m  
ID                                       : 2 ]In7%Qb  
Format                                   : AC-3 h/n(  
Format/Info                              : Audio Coding 3 N# }A9t  
Mode extension                           : CM (complete main) +ydd"`  
Format settings, Endianness              : Big 1r=cCM  
Codec ID                                 : A_AC3 J$}]p  
Duration                                 : 1h 51mn F `7 v  
Bit rate mode                            : Constant D^4nT,&8  
Bit rate                                 : 640 Kbps X&WP.n)  
Channel(s)                               : 6 channels Nf([JP% 4  
Channel positions                        : Front: L C R, Side: L R, LFE Xr  <H^X  
Sampling rate                            : 48.0 KHz /K|(O^nw  
Bit depth                                : 16 bits QdgJNT<=H,  
Compression mode                         : Lossy ?JZ$M  
Stream size                              : 510 MiB (18%) {_N9<i{T  
Default                                  : Yes #_.J kY  
Forced                                   : No o6vnl  
YH\9Je%jx  
lQ?jdi  
360云盘 p=:Vpg<!  
尽情欣赏! V<UChD)N`  
此帖售价 1 金钱,已有 2 人购买 [记录] [购买]
购买后,将显示帖子中所有出售内容。
若发现会员采用欺骗的方法获取财富,请立刻举报,我们会对会员处以2-N倍的罚金,严重者封掉ID!
此段为出售的内容,购买后显示
k7iko{5D  
o,WjM[e  
}O*`I(  
f(pq`v^-n  
ZxNTuGOB:  


离线q965488338

发帖
709
金钱
27898
威望
224
贡献值
96
交易币
1082
只看该作者 1楼 发表于: 2015-08-09
感谢!!!!
离线wannam

发帖
2680
金钱
86753
威望
382
贡献值
189
交易币
3323
只看该作者 2楼 发表于: 2015-08-10
谢谢分享!!!这个有没有字幕啊?我上次用电视搜索又看了一遍,还有三四个花絮,有一个花絮很棒,把smooth criminal那一段创意都解释清楚了。可惜没办法下载分享。不知道你们看过没有

楼主留言:

http://www.mjsunny.com/read.php?tid=60437&ds=1#tpc

离线bachelor

发帖
1729
金钱
12471
威望
202
贡献值
21
交易币
1391
只看该作者 3楼 发表于: 2015-08-10
辛苦了,谢谢了
离线wannam

发帖
2680
金钱
86753
威望
382
贡献值
189
交易币
3323
只看该作者 4楼 发表于: 2015-08-10
果然那个115也是挂了的,不过还好看过。。。下次想看了还可以再看一遍2333 ??Urm[Y.Z  
完整版sc新mv没看过。。。
离线henry

发帖
838
金钱
2970
威望
84
贡献值
19
交易币
880
只看该作者 5楼 发表于: 2016-01-19
發現百度的7.7G沒有分檔下不了 唯有收下這個
快速回复
限100 字节
 
上一个 下一个