论坛风格切换切换到宽版
  • 998阅读
  • 5回复

This is it就是这样BDrip [复制链接]

上一主题 下一主题
离线耶稣
 

发帖
6542
金钱
196731
威望
2070
贡献值
1354
交易币
9868
只看楼主 倒序阅读 楼主  发表于: 2015-08-09
G qI^$5?  
^lT$D8  
.9Bimhc6K  
_=jc%@]1y  
General +15j^ Az  
Unique ID                                : 210936701486699514128764959739620145396 (0x9EB0EE5477533F5DD291C28985C8B8F4) PGMu6$  
Complete name                            : E:\迈克尔杰克逊\迈克尔·杰克逊:就是这样.This.Is.It.2009.BDRip.mkv |v8>22y  
Format                                   : Matroska gh}FZs5 P  
Format version                           : Version 2 a=k+:=%y  
File size                                : 2.73 GiB -B$oq8)n*  
Duration                                 : 1h 51mn Z?[;Japg  
Overall bit rate                         : 3 514 Kbps \P!v9LX(  
Encoded date                             : UTC 2012-08-11 00:43:17 5JDqSz{  
Writing application                      : mkvmerge v3.3.0 ('Language') built on May  9 2010 02:39:50 P /wc9Yt  
Writing library                          : libebml v0.7.7 + libmatroska v0.8.1 x 3#1  
 ;e()|  
Video c>!>D7:7  
ID                                       : 1 ;Y j_@=   
Format                                   : AVC !V Zl<|  
Format/Info                              : Advanced Video Codec 5IBe;o  
Format profile                           : High@L4.1 jbn{5af  
Format settings, CABAC                   : Yes Bg"b,&/^u  
Format settings, ReFrames                : 9 frames \5k[ "8~  
Codec ID                                 : V_MPEG4/ISO/AVC _|wgw^.LJ]  
Duration                                 : 1h 51mn MH'S,^J  
Bit rate                                 : 2 873 Kbps yps7MM-r  
Width                                    : 1 280 pixels ]H[RY&GY  
Height                                   : 720 pixels @PZ&/F ^  
Display aspect ratio                     : 16:9 f /&Dy'OV7  
Frame rate mode                          : Constant iPa!pg4m  
Frame rate                               : 23.976 fps Ii?<Lz  
Color space                              : YUV bguhx3s  
Chroma subsampling                       : 4:2:0 !\}Dxt  
Bit depth                                : 8 bits yXh=~:1~  
Scan type                                : Progressive 2ELw}9  
Bits/(Pixel*Frame)                       : 0.130 g:dw%h  
Stream size                              : 2.18 GiB (80%) WB'&W=  
Writing library                          : x264 core 125 r2208 d9d2288 _k\*4K8L  
Encoding settings                        : cabac=1 / ref=9 / deblock=1:-1:-1 / analyse=0x3:0x133 / me=tesa / subme=11 / psy=1 / psy_rd=1.00:0.15 / mixed_ref=1 / me_range=24 / chroma_me=1 / trellis=2 / 8x8dct=1 / cqm=0 / deadzone=21,11 / fast_pskip=0 / chroma_qp_offset=-3 / threads=36 / lookahead_threads=6 / sliced_threads=0 / nr=0 / decimate=1 / interlaced=0 / bluray_compat=0 / constrained_intra=0 / bframes=16 / b_pyramid=2 / b_adapt=2 / b_bias=0 / direct=3 / weightb=1 / open_gop=0 / weightp=2 / keyint=250 / keyint_min=23 / scenecut=40 / intra_refresh=0 / rc_lookahead=60 / rc=2pass / mbtree=1 / bitrate=2873 / ratetol=1.0 / qcomp=0.60 / qpmin=0 / qpmax=69 / qpstep=4 / cplxblur=20.0 / qblur=0.5 / ip_ratio=1.40 / aq=1:1.00 ZF_*h`B  
Default                                  : Yes WNrgqyM  
Forced                                   : No D.kLx@Z  
3BAls+<p o  
Audio Obgn?TAVX  
ID                                       : 2 )s5Q4m!  
Format                                   : AC-3 7m~.V[l1  
Format/Info                              : Audio Coding 3 W&#Ps6)8  
Mode extension                           : CM (complete main) &}_ $@  
Format settings, Endianness              : Big N_(qMW  
Codec ID                                 : A_AC3 lK;|ciq"c7  
Duration                                 : 1h 51mn 0Mpc#:a%1  
Bit rate mode                            : Constant ZFpi'u.&  
Bit rate                                 : 640 Kbps M:K5r7Q!yv  
Channel(s)                               : 6 channels OZ##x  
Channel positions                        : Front: L C R, Side: L R, LFE NrA?^F  
Sampling rate                            : 48.0 KHz M9so3L<N0  
Bit depth                                : 16 bits 6?\X)qBI  
Compression mode                         : Lossy OwRH :l  
Stream size                              : 510 MiB (18%) 6j uNn}  
Default                                  : Yes p+6L qk<  
Forced                                   : No .$&_fUY  
o& -c5X4  
";vP77|m7R  
360云盘 M{)7C,'  
尽情欣赏! PO1|l-v<Yq  
此帖售价 1 金钱,已有 2 人购买 [记录] [购买]
购买后,将显示帖子中所有出售内容。
若发现会员采用欺骗的方法获取财富,请立刻举报,我们会对会员处以2-N倍的罚金,严重者封掉ID!
此段为出售的内容,购买后显示
Fkq;Q  
;`CNe$y   
fQ.{s Q$@h  
L~Hgf/%5  
'5:P,1tW U  



离线q965488338

发帖
709
金钱
27830
威望
224
贡献值
96
交易币
1082
只看该作者 1楼 发表于: 2015-08-09
感谢!!!!
离线wannam

发帖
2666
金钱
80617
威望
382
贡献值
189
交易币
3309
只看该作者 2楼 发表于: 2015-08-10
谢谢分享!!!这个有没有字幕啊?我上次用电视搜索又看了一遍,还有三四个花絮,有一个花絮很棒,把smooth criminal那一段创意都解释清楚了。可惜没办法下载分享。不知道你们看过没有

楼主留言:

http://www.mjsunny.com/read.php?tid=60437&ds=1#tpc

离线bachelor

发帖
1724
金钱
12466
威望
202
贡献值
21
交易币
1386
只看该作者 3楼 发表于: 2015-08-10
辛苦了,谢谢了
离线wannam

发帖
2666
金钱
80617
威望
382
贡献值
189
交易币
3309
只看该作者 4楼 发表于: 2015-08-10
果然那个115也是挂了的,不过还好看过。。。下次想看了还可以再看一遍2333 uz#9w\="  
完整版sc新mv没看过。。。
离线henry

发帖
821
金钱
3788
威望
86
贡献值
19
交易币
863
只看该作者 5楼 发表于: 2016-01-19
發現百度的7.7G沒有分檔下不了 唯有收下這個
快速回复
限100 字节
 
上一个 下一个