论坛风格切换切换到宽版
  • 1182阅读
  • 5回复

This is it就是这样BDrip [复制链接]

上一主题 下一主题
离线耶稣
 

发帖
7087
金钱
254785
威望
2445
贡献值
1619
交易币
11054
只看楼主 倒序阅读 楼主  发表于: 2015-08-09
kc(b;EA  
S?z j&X Y3  
AJ1$$c  
Dlsa(  
General ,`2xfVa-  
Unique ID                                : 210936701486699514128764959739620145396 (0x9EB0EE5477533F5DD291C28985C8B8F4) xu pdjT%4  
Complete name                            : E:\迈克尔杰克逊\迈克尔·杰克逊:就是这样.This.Is.It.2009.BDRip.mkv c+M@{EbuN  
Format                                   : Matroska lukRFN>c"  
Format version                           : Version 2 N P(?[W  
File size                                : 2.73 GiB rpI7W?hh  
Duration                                 : 1h 51mn J_Xf:Mz-  
Overall bit rate                         : 3 514 Kbps Y##P9^zH1  
Encoded date                             : UTC 2012-08-11 00:43:17 KT?s\w  
Writing application                      : mkvmerge v3.3.0 ('Language') built on May  9 2010 02:39:50 bg. KkJMrR  
Writing library                          : libebml v0.7.7 + libmatroska v0.8.1 @Oay$gP{T  
e;3 (,  
Video  ?wY.B  
ID                                       : 1 mMWNUkDq  
Format                                   : AVC C#0Wo  
Format/Info                              : Advanced Video Codec Q;M\P/f  
Format profile                           : High@L4.1 #pFybk  
Format settings, CABAC                   : Yes }y/t~f+  
Format settings, ReFrames                : 9 frames gk` .8o  
Codec ID                                 : V_MPEG4/ISO/AVC jm"xf7  
Duration                                 : 1h 51mn Z;:-8 HPDY  
Bit rate                                 : 2 873 Kbps hT#mM*`  
Width                                    : 1 280 pixels NKrk*I"G  
Height                                   : 720 pixels -:q7"s-}b  
Display aspect ratio                     : 16:9 }S4Fy3)  
Frame rate mode                          : Constant %h rR'*nG  
Frame rate                               : 23.976 fps S;~_9i]upe  
Color space                              : YUV ^M"g5+ q  
Chroma subsampling                       : 4:2:0 s~CA @  
Bit depth                                : 8 bits 2+HiaYDZ  
Scan type                                : Progressive r|+Zni]  
Bits/(Pixel*Frame)                       : 0.130 tq[C"| dH  
Stream size                              : 2.18 GiB (80%) n~Ix8|S h  
Writing library                          : x264 core 125 r2208 d9d2288 iBQftq7  
Encoding settings                        : cabac=1 / ref=9 / deblock=1:-1:-1 / analyse=0x3:0x133 / me=tesa / subme=11 / psy=1 / psy_rd=1.00:0.15 / mixed_ref=1 / me_range=24 / chroma_me=1 / trellis=2 / 8x8dct=1 / cqm=0 / deadzone=21,11 / fast_pskip=0 / chroma_qp_offset=-3 / threads=36 / lookahead_threads=6 / sliced_threads=0 / nr=0 / decimate=1 / interlaced=0 / bluray_compat=0 / constrained_intra=0 / bframes=16 / b_pyramid=2 / b_adapt=2 / b_bias=0 / direct=3 / weightb=1 / open_gop=0 / weightp=2 / keyint=250 / keyint_min=23 / scenecut=40 / intra_refresh=0 / rc_lookahead=60 / rc=2pass / mbtree=1 / bitrate=2873 / ratetol=1.0 / qcomp=0.60 / qpmin=0 / qpmax=69 / qpstep=4 / cplxblur=20.0 / qblur=0.5 / ip_ratio=1.40 / aq=1:1.00 4'M#m|V  
Default                                  : Yes m(Oup=\%b}  
Forced                                   : No &nq[Vy0kO4  
=vWnqF:  
Audio xg8<b  
ID                                       : 2 S"dQ@r9  
Format                                   : AC-3 XH/|jE.9^|  
Format/Info                              : Audio Coding 3  :sf;Fq  
Mode extension                           : CM (complete main) U|>Js!$  
Format settings, Endianness              : Big NIgt"o[I  
Codec ID                                 : A_AC3 u`ZnxD>  
Duration                                 : 1h 51mn jWm<!< ~  
Bit rate mode                            : Constant 7{p,<Uz<"U  
Bit rate                                 : 640 Kbps gI[x OK#  
Channel(s)                               : 6 channels t1D6#JP(a  
Channel positions                        : Front: L C R, Side: L R, LFE orJN#0v4  
Sampling rate                            : 48.0 KHz a:C ly9  
Bit depth                                : 16 bits Dz8)u:vRS  
Compression mode                         : Lossy h<JV6h:8  
Stream size                              : 510 MiB (18%) 'Y `or14E  
Default                                  : Yes C8ek{o)%W  
Forced                                   : No s,Azcqem  
l$ ^LY)i  
^Y,nv,gYn  
360云盘 ZW7z[,tk<.  
尽情欣赏! -c4g;;%  
此帖售价 1 金钱,已有 2 人购买 [记录] [购买]
购买后,将显示帖子中所有出售内容。
若发现会员采用欺骗的方法获取财富,请立刻举报,我们会对会员处以2-N倍的罚金,严重者封掉ID!
此段为出售的内容,购买后显示
x,L<{A`z  
Dk%+|c  
c]}F$[>oN'  
SFJ"(ey$  
x4bmV@b  




离线q965488338

发帖
709
金钱
28138
威望
224
贡献值
96
交易币
1082
只看该作者 1楼 发表于: 2015-08-09
感谢!!!!
离线wannam

发帖
2699
金钱
86933
威望
382
贡献值
189
交易币
3342
只看该作者 2楼 发表于: 2015-08-10
谢谢分享!!!这个有没有字幕啊?我上次用电视搜索又看了一遍,还有三四个花絮,有一个花絮很棒,把smooth criminal那一段创意都解释清楚了。可惜没办法下载分享。不知道你们看过没有

楼主留言:

http://www.mjsunny.com/read.php?tid=60437&ds=1#tpc

离线bachelor

发帖
1775
金钱
12643
威望
202
贡献值
21
交易币
1437
只看该作者 3楼 发表于: 2015-08-10
辛苦了,谢谢了
离线wannam

发帖
2699
金钱
86933
威望
382
贡献值
189
交易币
3342
只看该作者 4楼 发表于: 2015-08-10
果然那个115也是挂了的,不过还好看过。。。下次想看了还可以再看一遍2333 >yr3C  
完整版sc新mv没看过。。。
离线henry

发帖
917
金钱
1457
威望
86
贡献值
21
交易币
967
只看该作者 5楼 发表于: 2016-01-19
發現百度的7.7G沒有分檔下不了 唯有收下這個
快速回复
限100 字节
 
上一个 下一个