论坛风格切换切换到宽版
  • 1366阅读
  • 6回复

This is it就是这样BDrip [复制链接]

上一主题 下一主题
离线耶稣
 

发帖
7150
金钱
272493
威望
2491
贡献值
1655
交易币
11221
只看楼主 倒序阅读 楼主  发表于: 2015-08-09
SJIJV6}H  
]:m*7p\uk  
B=|yjA'Fg  
FSc7 30rM  
General "R4~ 8r  
Unique ID                                : 210936701486699514128764959739620145396 (0x9EB0EE5477533F5DD291C28985C8B8F4) 89+m?H]K  
Complete name                            : E:\迈克尔杰克逊\迈克尔·杰克逊:就是这样.This.Is.It.2009.BDRip.mkv ?HZ+fS ,-  
Format                                   : Matroska Vk{0)W7  
Format version                           : Version 2 * RN*Bh|$  
File size                                : 2.73 GiB qhLe[[>  
Duration                                 : 1h 51mn X(g<rz1J]  
Overall bit rate                         : 3 514 Kbps GMB%A  
Encoded date                             : UTC 2012-08-11 00:43:17 Gq+!%'][P  
Writing application                      : mkvmerge v3.3.0 ('Language') built on May  9 2010 02:39:50 zx0{cNPK5  
Writing library                          : libebml v0.7.7 + libmatroska v0.8.1 {9_CH<$W%U  
w9c  
Video YuLW]Q?v  
ID                                       : 1 0&c12W|B<L  
Format                                   : AVC e @=Bl-  
Format/Info                              : Advanced Video Codec $I>.w4G}  
Format profile                           : High@L4.1 5 E DGl  
Format settings, CABAC                   : Yes dM#\h*:=  
Format settings, ReFrames                : 9 frames AdR}{:ia  
Codec ID                                 : V_MPEG4/ISO/AVC {p1#H`  
Duration                                 : 1h 51mn GC#3{71  
Bit rate                                 : 2 873 Kbps E3;[*ve  
Width                                    : 1 280 pixels |4ONGU*`E  
Height                                   : 720 pixels }_:^&cT  
Display aspect ratio                     : 16:9 kImS'i{A  
Frame rate mode                          : Constant Xr6UN{_-  
Frame rate                               : 23.976 fps ORyFE:p$  
Color space                              : YUV 7M=`Z{=9  
Chroma subsampling                       : 4:2:0 E+]gC  
Bit depth                                : 8 bits A"2k,{d  
Scan type                                : Progressive A8dIL5  
Bits/(Pixel*Frame)                       : 0.130 a=.A/;|0*  
Stream size                              : 2.18 GiB (80%) c7[|x%~  
Writing library                          : x264 core 125 r2208 d9d2288 #9F=+[L  
Encoding settings                        : cabac=1 / ref=9 / deblock=1:-1:-1 / analyse=0x3:0x133 / me=tesa / subme=11 / psy=1 / psy_rd=1.00:0.15 / mixed_ref=1 / me_range=24 / chroma_me=1 / trellis=2 / 8x8dct=1 / cqm=0 / deadzone=21,11 / fast_pskip=0 / chroma_qp_offset=-3 / threads=36 / lookahead_threads=6 / sliced_threads=0 / nr=0 / decimate=1 / interlaced=0 / bluray_compat=0 / constrained_intra=0 / bframes=16 / b_pyramid=2 / b_adapt=2 / b_bias=0 / direct=3 / weightb=1 / open_gop=0 / weightp=2 / keyint=250 / keyint_min=23 / scenecut=40 / intra_refresh=0 / rc_lookahead=60 / rc=2pass / mbtree=1 / bitrate=2873 / ratetol=1.0 / qcomp=0.60 / qpmin=0 / qpmax=69 / qpstep=4 / cplxblur=20.0 / qblur=0.5 / ip_ratio=1.40 / aq=1:1.00 jn&[=Y-  
Default                                  : Yes 4@&8jZ)a  
Forced                                   : No <7~HG(ks  
n{s `XyH  
Audio :aS8%m  
ID                                       : 2 ,B_Nz}\8  
Format                                   : AC-3 fI9 TzpV  
Format/Info                              : Audio Coding 3 80TSE*  
Mode extension                           : CM (complete main) 2Dgulx5kGZ  
Format settings, Endianness              : Big TPEg>[  
Codec ID                                 : A_AC3 f s_6`Xt  
Duration                                 : 1h 51mn 6c>cq\~E  
Bit rate mode                            : Constant s tvI  
Bit rate                                 : 640 Kbps E_ #MQ;n  
Channel(s)                               : 6 channels xXkP(^ Y  
Channel positions                        : Front: L C R, Side: L R, LFE jYE<d&Cq  
Sampling rate                            : 48.0 KHz {6d)|';%  
Bit depth                                : 16 bits H&Jp,<\x  
Compression mode                         : Lossy _nW{Q-nh  
Stream size                              : 510 MiB (18%) ;>%@  
Default                                  : Yes wyG7SA   
Forced                                   : No wNQhz.>y  
@q8h'@sX  
^&^~LKl~  
360云盘 p@`]9tLP(K  
尽情欣赏! MLVrL r t  
此帖售价 1 金钱,已有 3 人购买 [记录] [购买]
购买后,将显示帖子中所有出售内容。
若发现会员采用欺骗的方法获取财富,请立刻举报,我们会对会员处以2-N倍的罚金,严重者封掉ID!
此段为出售的内容,购买后显示
6d%V=1^F  
]!% p21e  
pGO=3=O  
xJ=@xfr$  
@cc4]>4  




离线q965488338

发帖
709
金钱
28398
威望
224
贡献值
96
交易币
1082
只看该作者 1楼 发表于: 2015-08-09
感谢!!!!
离线wannam

发帖
2702
金钱
87012
威望
382
贡献值
189
交易币
3345
只看该作者 2楼 发表于: 2015-08-10
谢谢分享!!!这个有没有字幕啊?我上次用电视搜索又看了一遍,还有三四个花絮,有一个花絮很棒,把smooth criminal那一段创意都解释清楚了。可惜没办法下载分享。不知道你们看过没有

楼主留言:

http://www.mjsunny.com/read.php?tid=60437&ds=1#tpc

离线bachelor

发帖
1788
金钱
12700
威望
202
贡献值
21
交易币
1450
只看该作者 3楼 发表于: 2015-08-10
辛苦了,谢谢了
离线wannam

发帖
2702
金钱
87012
威望
382
贡献值
189
交易币
3345
只看该作者 4楼 发表于: 2015-08-10
果然那个115也是挂了的,不过还好看过。。。下次想看了还可以再看一遍2333 nuB@Fkr  
完整版sc新mv没看过。。。
在线henry

发帖
946
金钱
292
威望
86
贡献值
21
交易币
996
只看该作者 5楼 发表于: 2016-01-19
發現百度的7.7G沒有分檔下不了 唯有收下這個
离线qq8508633

发帖
73
金钱
41
威望
7
贡献值
9
交易币
113
只看该作者 6楼 发表于: 2017-12-21
消息
快速回复
限100 字节
 
上一个 下一个