论坛风格切换切换到宽版
  • 1508阅读
  • 6回复

This is it就是这样BDrip [复制链接]

上一主题 下一主题
离线耶稣
 

发帖
7195
金钱
277088
威望
2520
贡献值
1671
交易币
11330
只看楼主 倒序阅读 楼主  发表于: 2015-08-09
BkZmE,  
c= f _  
_b ~XBn  
lDBn3U&z>  
General i2h,=NHJh?  
Unique ID                                : 210936701486699514128764959739620145396 (0x9EB0EE5477533F5DD291C28985C8B8F4) M=HP!hn  
Complete name                            : E:\迈克尔杰克逊\迈克尔·杰克逊:就是这样.This.Is.It.2009.BDRip.mkv l}#z#L2,`  
Format                                   : Matroska m{~p(sQL  
Format version                           : Version 2 Ax'jNol  
File size                                : 2.73 GiB #fF~6wopV  
Duration                                 : 1h 51mn \|OW`7Q)k  
Overall bit rate                         : 3 514 Kbps @A-*XJNS":  
Encoded date                             : UTC 2012-08-11 00:43:17 +`@)87O  
Writing application                      : mkvmerge v3.3.0 ('Language') built on May  9 2010 02:39:50 !W^b:qjJ  
Writing library                          : libebml v0.7.7 + libmatroska v0.8.1 i]qVT)j  
=z=$S]qN  
Video t1y hU"(J  
ID                                       : 1 !jV}sp<Xp  
Format                                   : AVC ~Sr`Tlp  
Format/Info                              : Advanced Video Codec W~TT`%[  
Format profile                           : High@L4.1 *1Q~/<W  
Format settings, CABAC                   : Yes OS X5S:XS  
Format settings, ReFrames                : 9 frames ZTq"SQ>ym  
Codec ID                                 : V_MPEG4/ISO/AVC K#O8P+n5[  
Duration                                 : 1h 51mn k"J [mT$b  
Bit rate                                 : 2 873 Kbps QasUgZ  
Width                                    : 1 280 pixels YW|KkHi*  
Height                                   : 720 pixels b r"4 7i  
Display aspect ratio                     : 16:9 ?q&*|-%)_d  
Frame rate mode                          : Constant /uTU*Oe  
Frame rate                               : 23.976 fps 0a#2 Lo  
Color space                              : YUV n1X.]|6'  
Chroma subsampling                       : 4:2:0 /Dn,;@ZwAi  
Bit depth                                : 8 bits H;QE',a9+i  
Scan type                                : Progressive 2>E.Q@c  
Bits/(Pixel*Frame)                       : 0.130 +) pO82  
Stream size                              : 2.18 GiB (80%) 8P wobln  
Writing library                          : x264 core 125 r2208 d9d2288 Ab]`*h\U  
Encoding settings                        : cabac=1 / ref=9 / deblock=1:-1:-1 / analyse=0x3:0x133 / me=tesa / subme=11 / psy=1 / psy_rd=1.00:0.15 / mixed_ref=1 / me_range=24 / chroma_me=1 / trellis=2 / 8x8dct=1 / cqm=0 / deadzone=21,11 / fast_pskip=0 / chroma_qp_offset=-3 / threads=36 / lookahead_threads=6 / sliced_threads=0 / nr=0 / decimate=1 / interlaced=0 / bluray_compat=0 / constrained_intra=0 / bframes=16 / b_pyramid=2 / b_adapt=2 / b_bias=0 / direct=3 / weightb=1 / open_gop=0 / weightp=2 / keyint=250 / keyint_min=23 / scenecut=40 / intra_refresh=0 / rc_lookahead=60 / rc=2pass / mbtree=1 / bitrate=2873 / ratetol=1.0 / qcomp=0.60 / qpmin=0 / qpmax=69 / qpstep=4 / cplxblur=20.0 / qblur=0.5 / ip_ratio=1.40 / aq=1:1.00 (6xrs_ea  
Default                                  : Yes yq3i=RB(  
Forced                                   : No l8"  
DPrFBy  
Audio rt\i@}  
ID                                       : 2 BE54^U  
Format                                   : AC-3 z|VQp,ra  
Format/Info                              : Audio Coding 3 [LwmzmV+F  
Mode extension                           : CM (complete main) L*2YAIG  
Format settings, Endianness              : Big &cty&(2p  
Codec ID                                 : A_AC3 Q:.q*I!D<4  
Duration                                 : 1h 51mn  ~ccwu  
Bit rate mode                            : Constant N :#"4e  
Bit rate                                 : 640 Kbps k79" xyXX  
Channel(s)                               : 6 channels 8pc=Oor2Tv  
Channel positions                        : Front: L C R, Side: L R, LFE :G&tM   
Sampling rate                            : 48.0 KHz 3JB?G>\!  
Bit depth                                : 16 bits }L.xt88  
Compression mode                         : Lossy @M[t|  
Stream size                              : 510 MiB (18%) ar-N4+!@  
Default                                  : Yes 3},0b8};  
Forced                                   : No Tw:j}ERq  
aCu 8 D!  
7Eo a~  
360云盘 ]8)nIT^EP  
尽情欣赏! w8!S;~xKI  
此帖售价 1 金钱,已有 3 人购买 [记录] [购买]
购买后,将显示帖子中所有出售内容。
若发现会员采用欺骗的方法获取财富,请立刻举报,我们会对会员处以2-N倍的罚金,严重者封掉ID!
此段为出售的内容,购买后显示
!f 7CN<  
),9^hJ1+@  
[LDV*79Z  
q;&\77i$  
Z`L-UQJ .  



离线q965488338

发帖
709
金钱
28408
威望
224
贡献值
96
交易币
1082
只看该作者 1楼 发表于: 2015-08-09
感谢!!!!
离线wannam

发帖
2703
金钱
87075
威望
382
贡献值
189
交易币
3346
只看该作者 2楼 发表于: 2015-08-10
谢谢分享!!!这个有没有字幕啊?我上次用电视搜索又看了一遍,还有三四个花絮,有一个花絮很棒,把smooth criminal那一段创意都解释清楚了。可惜没办法下载分享。不知道你们看过没有

楼主留言:

http://www.mjsunny.com/read.php?tid=60437&ds=1#tpc

离线bachelor

发帖
1795
金钱
12732
威望
202
贡献值
21
交易币
1457
只看该作者 3楼 发表于: 2015-08-10
辛苦了,谢谢了
离线wannam

发帖
2703
金钱
87075
威望
382
贡献值
189
交易币
3346
只看该作者 4楼 发表于: 2015-08-10
果然那个115也是挂了的,不过还好看过。。。下次想看了还可以再看一遍2333  hxedQvW  
完整版sc新mv没看过。。。
离线henry

发帖
980
金钱
7
威望
81
贡献值
21
交易币
1030
只看该作者 5楼 发表于: 2016-01-19
發現百度的7.7G沒有分檔下不了 唯有收下這個
离线qq8508633

发帖
73
金钱
41
威望
7
贡献值
9
交易币
113
只看该作者 6楼 发表于: 2017-12-21
消息
快速回复
限100 字节
 
上一个 下一个