论坛风格切换切换到宽版
  • 1652阅读
  • 6回复

This is it就是这样BDrip [复制链接]

上一主题 下一主题
离线耶稣
 

发帖
7217
金钱
278718
威望
2545
贡献值
1686
交易币
11380
只看楼主 倒序阅读 楼主  发表于: 2015-08-09
C7jc6(> m  
/[20e1 w!  
}dd k}wga  
Q_QKm0!  
General +-H}s`  
Unique ID                                : 210936701486699514128764959739620145396 (0x9EB0EE5477533F5DD291C28985C8B8F4) eC>"my`  
Complete name                            : E:\迈克尔杰克逊\迈克尔·杰克逊:就是这样.This.Is.It.2009.BDRip.mkv |RR%bQ^{  
Format                                   : Matroska 9^ >M>f"  
Format version                           : Version 2 0T9@,scY  
File size                                : 2.73 GiB zH)cU%I@.  
Duration                                 : 1h 51mn .e`,{G(5q7  
Overall bit rate                         : 3 514 Kbps `y\*m]:  
Encoded date                             : UTC 2012-08-11 00:43:17 [_y9"MMwn  
Writing application                      : mkvmerge v3.3.0 ('Language') built on May  9 2010 02:39:50 ],;D2]<s  
Writing library                          : libebml v0.7.7 + libmatroska v0.8.1 BRQ"A,  
\\=.6cg<K  
Video r%0pQEl  
ID                                       : 1 o_iEkn  
Format                                   : AVC %$Aqbd  
Format/Info                              : Advanced Video Codec @4;&hP2Z:  
Format profile                           : High@L4.1 ] bIt@GB  
Format settings, CABAC                   : Yes XM$GQn]B  
Format settings, ReFrames                : 9 frames 0{Bf9cH  
Codec ID                                 : V_MPEG4/ISO/AVC ,(P %z.P@  
Duration                                 : 1h 51mn |~eY%LB  
Bit rate                                 : 2 873 Kbps "J& (:(:  
Width                                    : 1 280 pixels 'j}g  
Height                                   : 720 pixels -bA!PeI  
Display aspect ratio                     : 16:9 =5ug\S  
Frame rate mode                          : Constant G?<pBMy  
Frame rate                               : 23.976 fps MKC$;>i  
Color space                              : YUV ^X &)'H  
Chroma subsampling                       : 4:2:0 C`0%C7  
Bit depth                                : 8 bits %K zbO0  
Scan type                                : Progressive <HF-2?`  
Bits/(Pixel*Frame)                       : 0.130 #ZWl=z5aBi  
Stream size                              : 2.18 GiB (80%) g$w6kz_[  
Writing library                          : x264 core 125 r2208 d9d2288 *1bzg/T<  
Encoding settings                        : cabac=1 / ref=9 / deblock=1:-1:-1 / analyse=0x3:0x133 / me=tesa / subme=11 / psy=1 / psy_rd=1.00:0.15 / mixed_ref=1 / me_range=24 / chroma_me=1 / trellis=2 / 8x8dct=1 / cqm=0 / deadzone=21,11 / fast_pskip=0 / chroma_qp_offset=-3 / threads=36 / lookahead_threads=6 / sliced_threads=0 / nr=0 / decimate=1 / interlaced=0 / bluray_compat=0 / constrained_intra=0 / bframes=16 / b_pyramid=2 / b_adapt=2 / b_bias=0 / direct=3 / weightb=1 / open_gop=0 / weightp=2 / keyint=250 / keyint_min=23 / scenecut=40 / intra_refresh=0 / rc_lookahead=60 / rc=2pass / mbtree=1 / bitrate=2873 / ratetol=1.0 / qcomp=0.60 / qpmin=0 / qpmax=69 / qpstep=4 / cplxblur=20.0 / qblur=0.5 / ip_ratio=1.40 / aq=1:1.00 Hku=pr3Gn  
Default                                  : Yes uyT/Xzo3  
Forced                                   : No d(S}NH  
ce'TYkPM  
Audio >IY,be6>P  
ID                                       : 2 s'L?;:)dyB  
Format                                   : AC-3 Y {c5  
Format/Info                              : Audio Coding 3 VJ{pN~_1  
Mode extension                           : CM (complete main) 7& 6Y  
Format settings, Endianness              : Big VzwPBQ -  
Codec ID                                 : A_AC3 P(h5=0`*PR  
Duration                                 : 1h 51mn _;e\:7<m  
Bit rate mode                            : Constant Oif,|:  
Bit rate                                 : 640 Kbps H_B~P%E@]  
Channel(s)                               : 6 channels kuS/S\Z5K  
Channel positions                        : Front: L C R, Side: L R, LFE Tbh'_ F6  
Sampling rate                            : 48.0 KHz gdi`x|0  
Bit depth                                : 16 bits bK=c@GXS  
Compression mode                         : Lossy GS%b=kc  
Stream size                              : 510 MiB (18%) rYGRz#:~+  
Default                                  : Yes Kbas-</Si  
Forced                                   : No }1m_o@{3P  
V2<i/6~  
@^CG[:|  
360云盘 EcW1;wH  
尽情欣赏! *Sb2w*c>  
此帖售价 1 金钱,已有 3 人购买 [记录] [购买]
购买后,将显示帖子中所有出售内容。
若发现会员采用欺骗的方法获取财富,请立刻举报,我们会对会员处以2-N倍的罚金,严重者封掉ID!
此段为出售的内容,购买后显示
P6we(I`"2  
d*%Mv[X:<  
g)cY\`&W8  
`[@VxGy_  
J)huy\>,  



离线q965488338

发帖
710
金钱
28398
威望
224
贡献值
96
交易币
1083
只看该作者 1楼 发表于: 2015-08-09
感谢!!!!
离线wannam

发帖
2703
金钱
87101
威望
382
贡献值
189
交易币
3346
只看该作者 2楼 发表于: 2015-08-10
谢谢分享!!!这个有没有字幕啊?我上次用电视搜索又看了一遍,还有三四个花絮,有一个花絮很棒,把smooth criminal那一段创意都解释清楚了。可惜没办法下载分享。不知道你们看过没有

楼主留言:

http://www.mjsunny.com/read.php?tid=60437&ds=1#tpc

离线bachelor

发帖
1796
金钱
12737
威望
202
贡献值
21
交易币
1458
只看该作者 3楼 发表于: 2015-08-10
辛苦了,谢谢了
离线wannam

发帖
2703
金钱
87101
威望
382
贡献值
189
交易币
3346
只看该作者 4楼 发表于: 2015-08-10
果然那个115也是挂了的,不过还好看过。。。下次想看了还可以再看一遍2333 Y&!]I84]  
完整版sc新mv没看过。。。
离线henry

发帖
982
金钱
14
威望
81
贡献值
21
交易币
1032
只看该作者 5楼 发表于: 2016-01-19
發現百度的7.7G沒有分檔下不了 唯有收下這個
离线qq8508633

发帖
68
金钱
-49
威望
2
贡献值
4
交易币
88
只看该作者 6楼 发表于: 2017-12-21
用户被禁言,该主题自动屏蔽!
快速回复
限100 字节
 
上一个 下一个