论坛风格切换切换到宽版
  • 1427阅读
  • 6回复

This is it就是这样BDrip [复制链接]

上一主题 下一主题
离线耶稣
 

发帖
7190
金钱
276124
威望
2509
贡献值
1669
交易币
11317
只看楼主 倒序阅读 楼主  发表于: 2015-08-09
5W 5\  *L  
^[\F uSL  
oKA8)~Xqou  
`Qaw]&O  
General _4xX}Z;  
Unique ID                                : 210936701486699514128764959739620145396 (0x9EB0EE5477533F5DD291C28985C8B8F4) pWwaN4  
Complete name                            : E:\迈克尔杰克逊\迈克尔·杰克逊:就是这样.This.Is.It.2009.BDRip.mkv ZK{VQ~  
Format                                   : Matroska ~ NK w}6  
Format version                           : Version 2 TPvS+_<oL{  
File size                                : 2.73 GiB #'v7mEwt  
Duration                                 : 1h 51mn Y \& 4`v'  
Overall bit rate                         : 3 514 Kbps 6}K|eUak/  
Encoded date                             : UTC 2012-08-11 00:43:17 D ( <_1  
Writing application                      : mkvmerge v3.3.0 ('Language') built on May  9 2010 02:39:50 ;Tvy)*{  
Writing library                          : libebml v0.7.7 + libmatroska v0.8.1 \XCs(lNh  
QDzFl1\P  
Video HfFP4#C,  
ID                                       : 1 KA0Ui,q3  
Format                                   : AVC m;>HUTj  
Format/Info                              : Advanced Video Codec 0V uG(O  
Format profile                           : High@L4.1 <{Wsh#7}.  
Format settings, CABAC                   : Yes h\Ck""&  
Format settings, ReFrames                : 9 frames Z 7rVM   
Codec ID                                 : V_MPEG4/ISO/AVC 9XImgeAs  
Duration                                 : 1h 51mn MDGD*Qn~  
Bit rate                                 : 2 873 Kbps  w~wpm7  
Width                                    : 1 280 pixels fA{[H:*}G  
Height                                   : 720 pixels ~UA:_7#\M  
Display aspect ratio                     : 16:9 [+<lm 5t  
Frame rate mode                          : Constant k`ulDQu  
Frame rate                               : 23.976 fps xV@/z5Tq  
Color space                              : YUV #;,dk(URo  
Chroma subsampling                       : 4:2:0 ~Iw7Xq E2  
Bit depth                                : 8 bits -:Up$6PR  
Scan type                                : Progressive b3Nr>(Z<}  
Bits/(Pixel*Frame)                       : 0.130 N pu#.)G  
Stream size                              : 2.18 GiB (80%) :mOHR&2xR%  
Writing library                          : x264 core 125 r2208 d9d2288 .v<Q-P\8/  
Encoding settings                        : cabac=1 / ref=9 / deblock=1:-1:-1 / analyse=0x3:0x133 / me=tesa / subme=11 / psy=1 / psy_rd=1.00:0.15 / mixed_ref=1 / me_range=24 / chroma_me=1 / trellis=2 / 8x8dct=1 / cqm=0 / deadzone=21,11 / fast_pskip=0 / chroma_qp_offset=-3 / threads=36 / lookahead_threads=6 / sliced_threads=0 / nr=0 / decimate=1 / interlaced=0 / bluray_compat=0 / constrained_intra=0 / bframes=16 / b_pyramid=2 / b_adapt=2 / b_bias=0 / direct=3 / weightb=1 / open_gop=0 / weightp=2 / keyint=250 / keyint_min=23 / scenecut=40 / intra_refresh=0 / rc_lookahead=60 / rc=2pass / mbtree=1 / bitrate=2873 / ratetol=1.0 / qcomp=0.60 / qpmin=0 / qpmax=69 / qpstep=4 / cplxblur=20.0 / qblur=0.5 / ip_ratio=1.40 / aq=1:1.00 9/[1a_ r  
Default                                  : Yes J-Xw}|>@  
Forced                                   : No R 1CoS6  
T ~=r*4  
Audio Nd5G-eYI  
ID                                       : 2 c,wYXnJ_t  
Format                                   : AC-3 w+,Kpb<x[0  
Format/Info                              : Audio Coding 3 p }p@])}8  
Mode extension                           : CM (complete main) V*}xlxSL  
Format settings, Endianness              : Big D'F j"&LK  
Codec ID                                 : A_AC3 nBN+.RB:(  
Duration                                 : 1h 51mn xE.yh#?.k  
Bit rate mode                            : Constant e$vvmbK.  
Bit rate                                 : 640 Kbps Xur{nk~?  
Channel(s)                               : 6 channels [iO*t, 3@h  
Channel positions                        : Front: L C R, Side: L R, LFE )j_Y9`R  
Sampling rate                            : 48.0 KHz q r<+@Q  
Bit depth                                : 16 bits vl"{ovoC  
Compression mode                         : Lossy GV"X) tGo  
Stream size                              : 510 MiB (18%) 8 Buus  
Default                                  : Yes 9x]yu6  
Forced                                   : No [$]Kp9YD  
9C"d7--  
^;DbIo\6H  
360云盘 %{j)w{ L J  
尽情欣赏! .G/2CVMj  
此帖售价 1 金钱,已有 3 人购买 [记录] [购买]
购买后,将显示帖子中所有出售内容。
若发现会员采用欺骗的方法获取财富,请立刻举报,我们会对会员处以2-N倍的罚金,严重者封掉ID!
此段为出售的内容,购买后显示
O<}KrmUC~  
)m4O7'2G  
r!WXD9#  
8Z1pQx-P2C  
0oU;Cmw.  



离线q965488338

发帖
709
金钱
28408
威望
224
贡献值
96
交易币
1082
只看该作者 1楼 发表于: 2015-08-09
感谢!!!!
离线wannam

发帖
2703
金钱
87033
威望
382
贡献值
189
交易币
3346
只看该作者 2楼 发表于: 2015-08-10
谢谢分享!!!这个有没有字幕啊?我上次用电视搜索又看了一遍,还有三四个花絮,有一个花絮很棒,把smooth criminal那一段创意都解释清楚了。可惜没办法下载分享。不知道你们看过没有

楼主留言:

http://www.mjsunny.com/read.php?tid=60437&ds=1#tpc

离线bachelor

发帖
1791
金钱
12714
威望
202
贡献值
21
交易币
1453
只看该作者 3楼 发表于: 2015-08-10
辛苦了,谢谢了
离线wannam

发帖
2703
金钱
87033
威望
382
贡献值
189
交易币
3346
只看该作者 4楼 发表于: 2015-08-10
果然那个115也是挂了的,不过还好看过。。。下次想看了还可以再看一遍2333 x-+[gNc 6  
完整版sc新mv没看过。。。
离线henry

发帖
979
金钱
4
威望
81
贡献值
21
交易币
1029
只看该作者 5楼 发表于: 2016-01-19
發現百度的7.7G沒有分檔下不了 唯有收下這個
离线qq8508633

发帖
73
金钱
41
威望
7
贡献值
9
交易币
113
只看该作者 6楼 发表于: 2017-12-21
消息
快速回复
限100 字节
 
上一个 下一个