论坛风格切换切换到宽版
  • 912阅读
  • 5回复

This is it就是这样BDrip [复制链接]

上一主题 下一主题
离线耶稣
 

发帖
6478
金钱
187264
威望
1847
贡献值
1208
交易币
9692
只看楼主 倒序阅读 楼主  发表于: 2015-08-09
8SpG/gl"  
G:*vV#K  
]R Ah['u|  
OUWK  
General =r+K2]z,L  
Unique ID                                : 210936701486699514128764959739620145396 (0x9EB0EE5477533F5DD291C28985C8B8F4) p2Khfl6-  
Complete name                            : E:\迈克尔杰克逊\迈克尔·杰克逊:就是这样.This.Is.It.2009.BDRip.mkv \me5"ZU  
Format                                   : Matroska xHt7/8wF  
Format version                           : Version 2 m 3UK`~ji  
File size                                : 2.73 GiB +a39 !j 1_  
Duration                                 : 1h 51mn OxDq LX  
Overall bit rate                         : 3 514 Kbps j7)mC4o:%  
Encoded date                             : UTC 2012-08-11 00:43:17 z&QfZs  
Writing application                      : mkvmerge v3.3.0 ('Language') built on May  9 2010 02:39:50 \ Bj{.jL  
Writing library                          : libebml v0.7.7 + libmatroska v0.8.1 umns*U%T;  
#czTX%+9(e  
Video (rFiHv5  
ID                                       : 1 $B8Vg `+  
Format                                   : AVC ~1;M4K  
Format/Info                              : Advanced Video Codec  dwk%!%  
Format profile                           : High@L4.1 uD@ ZM  
Format settings, CABAC                   : Yes `(HvD] l  
Format settings, ReFrames                : 9 frames :pM 8Q1:B  
Codec ID                                 : V_MPEG4/ISO/AVC pl%!AY'oE>  
Duration                                 : 1h 51mn +YZo-tE  
Bit rate                                 : 2 873 Kbps H?O5 "4a  
Width                                    : 1 280 pixels Y_Fn)(  
Height                                   : 720 pixels >%;i@"  
Display aspect ratio                     : 16:9 ef^GJTv&k  
Frame rate mode                          : Constant t@R[:n;+  
Frame rate                               : 23.976 fps mDK*LL5]W  
Color space                              : YUV .^*;hZ~4%  
Chroma subsampling                       : 4:2:0 \}4Y]xjV2  
Bit depth                                : 8 bits 3}FZg w .  
Scan type                                : Progressive ke8g tbm  
Bits/(Pixel*Frame)                       : 0.130 KO=$Hr?f;  
Stream size                              : 2.18 GiB (80%) 2`*w*  
Writing library                          : x264 core 125 r2208 d9d2288 <qfAW?tF  
Encoding settings                        : cabac=1 / ref=9 / deblock=1:-1:-1 / analyse=0x3:0x133 / me=tesa / subme=11 / psy=1 / psy_rd=1.00:0.15 / mixed_ref=1 / me_range=24 / chroma_me=1 / trellis=2 / 8x8dct=1 / cqm=0 / deadzone=21,11 / fast_pskip=0 / chroma_qp_offset=-3 / threads=36 / lookahead_threads=6 / sliced_threads=0 / nr=0 / decimate=1 / interlaced=0 / bluray_compat=0 / constrained_intra=0 / bframes=16 / b_pyramid=2 / b_adapt=2 / b_bias=0 / direct=3 / weightb=1 / open_gop=0 / weightp=2 / keyint=250 / keyint_min=23 / scenecut=40 / intra_refresh=0 / rc_lookahead=60 / rc=2pass / mbtree=1 / bitrate=2873 / ratetol=1.0 / qcomp=0.60 / qpmin=0 / qpmax=69 / qpstep=4 / cplxblur=20.0 / qblur=0.5 / ip_ratio=1.40 / aq=1:1.00 4_5f4%S  
Default                                  : Yes 0e<>2AL   
Forced                                   : No N#Rb8&G)b  
{Vj&i.2,  
Audio =V|jd'iwx  
ID                                       : 2 C<C$df  
Format                                   : AC-3 &u[{VR:  
Format/Info                              : Audio Coding 3 ld ]*J}cw  
Mode extension                           : CM (complete main) i<F7/p "-  
Format settings, Endianness              : Big OC*28)  
Codec ID                                 : A_AC3 ^Zz^h@+  
Duration                                 : 1h 51mn ;ZUj2WxE  
Bit rate mode                            : Constant A0 Nx?  
Bit rate                                 : 640 Kbps b]b>i]n  
Channel(s)                               : 6 channels iGSJ\  
Channel positions                        : Front: L C R, Side: L R, LFE Lq5xp<  
Sampling rate                            : 48.0 KHz uKAI->"  
Bit depth                                : 16 bits 1l$ C3c  
Compression mode                         : Lossy 5?;<^J  
Stream size                              : 510 MiB (18%) GGEM&0*  
Default                                  : Yes pi"M*$  
Forced                                   : No }qso} WI  
I;NW!"pU  
I9 zs  
360云盘 ^+D/59I  
尽情欣赏! ~BuzI9~7P  
此帖售价 1 金钱,已有 2 人购买 [记录] [购买]
购买后,将显示帖子中所有出售内容。
若发现会员采用欺骗的方法获取财富,请立刻举报,我们会对会员处以2-N倍的罚金,严重者封掉ID!
此段为出售的内容,购买后显示
?)-6~p 4N  
=F$?`q`  
uQvTir*e  
\85%d0@3  
c`;oV-f  



离线q965488338

发帖
709
金钱
27822
威望
224
贡献值
96
交易币
1082
只看该作者 1楼 发表于: 2015-08-09
感谢!!!!
离线wannam

发帖
2583
金钱
75509
威望
363
贡献值
169
交易币
3226
只看该作者 2楼 发表于: 2015-08-10
谢谢分享!!!这个有没有字幕啊?我上次用电视搜索又看了一遍,还有三四个花絮,有一个花絮很棒,把smooth criminal那一段创意都解释清楚了。可惜没办法下载分享。不知道你们看过没有

楼主留言:

http://www.mjsunny.com/read.php?tid=60437&ds=1#tpc

离线bachelor

发帖
1708
金钱
12386
威望
202
贡献值
21
交易币
1370
只看该作者 3楼 发表于: 2015-08-10
辛苦了,谢谢了
离线wannam

发帖
2583
金钱
75509
威望
363
贡献值
169
交易币
3226
只看该作者 4楼 发表于: 2015-08-10
果然那个115也是挂了的,不过还好看过。。。下次想看了还可以再看一遍2333 J0k!&d8  
完整版sc新mv没看过。。。
离线henry

发帖
814
金钱
3942
威望
86
贡献值
19
交易币
856
只看该作者 5楼 发表于: 2016-01-19
發現百度的7.7G沒有分檔下不了 唯有收下這個
快速回复
限100 字节
 
上一个 下一个