论坛风格切换切换到宽版
  • 1116阅读
  • 5回复

This is it就是这样BDrip [复制链接]

上一主题 下一主题
在线耶稣
 

发帖
6916
金钱
228797
威望
2361
贡献值
1569
交易币
10695
只看楼主 倒序阅读 楼主  发表于: 2015-08-09
cx(W{O"Jb  
1p[Z`m*9  
J^G#x}y  
jW G=k#WN  
General c T!L+z g  
Unique ID                                : 210936701486699514128764959739620145396 (0x9EB0EE5477533F5DD291C28985C8B8F4) Q6|~ks+Y  
Complete name                            : E:\迈克尔杰克逊\迈克尔·杰克逊:就是这样.This.Is.It.2009.BDRip.mkv # XD-a  
Format                                   : Matroska gtBnP~zT\B  
Format version                           : Version 2 u*<G20~A  
File size                                : 2.73 GiB &!kr &g#]  
Duration                                 : 1h 51mn onuhNn_=>  
Overall bit rate                         : 3 514 Kbps -[I}"Glz:  
Encoded date                             : UTC 2012-08-11 00:43:17 2A+I8/zRG  
Writing application                      : mkvmerge v3.3.0 ('Language') built on May  9 2010 02:39:50 :V%XEN)  
Writing library                          : libebml v0.7.7 + libmatroska v0.8.1 NTHy!y<!h  
u'?yc"d>#  
Video 4gTD HQP  
ID                                       : 1 Ng6(2Wt0e  
Format                                   : AVC 0$n0f u  
Format/Info                              : Advanced Video Codec v;9VX   
Format profile                           : High@L4.1 LN8V&'>  
Format settings, CABAC                   : Yes sW":~=H  
Format settings, ReFrames                : 9 frames v@43 %`"Gj  
Codec ID                                 : V_MPEG4/ISO/AVC kQR kby  
Duration                                 : 1h 51mn 3q=A35*LT>  
Bit rate                                 : 2 873 Kbps S.9ki<  
Width                                    : 1 280 pixels u3 mTsq!  
Height                                   : 720 pixels ^AWM/aY  
Display aspect ratio                     : 16:9 OBF2?[V~  
Frame rate mode                          : Constant Bf Lh%XC  
Frame rate                               : 23.976 fps {*8'bNJ  
Color space                              : YUV &)Fp  
Chroma subsampling                       : 4:2:0 .1u"16_  
Bit depth                                : 8 bits ;4E0%@R  
Scan type                                : Progressive R{~Yh.)~  
Bits/(Pixel*Frame)                       : 0.130 A f@IsCOJ  
Stream size                              : 2.18 GiB (80%) @Z.s:FV[  
Writing library                          : x264 core 125 r2208 d9d2288 S1pikwB  
Encoding settings                        : cabac=1 / ref=9 / deblock=1:-1:-1 / analyse=0x3:0x133 / me=tesa / subme=11 / psy=1 / psy_rd=1.00:0.15 / mixed_ref=1 / me_range=24 / chroma_me=1 / trellis=2 / 8x8dct=1 / cqm=0 / deadzone=21,11 / fast_pskip=0 / chroma_qp_offset=-3 / threads=36 / lookahead_threads=6 / sliced_threads=0 / nr=0 / decimate=1 / interlaced=0 / bluray_compat=0 / constrained_intra=0 / bframes=16 / b_pyramid=2 / b_adapt=2 / b_bias=0 / direct=3 / weightb=1 / open_gop=0 / weightp=2 / keyint=250 / keyint_min=23 / scenecut=40 / intra_refresh=0 / rc_lookahead=60 / rc=2pass / mbtree=1 / bitrate=2873 / ratetol=1.0 / qcomp=0.60 / qpmin=0 / qpmax=69 / qpstep=4 / cplxblur=20.0 / qblur=0.5 / ip_ratio=1.40 / aq=1:1.00 @|xcrEnP}B  
Default                                  : Yes [-cYFdt"V  
Forced                                   : No uh UC m  
Nhv~f0  
Audio ~S)o ('  
ID                                       : 2 sm-RpZ&|  
Format                                   : AC-3 T~UKWAKX}  
Format/Info                              : Audio Coding 3 v;X'4/ M  
Mode extension                           : CM (complete main) n%I%O7  
Format settings, Endianness              : Big 8V%(SV  
Codec ID                                 : A_AC3 -.: [a3c?  
Duration                                 : 1h 51mn 2E^zQ>;01  
Bit rate mode                            : Constant XCO{}wU)>  
Bit rate                                 : 640 Kbps dV<|ztv  
Channel(s)                               : 6 channels |a#4  
Channel positions                        : Front: L C R, Side: L R, LFE #uJGXrGt=  
Sampling rate                            : 48.0 KHz 8 ~.|^no  
Bit depth                                : 16 bits ig^9lM'  
Compression mode                         : Lossy ,x}p1EZ  
Stream size                              : 510 MiB (18%) 2/f:VB?<T  
Default                                  : Yes Me[T=Tt`@w  
Forced                                   : No J]5 sWs  
\"c;MK{  
-Y%#z'^-  
360云盘 j8 nG Gx  
尽情欣赏! Ce}wgKzr  
此帖售价 1 金钱,已有 2 人购买 [记录] [购买]
购买后,将显示帖子中所有出售内容。
若发现会员采用欺骗的方法获取财富,请立刻举报,我们会对会员处以2-N倍的罚金,严重者封掉ID!
此段为出售的内容,购买后显示
8 ZD1}58U4  
e~jw YImA  
3 <RkUmR  
aPaGnP:^  
Urur/_]-%  


离线q965488338

发帖
709
金钱
28060
威望
224
贡献值
96
交易币
1082
只看该作者 1楼 发表于: 2015-08-09
感谢!!!!
离线wannam

发帖
2698
金钱
86889
威望
382
贡献值
189
交易币
3341
只看该作者 2楼 发表于: 2015-08-10
谢谢分享!!!这个有没有字幕啊?我上次用电视搜索又看了一遍,还有三四个花絮,有一个花絮很棒,把smooth criminal那一段创意都解释清楚了。可惜没办法下载分享。不知道你们看过没有

楼主留言:

http://www.mjsunny.com/read.php?tid=60437&ds=1#tpc

离线bachelor

发帖
1744
金钱
12538
威望
202
贡献值
21
交易币
1406
只看该作者 3楼 发表于: 2015-08-10
辛苦了,谢谢了
离线wannam

发帖
2698
金钱
86889
威望
382
贡献值
189
交易币
3341
只看该作者 4楼 发表于: 2015-08-10
果然那个115也是挂了的,不过还好看过。。。下次想看了还可以再看一遍2333 enO5XsIc  
完整版sc新mv没看过。。。
离线henry

发帖
850
金钱
2930
威望
85
贡献值
20
交易币
896
只看该作者 5楼 发表于: 2016-01-19
發現百度的7.7G沒有分檔下不了 唯有收下這個
快速回复
限100 字节
 
上一个 下一个