论坛风格切换切换到宽版
  • 870阅读
  • 5回复

This is it就是这样BDrip [复制链接]

上一主题 下一主题
离线耶稣
 

发帖
6459
金钱
180977
威望
1800
贡献值
1197
交易币
9629
只看楼主 倒序阅读 楼主  发表于: 2015-08-09
wI}5[m  
t[F tIj6  
~c :e0}  
sN 7I~  
General 'sY>(D*CQ  
Unique ID                                : 210936701486699514128764959739620145396 (0x9EB0EE5477533F5DD291C28985C8B8F4) #* S0d1  
Complete name                            : E:\迈克尔杰克逊\迈克尔·杰克逊:就是这样.This.Is.It.2009.BDRip.mkv =2)5_/9au  
Format                                   : Matroska \y: 0+s/  
Format version                           : Version 2 =6j  5,  
File size                                : 2.73 GiB <h U ZD;  
Duration                                 : 1h 51mn 7J,W#Ql)5  
Overall bit rate                         : 3 514 Kbps hn.9j"  
Encoded date                             : UTC 2012-08-11 00:43:17 \%E Zg  
Writing application                      : mkvmerge v3.3.0 ('Language') built on May  9 2010 02:39:50 (OYR, [*  
Writing library                          : libebml v0.7.7 + libmatroska v0.8.1 >;HbD p  
"(/|[7D)  
Video c$?qN&X_K  
ID                                       : 1 ;MCv  
Format                                   : AVC ).N}x^  
Format/Info                              : Advanced Video Codec 0[T!}F^%e  
Format profile                           : High@L4.1 phbdV8$L  
Format settings, CABAC                   : Yes hof$0Fg  
Format settings, ReFrames                : 9 frames A T+|}B!  
Codec ID                                 : V_MPEG4/ISO/AVC WaN0$66[:  
Duration                                 : 1h 51mn ^gH.5L0]gH  
Bit rate                                 : 2 873 Kbps vp4!p~C{  
Width                                    : 1 280 pixels K,|Gtaa~  
Height                                   : 720 pixels T {(6*^g<B  
Display aspect ratio                     : 16:9 6VQ*z8wLw  
Frame rate mode                          : Constant F]z xx  
Frame rate                               : 23.976 fps ]Vl * !,(i  
Color space                              : YUV nrwb6wj  
Chroma subsampling                       : 4:2:0 W5_t/_EWD  
Bit depth                                : 8 bits 5^GUuFt5m  
Scan type                                : Progressive U&wVe$  
Bits/(Pixel*Frame)                       : 0.130 5U3="L  
Stream size                              : 2.18 GiB (80%) &{x5 |$SD  
Writing library                          : x264 core 125 r2208 d9d2288  4rwfY<G  
Encoding settings                        : cabac=1 / ref=9 / deblock=1:-1:-1 / analyse=0x3:0x133 / me=tesa / subme=11 / psy=1 / psy_rd=1.00:0.15 / mixed_ref=1 / me_range=24 / chroma_me=1 / trellis=2 / 8x8dct=1 / cqm=0 / deadzone=21,11 / fast_pskip=0 / chroma_qp_offset=-3 / threads=36 / lookahead_threads=6 / sliced_threads=0 / nr=0 / decimate=1 / interlaced=0 / bluray_compat=0 / constrained_intra=0 / bframes=16 / b_pyramid=2 / b_adapt=2 / b_bias=0 / direct=3 / weightb=1 / open_gop=0 / weightp=2 / keyint=250 / keyint_min=23 / scenecut=40 / intra_refresh=0 / rc_lookahead=60 / rc=2pass / mbtree=1 / bitrate=2873 / ratetol=1.0 / qcomp=0.60 / qpmin=0 / qpmax=69 / qpstep=4 / cplxblur=20.0 / qblur=0.5 / ip_ratio=1.40 / aq=1:1.00 9j:?s;B  
Default                                  : Yes SG8|xoL  
Forced                                   : No AJ^9[j}  
G}BO!Z6  
Audio YmB z$  
ID                                       : 2 T"in   
Format                                   : AC-3 8$OE<c?#5n  
Format/Info                              : Audio Coding 3 yew9bn0a=  
Mode extension                           : CM (complete main) *1ku2e]z  
Format settings, Endianness              : Big ud'r ?QDM  
Codec ID                                 : A_AC3 iW-w?!>|m  
Duration                                 : 1h 51mn ysGK5kFz  
Bit rate mode                            : Constant %:N5k+}  
Bit rate                                 : 640 Kbps SD8Q_[rY  
Channel(s)                               : 6 channels HS="t3  
Channel positions                        : Front: L C R, Side: L R, LFE ;5PXPpJ  
Sampling rate                            : 48.0 KHz $MfHA~^  
Bit depth                                : 16 bits h.sH:]Z  
Compression mode                         : Lossy 5``/exG>  
Stream size                              : 510 MiB (18%) "sUL"i  
Default                                  : Yes [,8@oM#  
Forced                                   : No jC@$D*"J  
[Sg1\UTl  
owmV7E1  
360云盘 {" Van,w  
尽情欣赏! P`@d8 %*;  
此帖售价 1 金钱,已有 2 人购买 [记录] [购买]
购买后,将显示帖子中所有出售内容。
若发现会员采用欺骗的方法获取财富,请立刻举报,我们会对会员处以2-N倍的罚金,严重者封掉ID!
此段为出售的内容,购买后显示
r_@;eh  
aVNRhnM  
PUuxKW}  
J)x-Yhe  
$!G7u<`na  



离线q965488338

发帖
709
金钱
27814
威望
224
贡献值
96
交易币
1082
只看该作者 1楼 发表于: 2015-08-09
感谢!!!!
离线wannam

发帖
2547
金钱
69379
威望
363
贡献值
169
交易币
3190
只看该作者 2楼 发表于: 2015-08-10
谢谢分享!!!这个有没有字幕啊?我上次用电视搜索又看了一遍,还有三四个花絮,有一个花絮很棒,把smooth criminal那一段创意都解释清楚了。可惜没办法下载分享。不知道你们看过没有

楼主留言:

http://www.mjsunny.com/read.php?tid=60437&ds=1#tpc

离线bachelor

发帖
1708
金钱
12386
威望
202
贡献值
21
交易币
1370
只看该作者 3楼 发表于: 2015-08-10
辛苦了,谢谢了
离线wannam

发帖
2547
金钱
69379
威望
363
贡献值
169
交易币
3190
只看该作者 4楼 发表于: 2015-08-10
果然那个115也是挂了的,不过还好看过。。。下次想看了还可以再看一遍2333 %G0J]QY{(x  
完整版sc新mv没看过。。。
离线henry

发帖
814
金钱
3942
威望
86
贡献值
19
交易币
856
只看该作者 5楼 发表于: 2016-01-19
發現百度的7.7G沒有分檔下不了 唯有收下這個
快速回复
限100 字节
 
上一个 下一个