论坛风格切换切换到宽版
  • 1582阅读
  • 6回复

This is it就是这样BDrip [复制链接]

上一主题 下一主题
离线耶稣
 

发帖
7209
金钱
278165
威望
2544
贡献值
1685
交易币
11368
只看楼主 倒序阅读 楼主  发表于: 2015-08-09
j PnM>=  
?X?&~3iD%  
G;3~2^lB\  
-G,^1AL>  
General 80M;4nH^5  
Unique ID                                : 210936701486699514128764959739620145396 (0x9EB0EE5477533F5DD291C28985C8B8F4) t?nX=i*~]  
Complete name                            : E:\迈克尔杰克逊\迈克尔·杰克逊:就是这样.This.Is.It.2009.BDRip.mkv z'p:gv]  
Format                                   : Matroska c.\O/N   
Format version                           : Version 2 &/.hx(#d  
File size                                : 2.73 GiB /9y aW7w  
Duration                                 : 1h 51mn =rPrPb  
Overall bit rate                         : 3 514 Kbps EPW7+Ve  
Encoded date                             : UTC 2012-08-11 00:43:17 #$vRJ#S}U  
Writing application                      : mkvmerge v3.3.0 ('Language') built on May  9 2010 02:39:50 *p ? e.%nd  
Writing library                          : libebml v0.7.7 + libmatroska v0.8.1 0h$GI"dR  
U3vEdw<lV  
Video gM;}#>6  
ID                                       : 1 LE?u`i,e=+  
Format                                   : AVC &;H{cv`  
Format/Info                              : Advanced Video Codec Ni[4OR$-O  
Format profile                           : High@L4.1 b`cYpcs  
Format settings, CABAC                   : Yes Tc ZnmN  
Format settings, ReFrames                : 9 frames 1TqF6`;+  
Codec ID                                 : V_MPEG4/ISO/AVC (0*v*kYdL+  
Duration                                 : 1h 51mn .PVLWW  
Bit rate                                 : 2 873 Kbps {V2bU}5 [  
Width                                    : 1 280 pixels e&J3N  
Height                                   : 720 pixels .Vx|'-u  
Display aspect ratio                     : 16:9 &G{2s J5{  
Frame rate mode                          : Constant _om[VKJd  
Frame rate                               : 23.976 fps Qq0O0U  
Color space                              : YUV ??I:H  
Chroma subsampling                       : 4:2:0 t&f" jPu>  
Bit depth                                : 8 bits Vi,Y@+4  
Scan type                                : Progressive I7bi@t  
Bits/(Pixel*Frame)                       : 0.130 ^N{X "  
Stream size                              : 2.18 GiB (80%) S~|tfJpL  
Writing library                          : x264 core 125 r2208 d9d2288 u7u~  
Encoding settings                        : cabac=1 / ref=9 / deblock=1:-1:-1 / analyse=0x3:0x133 / me=tesa / subme=11 / psy=1 / psy_rd=1.00:0.15 / mixed_ref=1 / me_range=24 / chroma_me=1 / trellis=2 / 8x8dct=1 / cqm=0 / deadzone=21,11 / fast_pskip=0 / chroma_qp_offset=-3 / threads=36 / lookahead_threads=6 / sliced_threads=0 / nr=0 / decimate=1 / interlaced=0 / bluray_compat=0 / constrained_intra=0 / bframes=16 / b_pyramid=2 / b_adapt=2 / b_bias=0 / direct=3 / weightb=1 / open_gop=0 / weightp=2 / keyint=250 / keyint_min=23 / scenecut=40 / intra_refresh=0 / rc_lookahead=60 / rc=2pass / mbtree=1 / bitrate=2873 / ratetol=1.0 / qcomp=0.60 / qpmin=0 / qpmax=69 / qpstep=4 / cplxblur=20.0 / qblur=0.5 / ip_ratio=1.40 / aq=1:1.00 ]0YDb~UB  
Default                                  : Yes i]@c.Q iFN  
Forced                                   : No d1lH[r!Z  
Hq-v@@0 *  
Audio R{ 4u|A?9  
ID                                       : 2 tB !|p6  
Format                                   : AC-3 eoJFh  
Format/Info                              : Audio Coding 3 )Jmw|B  
Mode extension                           : CM (complete main) BHIM'24bp  
Format settings, Endianness              : Big R,XD6'Q  
Codec ID                                 : A_AC3 lej^gxj/2  
Duration                                 : 1h 51mn x[Hhj'  
Bit rate mode                            : Constant .!9Vt#  
Bit rate                                 : 640 Kbps eO~eu]r  
Channel(s)                               : 6 channels s-fKh`  
Channel positions                        : Front: L C R, Side: L R, LFE pFG]IM7o/u  
Sampling rate                            : 48.0 KHz $HP/c Ku  
Bit depth                                : 16 bits 1*TXDo_T  
Compression mode                         : Lossy Xq[:GUnt  
Stream size                              : 510 MiB (18%) tvG g@Xs\  
Default                                  : Yes 2(@LRl>:  
Forced                                   : No U]+b` m  
\65vfE~ O  
*C[4 (DmB  
360云盘 fU\k?'x_  
尽情欣赏! [a#?}((  
此帖售价 1 金钱,已有 3 人购买 [记录] [购买]
购买后,将显示帖子中所有出售内容。
若发现会员采用欺骗的方法获取财富,请立刻举报,我们会对会员处以2-N倍的罚金,严重者封掉ID!
此段为出售的内容,购买后显示
A52LH,  
= !I8vQ>  
Mm:a+T  
;W$w=j: O{  
qY*%p  



离线q965488338

发帖
709
金钱
28408
威望
224
贡献值
96
交易币
1082
只看该作者 1楼 发表于: 2015-08-09
感谢!!!!
离线wannam

发帖
2703
金钱
87079
威望
382
贡献值
189
交易币
3346
只看该作者 2楼 发表于: 2015-08-10
谢谢分享!!!这个有没有字幕啊?我上次用电视搜索又看了一遍,还有三四个花絮,有一个花絮很棒,把smooth criminal那一段创意都解释清楚了。可惜没办法下载分享。不知道你们看过没有

楼主留言:

http://www.mjsunny.com/read.php?tid=60437&ds=1#tpc

离线bachelor

发帖
1795
金钱
12732
威望
202
贡献值
21
交易币
1457
只看该作者 3楼 发表于: 2015-08-10
辛苦了,谢谢了
离线wannam

发帖
2703
金钱
87079
威望
382
贡献值
189
交易币
3346
只看该作者 4楼 发表于: 2015-08-10
果然那个115也是挂了的,不过还好看过。。。下次想看了还可以再看一遍2333 \Cx2$<8  
完整版sc新mv没看过。。。
离线henry

发帖
981
金钱
11
威望
81
贡献值
21
交易币
1031
只看该作者 5楼 发表于: 2016-01-19
發現百度的7.7G沒有分檔下不了 唯有收下這個
离线qq8508633

发帖
73
金钱
41
威望
7
贡献值
9
交易币
113
只看该作者 6楼 发表于: 2017-12-21
消息
快速回复
限100 字节
 
上一个 下一个