论坛风格切换切换到宽版
  • 1332阅读
  • 6回复

This is it就是这样BDrip [复制链接]

上一主题 下一主题
离线耶稣
 

发帖
7139
金钱
270076
威望
2488
贡献值
1652
交易币
11198
只看楼主 倒序阅读 楼主  发表于: 2015-08-09
|0}7/^  
CV\y60n  
4\*:Lc,-  
{#4a}:3  
General R9 #ar{  
Unique ID                                : 210936701486699514128764959739620145396 (0x9EB0EE5477533F5DD291C28985C8B8F4) K@g ~  
Complete name                            : E:\迈克尔杰克逊\迈克尔·杰克逊:就是这样.This.Is.It.2009.BDRip.mkv {Bk` Zlki  
Format                                   : Matroska UXdc'i g  
Format version                           : Version 2 -Fn/=  
File size                                : 2.73 GiB FK~wr;[  
Duration                                 : 1h 51mn %aK[Yvo6  
Overall bit rate                         : 3 514 Kbps R3lZ|rxv:  
Encoded date                             : UTC 2012-08-11 00:43:17 % H"  
Writing application                      : mkvmerge v3.3.0 ('Language') built on May  9 2010 02:39:50 % R25,  V  
Writing library                          : libebml v0.7.7 + libmatroska v0.8.1 CkNR{?S  
, otXjz  
Video .`+~mQ Wn  
ID                                       : 1 9v*y&V9/  
Format                                   : AVC _[-MyUs  
Format/Info                              : Advanced Video Codec rCA!b"C2  
Format profile                           : High@L4.1 Y_ne?/sZE  
Format settings, CABAC                   : Yes iZdl0;16[  
Format settings, ReFrames                : 9 frames &(, &mE  
Codec ID                                 : V_MPEG4/ISO/AVC ll$mRC  
Duration                                 : 1h 51mn |z_Dw$-xm  
Bit rate                                 : 2 873 Kbps dS 4/spNq  
Width                                    : 1 280 pixels v mkiw1  
Height                                   : 720 pixels R||$Rfe  
Display aspect ratio                     : 16:9 ^vG<Ma.yk  
Frame rate mode                          : Constant i.On{nB"k  
Frame rate                               : 23.976 fps Y9#dAI[Gce  
Color space                              : YUV R-ek O7z  
Chroma subsampling                       : 4:2:0 ]-#/wC[$l=  
Bit depth                                : 8 bits !WlL RkwO  
Scan type                                : Progressive ; t9_*)[  
Bits/(Pixel*Frame)                       : 0.130 Ei]Sks V>*  
Stream size                              : 2.18 GiB (80%) CL5^>. }  
Writing library                          : x264 core 125 r2208 d9d2288 snkMxc6c[  
Encoding settings                        : cabac=1 / ref=9 / deblock=1:-1:-1 / analyse=0x3:0x133 / me=tesa / subme=11 / psy=1 / psy_rd=1.00:0.15 / mixed_ref=1 / me_range=24 / chroma_me=1 / trellis=2 / 8x8dct=1 / cqm=0 / deadzone=21,11 / fast_pskip=0 / chroma_qp_offset=-3 / threads=36 / lookahead_threads=6 / sliced_threads=0 / nr=0 / decimate=1 / interlaced=0 / bluray_compat=0 / constrained_intra=0 / bframes=16 / b_pyramid=2 / b_adapt=2 / b_bias=0 / direct=3 / weightb=1 / open_gop=0 / weightp=2 / keyint=250 / keyint_min=23 / scenecut=40 / intra_refresh=0 / rc_lookahead=60 / rc=2pass / mbtree=1 / bitrate=2873 / ratetol=1.0 / qcomp=0.60 / qpmin=0 / qpmax=69 / qpstep=4 / cplxblur=20.0 / qblur=0.5 / ip_ratio=1.40 / aq=1:1.00 M9Sj@ww  
Default                                  : Yes c1_Zi  
Forced                                   : No INk|NEX  
NzhWGr_x'  
Audio +Gy9K  
ID                                       : 2 Fpn'0&~-fi  
Format                                   : AC-3 5\JV}  
Format/Info                              : Audio Coding 3 <H<Aba9\  
Mode extension                           : CM (complete main) _m a;b<I/<  
Format settings, Endianness              : Big 'f %oL/,  
Codec ID                                 : A_AC3 kwS[,Qy\  
Duration                                 : 1h 51mn e cvZwL  
Bit rate mode                            : Constant L5&,sJz  
Bit rate                                 : 640 Kbps s1%2({wP  
Channel(s)                               : 6 channels QX(t@VP  
Channel positions                        : Front: L C R, Side: L R, LFE % <%r  
Sampling rate                            : 48.0 KHz z7*mT}Q  
Bit depth                                : 16 bits F@X8a/;F-  
Compression mode                         : Lossy LFQP ysC  
Stream size                              : 510 MiB (18%) n yd'79~>G  
Default                                  : Yes Uw>g^[V;  
Forced                                   : No =ThacZHb8  
xV5eKV  
q^kOyA.  
360云盘 >c8EgSZJ  
尽情欣赏! \RyW#[(  
此帖售价 1 金钱,已有 3 人购买 [记录] [购买]
购买后,将显示帖子中所有出售内容。
若发现会员采用欺骗的方法获取财富,请立刻举报,我们会对会员处以2-N倍的罚金,严重者封掉ID!
此段为出售的内容,购买后显示
D7b] ;Nf\  
,Tc598D  
YXhxzH hPd  
IHtNaN )  
?Dk&5d^d  





离线q965488338

发帖
709
金钱
28369
威望
224
贡献值
96
交易币
1082
只看该作者 1楼 发表于: 2015-08-09
感谢!!!!
离线wannam

发帖
2702
金钱
87012
威望
382
贡献值
189
交易币
3345
只看该作者 2楼 发表于: 2015-08-10
谢谢分享!!!这个有没有字幕啊?我上次用电视搜索又看了一遍,还有三四个花絮,有一个花絮很棒,把smooth criminal那一段创意都解释清楚了。可惜没办法下载分享。不知道你们看过没有

楼主留言:

http://www.mjsunny.com/read.php?tid=60437&ds=1#tpc

离线bachelor

发帖
1788
金钱
12700
威望
202
贡献值
21
交易币
1450
只看该作者 3楼 发表于: 2015-08-10
辛苦了,谢谢了
离线wannam

发帖
2702
金钱
87012
威望
382
贡献值
189
交易币
3345
只看该作者 4楼 发表于: 2015-08-10
果然那个115也是挂了的,不过还好看过。。。下次想看了还可以再看一遍2333 o(@^V!}V  
完整版sc新mv没看过。。。
离线henry

发帖
939
金钱
1211
威望
86
贡献值
21
交易币
989
只看该作者 5楼 发表于: 2016-01-19
發現百度的7.7G沒有分檔下不了 唯有收下這個
离线qq8508633

发帖
73
金钱
41
威望
7
贡献值
9
交易币
113
只看该作者 6楼 发表于: 2017-12-21
消息
快速回复
限100 字节
 
上一个 下一个