论坛风格切换切换到宽版
  • 1065阅读
  • 5回复

This is it就是这样BDrip [复制链接]

上一主题 下一主题
在线耶稣
 

发帖
6640
金钱
211207
威望
2159
贡献值
1418
交易币
10170
只看楼主 倒序阅读 楼主  发表于: 2015-08-09
p*E_Po  
/H&:  
k ]C+/  
?-[.H^]s~  
General ]X/1u"  
Unique ID                                : 210936701486699514128764959739620145396 (0x9EB0EE5477533F5DD291C28985C8B8F4) ~t\Hb8o  
Complete name                            : E:\迈克尔杰克逊\迈克尔·杰克逊:就是这样.This.Is.It.2009.BDRip.mkv C=2"*>lTn  
Format                                   : Matroska +V*FFv  
Format version                           : Version 2 R4=n">>Q  
File size                                : 2.73 GiB UV8,SSDTV  
Duration                                 : 1h 51mn E ?(+v  
Overall bit rate                         : 3 514 Kbps +FiM?,G  
Encoded date                             : UTC 2012-08-11 00:43:17 mf]1mG})  
Writing application                      : mkvmerge v3.3.0 ('Language') built on May  9 2010 02:39:50 FaO1?.  
Writing library                          : libebml v0.7.7 + libmatroska v0.8.1 En%PIkxeR  
7kapa59  
Video `PK1zSr  
ID                                       : 1 .T0w2Dv/  
Format                                   : AVC _ S%3?Q  
Format/Info                              : Advanced Video Codec j?sq i9#  
Format profile                           : High@L4.1 r}ZL{uWMW  
Format settings, CABAC                   : Yes 3_k.`s_Z  
Format settings, ReFrames                : 9 frames 04{*iS95J  
Codec ID                                 : V_MPEG4/ISO/AVC \%Wu`SlDp9  
Duration                                 : 1h 51mn wxw3t@%mNm  
Bit rate                                 : 2 873 Kbps yhF{ cK =  
Width                                    : 1 280 pixels + ;u<tA  
Height                                   : 720 pixels 3q7Z?1'o  
Display aspect ratio                     : 16:9 Imi;EHW  
Frame rate mode                          : Constant c s0;:H*N*  
Frame rate                               : 23.976 fps D vG9(Eh  
Color space                              : YUV NCm>iEeY  
Chroma subsampling                       : 4:2:0 5\hJ&  
Bit depth                                : 8 bits wNzALfS  
Scan type                                : Progressive t^N 92$|  
Bits/(Pixel*Frame)                       : 0.130 sfLH[Q?  
Stream size                              : 2.18 GiB (80%) j+B+>r ^  
Writing library                          : x264 core 125 r2208 d9d2288 '3B\I#  
Encoding settings                        : cabac=1 / ref=9 / deblock=1:-1:-1 / analyse=0x3:0x133 / me=tesa / subme=11 / psy=1 / psy_rd=1.00:0.15 / mixed_ref=1 / me_range=24 / chroma_me=1 / trellis=2 / 8x8dct=1 / cqm=0 / deadzone=21,11 / fast_pskip=0 / chroma_qp_offset=-3 / threads=36 / lookahead_threads=6 / sliced_threads=0 / nr=0 / decimate=1 / interlaced=0 / bluray_compat=0 / constrained_intra=0 / bframes=16 / b_pyramid=2 / b_adapt=2 / b_bias=0 / direct=3 / weightb=1 / open_gop=0 / weightp=2 / keyint=250 / keyint_min=23 / scenecut=40 / intra_refresh=0 / rc_lookahead=60 / rc=2pass / mbtree=1 / bitrate=2873 / ratetol=1.0 / qcomp=0.60 / qpmin=0 / qpmax=69 / qpstep=4 / cplxblur=20.0 / qblur=0.5 / ip_ratio=1.40 / aq=1:1.00 2?=R_&0 Q  
Default                                  : Yes E: EXp7  
Forced                                   : No _,S L;*G4|  
.uu[f2.N+  
Audio eh`sfH  
ID                                       : 2 #;4afj:2g  
Format                                   : AC-3 '%JIc~LJ  
Format/Info                              : Audio Coding 3 &4g]#A>@  
Mode extension                           : CM (complete main) ifo^ M]v  
Format settings, Endianness              : Big <<xUh|zE  
Codec ID                                 : A_AC3 6fP"I_c  
Duration                                 : 1h 51mn @-uV6X8|  
Bit rate mode                            : Constant  y">_$  
Bit rate                                 : 640 Kbps Idy{(Q  
Channel(s)                               : 6 channels hJuR,NP  
Channel positions                        : Front: L C R, Side: L R, LFE E?L^ L3s  
Sampling rate                            : 48.0 KHz xJ/<G$LNJ0  
Bit depth                                : 16 bits Bz&6kRPv  
Compression mode                         : Lossy Bh'_@PHP  
Stream size                              : 510 MiB (18%) 15o<'4|=Lm  
Default                                  : Yes jH 4,-  
Forced                                   : No /-in:gX8  
'Y6x!i2  
V^v?;f?  
360云盘 td}%reH  
尽情欣赏! 12D>~#J  
此帖售价 1 金钱,已有 2 人购买 [记录] [购买]
购买后,将显示帖子中所有出售内容。
若发现会员采用欺骗的方法获取财富,请立刻举报,我们会对会员处以2-N倍的罚金,严重者封掉ID!
此段为出售的内容,购买后显示
~>j5z&:&  
|8DMj s()*  
&jbZL5  
[]\=(Uc;  
+dw=)A#/  


离线q965488338

发帖
709
金钱
27898
威望
224
贡献值
96
交易币
1082
只看该作者 1楼 发表于: 2015-08-09
感谢!!!!
离线wannam

发帖
2680
金钱
86753
威望
382
贡献值
189
交易币
3323
只看该作者 2楼 发表于: 2015-08-10
谢谢分享!!!这个有没有字幕啊?我上次用电视搜索又看了一遍,还有三四个花絮,有一个花絮很棒,把smooth criminal那一段创意都解释清楚了。可惜没办法下载分享。不知道你们看过没有

楼主留言:

http://www.mjsunny.com/read.php?tid=60437&ds=1#tpc

离线bachelor

发帖
1729
金钱
12471
威望
202
贡献值
21
交易币
1391
只看该作者 3楼 发表于: 2015-08-10
辛苦了,谢谢了
离线wannam

发帖
2680
金钱
86753
威望
382
贡献值
189
交易币
3323
只看该作者 4楼 发表于: 2015-08-10
果然那个115也是挂了的,不过还好看过。。。下次想看了还可以再看一遍2333 s--\<v  
完整版sc新mv没看过。。。
离线henry

发帖
838
金钱
2970
威望
84
贡献值
19
交易币
880
只看该作者 5楼 发表于: 2016-01-19
發現百度的7.7G沒有分檔下不了 唯有收下這個
快速回复
限100 字节
 
上一个 下一个