论坛风格切换切换到宽版
  • 1300阅读
  • 22回复

[亲传][Unofficial, Live] Michael Jackson Tokyo '87 [Live] - WAV整轨 ♬by幽灵 [复制链接]

上一主题 下一主题
在线mjghosts
 

发帖
8200
金钱
205628
威望
9039
贡献值
2645
交易币
4575
只看楼主 倒序阅读 楼主  发表于: 2015-08-15
— 本帖被 mjghosts 执行加亮操作(2015-08-15) —
注:独家整理,转载请注明出处!EAC无损整轨(压缩包内含CD图片) S/#) :,YS  
KUl Zk^a  
解压密码:www.mjsunny.com
Y/?DSo4G  
+oxqS&$L  
J.CZR[XF#  
y$;zTH_6j  
1*eWvYo1  
Exact Audio Copy V1.0 beta 6 from 9. April 2015 .[eSKtbc)  
~k:>Xo[|O  
EAC 抓取日志文件从15. 八月 2015, 1:45 ]>]H:NEq  
nG(|7x   
Michael Jackson / Tokyo `87 DQHGq_unP  
&b#NF1Q.  
使用驱动器  :MATSHITADVD-RAM UJ890AS   Adapter: 1  ID: 1 )7BNzj"~  
B\~3p4S  
读取模式      : 可靠Secure 8CHf.SXh  
使用精确流     : 是 E9NGdp&-Ah  
清空音频缓存    : 否 ZJ'H y5?  
使用 C2 指示器 : 是 J*kzJ{vwy*  
t@mw f3,  
读取偏移校正:               : 0 HGMH g  
读取 Lead-In 和 Lead-Out : 否 oEf^o*5(  
用静音填充抓取中丢失偏移的采样       : 是 E<[ bgL  
去除首尾静音块               : 否 nqW:P$  
在CRC 计算中使用了空样本       : 是 HBYpjxh  
已用接口                  : Win NT 及 2000 本地 Win32 接口 @_Oe`j^  
xL"o)]a=  
所用输出模式: : 内部 WAV 函数 ^@> Qiy  
样本格式    : 44.100 Hz; 16 Bit; 立体声 bME3" e{O  
"xI[4~'`:  
z#/*LP#oY  
已抓取 CD 的 TOC Uc2#so$9  
]^<~[QK_C  
     音轨 |    起始    |    长度    |  起始扇区  |  结束扇区   W aU_Z/{0  
    -------------------------------------------- r MlNp?{_  
      1 |  0:00.00 |  5:31.00 |      0 |  24824 P9vROzXK  
      2 |  5:31.00 |  3:24.72 |  24825 |  40196 4y]*"(sQ;  
      3 |  8:55.72 |  3:46.00 |  40197 |  57146 xmDwoLU  
      4 | 12:41.72 |  4:22.70 |  57147 |  76866 uvL|T48  
      5 | 17:04.67 |  4:02.70 |  76867 |  95086 gQ~4udla.  
      6 | 21:07.62 |  5:58.33 |  95087 | 121969 ]+AI:  
      7 | 27:06.20 |  4:29.52 | 121970 | 142196 (_* a4xGF  
      8 | 31:35.72 |  7:08.13 | 142197 | 174309 L>B0%TP^  
      9 | 38:44.10 |  6:43.45 | 174310 | 204579 sEoS|"  
     10 | 45:27.55 |  6:09.37 | 204580 | 232291 Y , P-@(  
     11 | 51:37.17 |  6:30.25 | 232292 | 261566 9DIGK\  
     12 | 58:07.42 |  6:12.60 | 261567 | 289526 eN/Jb;W  
     13 | 64:20.27 |  4:17.58 | 289527 | 308859 2W}RXqV<  
#oHHKl=M  
+jHL==W&  
范围状态及错误 9X!OQxmg  
`2GHB@S"k  
已选择范围 PE3l2kr  
{5:y,=Y  
     文件名 J:\12 Music*音乐\CDImage.wav {73Z$w1%  
.X TBy/(0  
     峰值电平 69.3 % F:1w%#6av  
     抓取速度 7.0 X Ak^g#^c*  
     范围质量 99.9 % FQ2 6(.  
     复制 CRC CE2011C2 ' cR||VX  
     复制成功 Qo+I98LX[  
F<39eDNpz  
没有错误发生 gqJSz}'  
9K,PT.c  
状态报告结尾
!1(*D*31  
7W[+e&  
gi {rqM  
此帖售价 20 金钱,已有 17 人购买 [记录] [购买]
购买后,将显示帖子中所有出售内容。
若发现会员采用欺骗的方法获取财富,请立刻举报,我们会对会员处以2-N倍的罚金,严重者封掉ID!
此段为出售的内容,购买后显示
OTe h8h  
/aV;EkyO,  
)WNw0cV}J>  
1条评分金钱+1
傻傻滴灰太狼 金钱 +1 什么情况? 2015-08-16
离线wannam

发帖
2607
金钱
80608
威望
363
贡献值
169
交易币
3250
只看该作者 1楼 发表于: 2015-08-15
谢谢分享^O^

发帖
2538
金钱
68595
威望
1892
贡献值
674
交易币
3812
只看该作者 2楼 发表于: 2015-08-16
什么情况?
离线q965488338

发帖
709
金钱
27830
威望
224
贡献值
96
交易币
1082
只看该作者 3楼 发表于: 2015-08-16
感谢!!!
离线mich008

发帖
761
金钱
5008
威望
24
贡献值
15
交易币
823
只看该作者 4楼 发表于: 2015-08-16
WAV格式的 赞一个
发帖
*
金钱
*
威望
*
贡献值
*
交易币
*
只看该作者 5楼 发表于: 2015-08-17
感谢分享,
离线131

发帖
1148
金钱
9238
威望
430
贡献值
239
交易币
779
只看该作者 6楼 发表于: 2015-08-19
谢谢了!!!!!

发帖
579
金钱
980
威望
16
贡献值
16
交易币
659
只看该作者 7楼 发表于: 2015-08-20
曲目的排列顺序好像不对啊
离线耶稣

发帖
6501
金钱
193378
威望
1885
贡献值
1224
交易币
9779
只看该作者 8楼 发表于: 2015-08-22
这个好!!!!



离线耶稣

发帖
6501
金钱
193378
威望
1885
贡献值
1224
交易币
9779
只看该作者 9楼 发表于: 2015-09-02
横滨 P:h;"  
j78WPG  
本帖提到的人: @mjghosts



快速回复
限100 字节
 
上一个 下一个