论坛风格切换切换到宽版
  • 1751阅读
  • 23回复

[亲传][Unofficial, Live] Michael Jackson Tokyo '87 [Live] - WAV整轨 ♬by幽灵 [复制链接]

上一主题 下一主题
离线mjghosts
 

发帖
8258
金钱
212473
威望
9166
贡献值
2715
交易币
4709
只看楼主 倒序阅读 楼主  发表于: 2015-08-15
— 本帖被 mjghosts 执行加亮操作(2015-08-15) —
注:独家整理,转载请注明出处!EAC无损整轨(压缩包内含CD图片) leI ]zDk=  
65*Hf3~~  
解压密码:www.mjsunny.com
[Q J  
Ei\>gXTH1-  
8#- Nx]VM  
5 6.JB BZZ  
 N&kUTSd  
Exact Audio Copy V1.0 beta 6 from 9. April 2015 -3azA7tzz  
H$ g*  
EAC 抓取日志文件从15. 八月 2015, 1:45 \%.oi@A  
&=$f\O1Ty  
Michael Jackson / Tokyo `87 NA'45}fQ  
^Jq('@  
使用驱动器  :MATSHITADVD-RAM UJ890AS   Adapter: 1  ID: 1 aX6}:"R2C  
=>tkc/aa  
读取模式      : 可靠Secure NCG;`B`i  
使用精确流     : 是 US"g>WLwJ  
清空音频缓存    : 否 II.: k.D`  
使用 C2 指示器 : 是 Fb8d= Zc  
 JJ}DYv  
读取偏移校正:               : 0 -)')PV_+  
读取 Lead-In 和 Lead-Out : 否 K[OOI~"C  
用静音填充抓取中丢失偏移的采样       : 是 R<6y7?]bZ  
去除首尾静音块               : 否 _0'X!1"  
在CRC 计算中使用了空样本       : 是 &,jUaC5I  
已用接口                  : Win NT 及 2000 本地 Win32 接口 @_-,Q5  
,&S0/j  
所用输出模式: : 内部 WAV 函数 ?z l<"u  
样本格式    : 44.100 Hz; 16 Bit; 立体声 ny1O- `!1  
Um4zI>  
l$9k:#\FD  
已抓取 CD 的 TOC 7:uz{xPK6  
{._'Q[  
     音轨 |    起始    |    长度    |  起始扇区  |  结束扇区   )/)u.$pi  
    -------------------------------------------- *.>@  
      1 |  0:00.00 |  5:31.00 |      0 |  24824 -A w]b} #v  
      2 |  5:31.00 |  3:24.72 |  24825 |  40196 ,>6a)2xh  
      3 |  8:55.72 |  3:46.00 |  40197 |  57146 TCyev[(  
      4 | 12:41.72 |  4:22.70 |  57147 |  76866 R)Mkt8v  
      5 | 17:04.67 |  4:02.70 |  76867 |  95086 #*CMf.OCh  
      6 | 21:07.62 |  5:58.33 |  95087 | 121969 7 SJ=2  
      7 | 27:06.20 |  4:29.52 | 121970 | 142196 l]zQSXip  
      8 | 31:35.72 |  7:08.13 | 142197 | 174309 p#P<V%  
      9 | 38:44.10 |  6:43.45 | 174310 | 204579 ?C fQwY#N  
     10 | 45:27.55 |  6:09.37 | 204580 | 232291 Jb*QlsGd  
     11 | 51:37.17 |  6:30.25 | 232292 | 261566 #OM'2@  
     12 | 58:07.42 |  6:12.60 | 261567 | 289526 &UnhYG{A  
     13 | 64:20.27 |  4:17.58 | 289527 | 308859 <v -YMk@  
yN`hW&K  
HEFgEYlO  
范围状态及错误 7P(o!%H  
9jf9 u0  
已选择范围 Hl%Og$q3  
3t+{~{Dj  
     文件名 J:\12 Music*音乐\CDImage.wav j~\FDcG*ed  
,_(=w.F   
     峰值电平 69.3 % p2l@6\m\  
     抓取速度 7.0 X 0$`pYW]  
     范围质量 99.9 % dL4VcUS.  
     复制 CRC CE2011C2 Z ;~%!  
     复制成功 xzY/$?  
zF FYl7]  
没有错误发生 @eBo7#Zr  
Em Ut/]  
状态报告结尾
qOpwl*?x+  
fl4@5AVY  
R$}Hv  
此帖售价 20 金钱,已有 18 人购买 [记录] [购买]
购买后,将显示帖子中所有出售内容。
若发现会员采用欺骗的方法获取财富,请立刻举报,我们会对会员处以2-N倍的罚金,严重者封掉ID!
此段为出售的内容,购买后显示
z<A8S=s6n  
En-=z`j G  
~a7@O^q 4  
1条评分金钱+1
傻傻滴灰太狼 金钱 +1 什么情况? 2015-08-16
离线wannam

发帖
2698
金钱
86901
威望
382
贡献值
189
交易币
3341
只看该作者 1楼 发表于: 2015-08-15
谢谢分享^O^

发帖
2588
金钱
69085
威望
1928
贡献值
701
交易币
3870
只看该作者 2楼 发表于: 2015-08-16
什么情况?
离线q965488338

发帖
709
金钱
28138
威望
224
贡献值
96
交易币
1082
只看该作者 3楼 发表于: 2015-08-16
感谢!!!
离线mich008

发帖
811
金钱
5257
威望
24
贡献值
15
交易币
873
只看该作者 4楼 发表于: 2015-08-16
WAV格式的 赞一个
发帖
*
金钱
*
威望
*
贡献值
*
交易币
*
只看该作者 5楼 发表于: 2015-08-17
感谢分享,
离线131

发帖
1184
金钱
8949
威望
430
贡献值
239
交易币
815
只看该作者 6楼 发表于: 2015-08-19
谢谢了!!!!!

发帖
605
金钱
909
威望
16
贡献值
16
交易币
685
只看该作者 7楼 发表于: 2015-08-20
曲目的排列顺序好像不对啊
离线耶稣

发帖
7064
金钱
246450
威望
2438
贡献值
1612
交易币
11003
只看该作者 8楼 发表于: 2015-08-22
这个好!!!!




离线耶稣

发帖
7064
金钱
246450
威望
2438
贡献值
1612
交易币
11003
只看该作者 9楼 发表于: 2015-09-02
横滨 UHyGW$B  
\/XU v(  
本帖提到的人: @mjghosts




快速回复
限100 字节
 
上一个 下一个