论坛风格切换切换到宽版
  • 2232阅读
  • 23回复

[亲传][Unofficial, Live] Michael Jackson Tokyo '87 [Live] - WAV整轨 ♬by幽灵 [复制链接]

上一主题 下一主题
离线mjghosts
 

发帖
8241
金钱
217206
威望
9172
贡献值
2721
交易币
4744
只看楼主 倒序阅读 楼主  发表于: 2015-08-15
— 本帖被 mjghosts 执行加亮操作(2015-08-15) —
注:独家整理,转载请注明出处!EAC无损整轨(压缩包内含CD图片) tI/mE[W  
'w>uFg1.  
解压密码:www.mjsunny.com
j1'xp`jgv  
xi Ov$.@q  
SX1Fyy6 w  
pIU#c&%<9  
:IP;Frc MP  
Exact Audio Copy V1.0 beta 6 from 9. April 2015 <3],C)Zwc  
D@sx`H(  
EAC 抓取日志文件从15. 八月 2015, 1:45 i 5 >J  
V1CSXY\2  
Michael Jackson / Tokyo `87 PJSDY1T  
k^'d@1z;C  
使用驱动器  :MATSHITADVD-RAM UJ890AS   Adapter: 1  ID: 1 =Nv= Q mO  
,XBV}y  
读取模式      : 可靠Secure yG4LQE  
使用精确流     : 是 `1[Sv"  
清空音频缓存    : 否 q_T?G e  
使用 C2 指示器 : 是 /F8\%l+  
jN'fm  
读取偏移校正:               : 0 %9 -#`  
读取 Lead-In 和 Lead-Out : 否 bh;b` 5  
用静音填充抓取中丢失偏移的采样       : 是 M;vlQ"Yl'  
去除首尾静音块               : 否 [nPzh Xs  
在CRC 计算中使用了空样本       : 是 (h@yA8>n  
已用接口                  : Win NT 及 2000 本地 Win32 接口 2Fp]S a  
LG@c)H74  
所用输出模式: : 内部 WAV 函数 ao" ;5 m  
样本格式    : 44.100 Hz; 16 Bit; 立体声 s3E~X  
Z"%O&O  
[?f.0q  
已抓取 CD 的 TOC DGfQo5#  
c'Tu,-  
     音轨 |    起始    |    长度    |  起始扇区  |  结束扇区   s$\8)V52  
    -------------------------------------------- yjFQk,A  
      1 |  0:00.00 |  5:31.00 |      0 |  24824 nh&<fnh  
      2 |  5:31.00 |  3:24.72 |  24825 |  40196 aE cg_es  
      3 |  8:55.72 |  3:46.00 |  40197 |  57146  t-x"(  
      4 | 12:41.72 |  4:22.70 |  57147 |  76866 GV@E<dg$R  
      5 | 17:04.67 |  4:02.70 |  76867 |  95086 :E&T}RN  
      6 | 21:07.62 |  5:58.33 |  95087 | 121969 /\$|D&e  
      7 | 27:06.20 |  4:29.52 | 121970 | 142196 Yg,lJ!q  
      8 | 31:35.72 |  7:08.13 | 142197 | 174309 mS&\m#s<  
      9 | 38:44.10 |  6:43.45 | 174310 | 204579 W (c\$2`  
     10 | 45:27.55 |  6:09.37 | 204580 | 232291 8Y~T$Yj^  
     11 | 51:37.17 |  6:30.25 | 232292 | 261566 SVWSO  
     12 | 58:07.42 |  6:12.60 | 261567 | 289526 uWtS83i  
     13 | 64:20.27 |  4:17.58 | 289527 | 308859 E/P53CD  
EjE`S_i=  
Wc;D{p?Lb  
范围状态及错误 -vfu0XI~  
 !Ocg  
已选择范围 )^#Zg8L  
QO1Gq9  
     文件名 J:\12 Music*音乐\CDImage.wav |RXC;zt9s  
BW=6gZ_  
     峰值电平 69.3 % 7gmMqz"z(>  
     抓取速度 7.0 X C)}LV  
     范围质量 99.9 % [;8fL  
     复制 CRC CE2011C2 4tNgK[6M  
     复制成功 R! xc $`N  
ED&KJnquWJ  
没有错误发生 >m{-&1Tx  
Kx!|4ya,  
状态报告结尾
8#-}3~l[  
(I g *iJ%2  
e{S`iO  
此帖售价 20 金钱,已有 18 人购买 [记录] [购买]
购买后,将显示帖子中所有出售内容。
若发现会员采用欺骗的方法获取财富,请立刻举报,我们会对会员处以2-N倍的罚金,严重者封掉ID!
此段为出售的内容,购买后显示
G&Sg .<hn  
r${a S@F  
u?/]"4  
1条评分金钱+1
傻傻滴灰太狼 金钱 +1 什么情况? 2015-08-16
离线wannam

发帖
2702
金钱
87010
威望
382
贡献值
189
交易币
3345
只看该作者 1楼 发表于: 2015-08-15
谢谢分享^O^

发帖
2603
金钱
69321
威望
1931
贡献值
703
交易币
3893
只看该作者 2楼 发表于: 2015-08-16
什么情况?
离线q965488338

发帖
709
金钱
28369
威望
224
贡献值
96
交易币
1082
只看该作者 3楼 发表于: 2015-08-16
感谢!!!
离线mich008

发帖
828
金钱
5727
威望
24
贡献值
15
交易币
890
只看该作者 4楼 发表于: 2015-08-16
WAV格式的 赞一个
发帖
*
金钱
*
威望
*
贡献值
*
交易币
*
只看该作者 5楼 发表于: 2015-08-17
感谢分享,
离线131

发帖
1197
金钱
9382
威望
430
贡献值
239
交易币
828
只看该作者 6楼 发表于: 2015-08-19
谢谢了!!!!!

发帖
605
金钱
909
威望
16
贡献值
16
交易币
685
只看该作者 7楼 发表于: 2015-08-20
曲目的排列顺序好像不对啊
离线耶稣

发帖
7134
金钱
268465
威望
2485
贡献值
1649
交易币
11181
只看该作者 8楼 发表于: 2015-08-22
这个好!!!!





离线耶稣

发帖
7134
金钱
268465
威望
2485
贡献值
1649
交易币
11181
只看该作者 9楼 发表于: 2015-09-02
横滨 8EI9&L>  
\yl|*h3  
本帖提到的人: @mjghosts





快速回复
限100 字节
 
上一个 下一个