论坛风格切换切换到宽版
  • 1191阅读
  • 21回复

[亲传][Unofficial, Live] Michael Jackson Tokyo '87 [Live] - WAV整轨 ♬by幽灵 [复制链接]

上一主题 下一主题
离线mjghosts
 

发帖
8191
金钱
204337
威望
9035
贡献值
2641
交易币
4550
只看楼主 倒序阅读 楼主  发表于: 2015-08-15
— 本帖被 mjghosts 执行加亮操作(2015-08-15) —
注:独家整理,转载请注明出处!EAC无损整轨(压缩包内含CD图片) iuEdm:pW  
AyDK-8a  
解压密码:www.mjsunny.com
\=JKeL|6[S  
 hT[O5  
pFh2@O  
smggr{-  
$si2H8  
Exact Audio Copy V1.0 beta 6 from 9. April 2015 5ym =2U  
6*E 7}  
EAC 抓取日志文件从15. 八月 2015, 1:45 R0>L[1o  
Y`wi=(  
Michael Jackson / Tokyo `87 E+gUzz5  
P06K0Fxf  
使用驱动器  :MATSHITADVD-RAM UJ890AS   Adapter: 1  ID: 1 0(n/hJ  
=B\ ?(  
读取模式      : 可靠Secure ]Q+Tm2{  
使用精确流     : 是 `WVQp"m  
清空音频缓存    : 否 $d'Gh2IGA  
使用 C2 指示器 : 是 :\ S3[(FV  
E?V:dr  
读取偏移校正:               : 0 B*{CcQ<5  
读取 Lead-In 和 Lead-Out : 否 ^J327  
用静音填充抓取中丢失偏移的采样       : 是 |cH\w"DcXw  
去除首尾静音块               : 否 _$\T;m>'A  
在CRC 计算中使用了空样本       : 是 MxYCMe4S[  
已用接口                  : Win NT 及 2000 本地 Win32 接口 'uh6?2)wG  
d(tq;2-  
所用输出模式: : 内部 WAV 函数 bAgKOfT  
样本格式    : 44.100 Hz; 16 Bit; 立体声 }Vt5].TA  
! !9V0[  
LWY`J0/  
已抓取 CD 的 TOC K jLj  
h5~tsd}OU  
     音轨 |    起始    |    长度    |  起始扇区  |  结束扇区   jYU#] |k~  
    -------------------------------------------- TO QvZ?_  
      1 |  0:00.00 |  5:31.00 |      0 |  24824 " `lRX  
      2 |  5:31.00 |  3:24.72 |  24825 |  40196 ,+2ytN*  
      3 |  8:55.72 |  3:46.00 |  40197 |  57146 WHU& 9N  
      4 | 12:41.72 |  4:22.70 |  57147 |  76866  @521 zi  
      5 | 17:04.67 |  4:02.70 |  76867 |  95086 il*bsnwpZv  
      6 | 21:07.62 |  5:58.33 |  95087 | 121969 c| E  
      7 | 27:06.20 |  4:29.52 | 121970 | 142196 vsc&$r3!5{  
      8 | 31:35.72 |  7:08.13 | 142197 | 174309 wsM5T B  
      9 | 38:44.10 |  6:43.45 | 174310 | 204579 *'Ch(c:rtH  
     10 | 45:27.55 |  6:09.37 | 204580 | 232291 C6GYhG]  
     11 | 51:37.17 |  6:30.25 | 232292 | 261566 hd\iW7  
     12 | 58:07.42 |  6:12.60 | 261567 | 289526 {W@Y4Qqq  
     13 | 64:20.27 |  4:17.58 | 289527 | 308859 't wMvm  
3dXyKi  
4rv3D@E  
范围状态及错误 GMFp,Df  
Rf7py)  
已选择范围 Ry,jPw5<  
MSw/_{  
     文件名 J:\12 Music*音乐\CDImage.wav ~W!sxM5(*  
ky,+xq  
     峰值电平 69.3 % R:=i/P/  
     抓取速度 7.0 X ]e R1 +Nl  
     范围质量 99.9 % %T!UEl`v  
     复制 CRC CE2011C2 .I[uXd  
     复制成功 FD[* mCGZ  
-]HO8}-Rjs  
没有错误发生 ?mnwD]u  
&`{%0r[UD#  
状态报告结尾
LDO@$jg  
(Zx;GS  
Bx2E9/S3  
此帖售价 20 金钱,已有 16 人购买 [记录] [购买]
购买后,将显示帖子中所有出售内容。
若发现会员采用欺骗的方法获取财富,请立刻举报,我们会对会员处以2-N倍的罚金,严重者封掉ID!
此段为出售的内容,购买后显示
zS]Yd9;X1  
pz~AsF  
$}N'm  
1条评分金钱+1
傻傻滴灰太狼 金钱 +1 什么情况? 2015-08-16
离线wannam

发帖
2547
金钱
69379
威望
363
贡献值
169
交易币
3190
只看该作者 1楼 发表于: 2015-08-15
谢谢分享^O^

发帖
2518
金钱
66709
威望
1890
贡献值
674
交易币
3792
只看该作者 2楼 发表于: 2015-08-16
什么情况?
离线q965488338

发帖
709
金钱
27814
威望
224
贡献值
96
交易币
1082
只看该作者 3楼 发表于: 2015-08-16
感谢!!!
离线mich008

发帖
750
金钱
4942
威望
24
贡献值
15
交易币
812
只看该作者 4楼 发表于: 2015-08-16
WAV格式的 赞一个
发帖
*
金钱
*
威望
*
贡献值
*
交易币
*
只看该作者 5楼 发表于: 2015-08-17
感谢分享,
离线131

发帖
1142
金钱
9206
威望
430
贡献值
239
交易币
773
只看该作者 6楼 发表于: 2015-08-19
谢谢了!!!!!

发帖
579
金钱
980
威望
16
贡献值
16
交易币
659
只看该作者 7楼 发表于: 2015-08-20
曲目的排列顺序好像不对啊
离线耶稣

发帖
6459
金钱
181018
威望
1800
贡献值
1197
交易币
9629
只看该作者 8楼 发表于: 2015-08-22
这个好!!!!



离线耶稣

发帖
6459
金钱
181018
威望
1800
贡献值
1197
交易币
9629
只看该作者 9楼 发表于: 2015-09-02
横滨 tx0`#x  
I !\;NVhv  
本帖提到的人: @mjghosts



快速回复
限100 字节
 
上一个 下一个