论坛风格切换切换到宽版
  • 1394阅读
  • 22回复

[亲传][Unofficial, Live] Michael Jackson Tokyo '87 [Live] - WAV整轨 ♬by幽灵 [复制链接]

上一主题 下一主题
在线mjghosts
 

发帖
8233
金钱
208943
威望
9161
贡献值
2712
交易币
4672
只看楼主 倒序阅读 楼主  发表于: 2015-08-15
— 本帖被 mjghosts 执行加亮操作(2015-08-15) —
注:独家整理,转载请注明出处!EAC无损整轨(压缩包内含CD图片) ?t"bF:!  
:qxd s>Xm  
解压密码:www.mjsunny.com
aj6{  
%q5iy0~P  
BGZvgMxLJ  
<#5`%sa '  
dD}!E  
Exact Audio Copy V1.0 beta 6 from 9. April 2015 j,CMcP7A -  
?$\y0lHw/7  
EAC 抓取日志文件从15. 八月 2015, 1:45 Zjh9jvsW  
iWNTI  
Michael Jackson / Tokyo `87 BA+:}81&<q  
k<3 _!?3  
使用驱动器  :MATSHITADVD-RAM UJ890AS   Adapter: 1  ID: 1 X@7K#@5  
"UY.; P  
读取模式      : 可靠Secure Y; eJo  
使用精确流     : 是 !OJSQB,  
清空音频缓存    : 否 /fM6%V=Y  
使用 C2 指示器 : 是 IK6XJsz$J  
$u4esg  
读取偏移校正:               : 0 32IN;X|  
读取 Lead-In 和 Lead-Out : 否 !P!|U/|c  
用静音填充抓取中丢失偏移的采样       : 是 z~oGd,  
去除首尾静音块               : 否 *0R=(Gy  
在CRC 计算中使用了空样本       : 是 _pNUI {De  
已用接口                  : Win NT 及 2000 本地 Win32 接口 jq["z<V )x  
 aG\m 3r  
所用输出模式: : 内部 WAV 函数 -lMC{~h\(S  
样本格式    : 44.100 Hz; 16 Bit; 立体声 #OWwg`AWv  
=10t3nA1$  
~:)$~g7>b  
已抓取 CD 的 TOC Ca BTqo  
(I[o;0w  
     音轨 |    起始    |    长度    |  起始扇区  |  结束扇区   i]$d3J3  
    -------------------------------------------- >; W)tc,  
      1 |  0:00.00 |  5:31.00 |      0 |  24824 Z@ws,f^e  
      2 |  5:31.00 |  3:24.72 |  24825 |  40196 2s{yg%U(  
      3 |  8:55.72 |  3:46.00 |  40197 |  57146 ^5T{x>Lj  
      4 | 12:41.72 |  4:22.70 |  57147 |  76866 <aHK{ *'3  
      5 | 17:04.67 |  4:02.70 |  76867 |  95086 W;-Qze\D  
      6 | 21:07.62 |  5:58.33 |  95087 | 121969 _?r+SRFn  
      7 | 27:06.20 |  4:29.52 | 121970 | 142196 Zka;}UL&Q  
      8 | 31:35.72 |  7:08.13 | 142197 | 174309 2)8lJXM$L  
      9 | 38:44.10 |  6:43.45 | 174310 | 204579 'Aqmf+Mm  
     10 | 45:27.55 |  6:09.37 | 204580 | 232291 !.J~`Y'd_  
     11 | 51:37.17 |  6:30.25 | 232292 | 261566 *m"mt  
     12 | 58:07.42 |  6:12.60 | 261567 | 289526 foFn`?LF  
     13 | 64:20.27 |  4:17.58 | 289527 | 308859 7RLh#D|  
5[R}MhLZ  
"L)pH@)  
范围状态及错误 b?^n'0  
8vRiVJ8QS:  
已选择范围 L~$RF {$  
; M(}fV]  
     文件名 J:\12 Music*音乐\CDImage.wav 'YG`/@n;  
UE4#j \  
     峰值电平 69.3 % O>GP>U?]  
     抓取速度 7.0 X ,2`d3u^CW  
     范围质量 99.9 % +XE21hb   
     复制 CRC CE2011C2 s]iOC6v  
     复制成功 C\^K6,m5  
@nP}q!y  
没有错误发生 &EPEpN R  
xgz87d/<:  
状态报告结尾
~@D%qbN  
<k](s  
shT[|@"C  
此帖售价 20 金钱,已有 17 人购买 [记录] [购买]
购买后,将显示帖子中所有出售内容。
若发现会员采用欺骗的方法获取财富,请立刻举报,我们会对会员处以2-N倍的罚金,严重者封掉ID!
此段为出售的内容,购买后显示
lM,zTNu-z  
]$*{<  
49oW 'j  
1条评分金钱+1
傻傻滴灰太狼 金钱 +1 什么情况? 2015-08-16
离线wannam

发帖
2680
金钱
86709
威望
382
贡献值
189
交易币
3323
只看该作者 1楼 发表于: 2015-08-15
谢谢分享^O^

发帖
2553
金钱
68649
威望
1914
贡献值
694
交易币
3827
只看该作者 2楼 发表于: 2015-08-16
什么情况?
离线q965488338

发帖
709
金钱
27898
威望
224
贡献值
96
交易币
1082
只看该作者 3楼 发表于: 2015-08-16
感谢!!!
离线mich008

发帖
785
金钱
4926
威望
24
贡献值
15
交易币
847
只看该作者 4楼 发表于: 2015-08-16
WAV格式的 赞一个
发帖
*
金钱
*
威望
*
贡献值
*
交易币
*
只看该作者 5楼 发表于: 2015-08-17
感谢分享,
离线131

发帖
1156
金钱
9013
威望
430
贡献值
239
交易币
787
只看该作者 6楼 发表于: 2015-08-19
谢谢了!!!!!

发帖
580
金钱
985
威望
16
贡献值
16
交易币
660
只看该作者 7楼 发表于: 2015-08-20
曲目的排列顺序好像不对啊
在线耶稣

发帖
6593
金钱
202455
威望
2125
贡献值
1384
交易币
10019
只看该作者 8楼 发表于: 2015-08-22
这个好!!!!


在线耶稣

发帖
6593
金钱
202455
威望
2125
贡献值
1384
交易币
10019
只看该作者 9楼 发表于: 2015-09-02
横滨  5Xy^I^J  
t?#vb}_  
本帖提到的人: @mjghosts


快速回复
限100 字节
 
上一个 下一个