论坛风格切换切换到宽版
  • 1566阅读
  • 22回复

[亲传][Unofficial, Live] Michael Jackson Tokyo '87 [Live] - WAV整轨 ♬by幽灵 [复制链接]

上一主题 下一主题
离线mjghosts
 

发帖
8247
金钱
210534
威望
9164
贡献值
2715
交易币
4698
只看楼主 倒序阅读 楼主  发表于: 2015-08-15
— 本帖被 mjghosts 执行加亮操作(2015-08-15) —
注:独家整理,转载请注明出处!EAC无损整轨(压缩包内含CD图片) - 5k4vx N}  
eY(usK  
解压密码:www.mjsunny.com
KqSa"76R  
hL3,/^;E,  
GVfu_z?  
( Lu.^  
 vV[dJ%  
Exact Audio Copy V1.0 beta 6 from 9. April 2015 PPqTmx5S  
_$'Mx'IC=  
EAC 抓取日志文件从15. 八月 2015, 1:45 E&>,B81  
Uo @NK  
Michael Jackson / Tokyo `87 bg,}J/  
E~>6*_?  
使用驱动器  :MATSHITADVD-RAM UJ890AS   Adapter: 1  ID: 1 ?fmt@@]T?  
>-w=7,?'?z  
读取模式      : 可靠Secure 5ZA%,pH>Jq  
使用精确流     : 是 ?*'$(}r3  
清空音频缓存    : 否 iw fp'  
使用 C2 指示器 : 是 16QbB;  
b|dCEmFt  
读取偏移校正:               : 0 -(w~LT$ "  
读取 Lead-In 和 Lead-Out : 否 sJb)HQ,7x  
用静音填充抓取中丢失偏移的采样       : 是 % kx ^/DH  
去除首尾静音块               : 否 `OP>(bU0  
在CRC 计算中使用了空样本       : 是 oM<!I0"gC+  
已用接口                  : Win NT 及 2000 本地 Win32 接口 EF=dXm/\  
=#(0)p $EC  
所用输出模式: : 内部 WAV 函数 |= cCv_y  
样本格式    : 44.100 Hz; 16 Bit; 立体声 5#0e={X  
l RDxIuTK  
:p<kQ4   
已抓取 CD 的 TOC gF[6c`-s  
)nwZ/&@  
     音轨 |    起始    |    长度    |  起始扇区  |  结束扇区   \sK:W|yy  
    -------------------------------------------- |2)Sd[ q  
      1 |  0:00.00 |  5:31.00 |      0 |  24824 99e*]')A%  
      2 |  5:31.00 |  3:24.72 |  24825 |  40196 /_V'DJV  
      3 |  8:55.72 |  3:46.00 |  40197 |  57146 &<au/^F  
      4 | 12:41.72 |  4:22.70 |  57147 |  76866 .H8mRvd?  
      5 | 17:04.67 |  4:02.70 |  76867 |  95086 SIq1X'7  
      6 | 21:07.62 |  5:58.33 |  95087 | 121969 RqXi1<6j#  
      7 | 27:06.20 |  4:29.52 | 121970 | 142196 0[/vQ+O]2  
      8 | 31:35.72 |  7:08.13 | 142197 | 174309 rvic%bsk  
      9 | 38:44.10 |  6:43.45 | 174310 | 204579 $A`xhh[  
     10 | 45:27.55 |  6:09.37 | 204580 | 232291 R4b-M0H  
     11 | 51:37.17 |  6:30.25 | 232292 | 261566 (/K5!qh  
     12 | 58:07.42 |  6:12.60 | 261567 | 289526 ExCM<$,  
     13 | 64:20.27 |  4:17.58 | 289527 | 308859 j0FW8!!-g  
R \5Vq$Q  
B3mS]  
范围状态及错误 5 y   
/r^[a,Q#x  
已选择范围 UTCzHh1  
rk|@B{CA;  
     文件名 J:\12 Music*音乐\CDImage.wav m\vmY  
#NNewzC<*  
     峰值电平 69.3 % rzeLx Wt  
     抓取速度 7.0 X  8=;k"  
     范围质量 99.9 % PJLR<9  
     复制 CRC CE2011C2 qpp/8M  
     复制成功 Bv9kSu9'~  
^,8R,S\} $  
没有错误发生 oxz{ ejd{  
uQqWew8l+  
状态报告结尾
\3XqHf3|o  
#{J,kcxS  
kv{}C)kt3  
此帖售价 20 金钱,已有 17 人购买 [记录] [购买]
购买后,将显示帖子中所有出售内容。
若发现会员采用欺骗的方法获取财富,请立刻举报,我们会对会员处以2-N倍的罚金,严重者封掉ID!
此段为出售的内容,购买后显示
Wp0 Dq(  
;#/@+4@a&  
e [h8}F  
1条评分金钱+1
傻傻滴灰太狼 金钱 +1 什么情况? 2015-08-16
离线wannam

发帖
2697
金钱
86877
威望
382
贡献值
189
交易币
3340
只看该作者 1楼 发表于: 2015-08-15
谢谢分享^O^

发帖
2567
金钱
68574
威望
1914
贡献值
694
交易币
3841
只看该作者 2楼 发表于: 2015-08-16
什么情况?
离线q965488338

发帖
709
金钱
27918
威望
224
贡献值
96
交易币
1082
只看该作者 3楼 发表于: 2015-08-16
感谢!!!
离线mich008

发帖
796
金钱
5097
威望
24
贡献值
15
交易币
858
只看该作者 4楼 发表于: 2015-08-16
WAV格式的 赞一个
发帖
*
金钱
*
威望
*
贡献值
*
交易币
*
只看该作者 5楼 发表于: 2015-08-17
感谢分享,
离线131

发帖
1166
金钱
9029
威望
430
贡献值
239
交易币
797
只看该作者 6楼 发表于: 2015-08-19
谢谢了!!!!!

发帖
592
金钱
947
威望
16
贡献值
16
交易币
672
只看该作者 7楼 发表于: 2015-08-20
曲目的排列顺序好像不对啊
离线耶稣

发帖
6834
金钱
227057
威望
2274
贡献值
1485
交易币
10529
只看该作者 8楼 发表于: 2015-08-22
这个好!!!!


离线耶稣

发帖
6834
金钱
227057
威望
2274
贡献值
1485
交易币
10529
只看该作者 9楼 发表于: 2015-09-02
横滨 AM>:At Y  
- g0>>{M'  
本帖提到的人: @mjghosts


快速回复
限100 字节
 
上一个 下一个