论坛风格切换切换到宽版
  • 2091阅读
  • 23回复

[亲传][Unofficial, Live] Michael Jackson Tokyo '87 [Live] - WAV整轨 ♬by幽灵 [复制链接]

上一主题 下一主题
离线mjghosts
 

发帖
8240
金钱
216674
威望
9172
贡献值
2721
交易币
4743
只看楼主 倒序阅读 楼主  发表于: 2015-08-15
— 本帖被 mjghosts 执行加亮操作(2015-08-15) —
注:独家整理,转载请注明出处!EAC无损整轨(压缩包内含CD图片) b j'Xg  
5O\*h;U 6  
解压密码:www.mjsunny.com
d+'p@!W_  
L31HG H2l  
B&@?*^.  
+t?3T-@Ks  
PbmDNKEh{  
Exact Audio Copy V1.0 beta 6 from 9. April 2015 {j7uv"|X7  
/C6k+0ApMT  
EAC 抓取日志文件从15. 八月 2015, 1:45 *3?'4"B{8  
GgB,tam{p  
Michael Jackson / Tokyo `87 7D;cw\ |  
aL&n[   
使用驱动器  :MATSHITADVD-RAM UJ890AS   Adapter: 1  ID: 1 o/+13C  
|%' nVxc4r  
读取模式      : 可靠Secure egq67S  
使用精确流     : 是 CW,Wx:Y  
清空音频缓存    : 否 K5xX)oV  
使用 C2 指示器 : 是 E(Z8  
3GUZ;jdn  
读取偏移校正:               : 0 "-+\R}q$  
读取 Lead-In 和 Lead-Out : 否 2fWTY0  
用静音填充抓取中丢失偏移的采样       : 是 # ?/<  
去除首尾静音块               : 否 YJJB.hR+  
在CRC 计算中使用了空样本       : 是 3_MS.iM  
已用接口                  : Win NT 及 2000 本地 Win32 接口 cT!\{ ~  
Vnr[}<L  
所用输出模式: : 内部 WAV 函数 NbU[l  
样本格式    : 44.100 Hz; 16 Bit; 立体声 WZ*ws[dVI  
{;:/-0s  
HLV2~5Txc  
已抓取 CD 的 TOC rU2%dkTa  
]y1OFKYv  
     音轨 |    起始    |    长度    |  起始扇区  |  结束扇区   ,Qe?8En[  
    -------------------------------------------- %\H|B0  
      1 |  0:00.00 |  5:31.00 |      0 |  24824 o'f?YZ$.  
      2 |  5:31.00 |  3:24.72 |  24825 |  40196 =p=rg$?  
      3 |  8:55.72 |  3:46.00 |  40197 |  57146 .2v_H5<  
      4 | 12:41.72 |  4:22.70 |  57147 |  76866 Nz],IG.  
      5 | 17:04.67 |  4:02.70 |  76867 |  95086 TTt#a6eJ  
      6 | 21:07.62 |  5:58.33 |  95087 | 121969 j+["JXy  
      7 | 27:06.20 |  4:29.52 | 121970 | 142196 )Ccq4i  
      8 | 31:35.72 |  7:08.13 | 142197 | 174309  \V*xWS  
      9 | 38:44.10 |  6:43.45 | 174310 | 204579  lS'-xEv?  
     10 | 45:27.55 |  6:09.37 | 204580 | 232291 jg\Z;_!W  
     11 | 51:37.17 |  6:30.25 | 232292 | 261566 pt?q#EfFJ  
     12 | 58:07.42 |  6:12.60 | 261567 | 289526 vWf; 'j  
     13 | 64:20.27 |  4:17.58 | 289527 | 308859 3 YFU*f,  
!Y\D?rKZ  
HO}Hh[{V9  
范围状态及错误 \,7}mdQSv  
Y5FbU  
已选择范围 OI0;BBZ  
JZD[NZ<  
     文件名 J:\12 Music*音乐\CDImage.wav -!N&OZ+R   
NX/;+{  
     峰值电平 69.3 % sh`s /JRf  
     抓取速度 7.0 X %y|)=cm[  
     范围质量 99.9 % D[mSmpjE6&  
     复制 CRC CE2011C2 fe_yqIdk  
     复制成功 E gal4  
k-HCeZ  
没有错误发生 DiEluA&w9  
Nv/v$Z{k  
状态报告结尾
P~G1EK|4  
rSHpS`\ou  
)Jk0v_ X  
此帖售价 20 金钱,已有 18 人购买 [记录] [购买]
购买后,将显示帖子中所有出售内容。
若发现会员采用欺骗的方法获取财富,请立刻举报,我们会对会员处以2-N倍的罚金,严重者封掉ID!
此段为出售的内容,购买后显示
'{J&M|<A  
9$Xu,y  
't_[dSO  
1条评分金钱+1
傻傻滴灰太狼 金钱 +1 什么情况? 2015-08-16
离线wannam

发帖
2701
金钱
86997
威望
382
贡献值
189
交易币
3344
只看该作者 1楼 发表于: 2015-08-15
谢谢分享^O^

发帖
2600
金钱
69337
威望
1931
贡献值
703
交易币
3890
只看该作者 2楼 发表于: 2015-08-16
什么情况?
离线q965488338

发帖
709
金钱
28311
威望
224
贡献值
96
交易币
1082
只看该作者 3楼 发表于: 2015-08-16
感谢!!!
离线mich008

发帖
824
金钱
5509
威望
24
贡献值
15
交易币
886
只看该作者 4楼 发表于: 2015-08-16
WAV格式的 赞一个
发帖
*
金钱
*
威望
*
贡献值
*
交易币
*
只看该作者 5楼 发表于: 2015-08-17
感谢分享,
离线131

发帖
1195
金钱
9341
威望
430
贡献值
239
交易币
826
只看该作者 6楼 发表于: 2015-08-19
谢谢了!!!!!

发帖
605
金钱
909
威望
16
贡献值
16
交易币
685
只看该作者 7楼 发表于: 2015-08-20
曲目的排列顺序好像不对啊
离线耶稣

发帖
7121
金钱
265688
威望
2471
贡献值
1638
交易币
11152
只看该作者 8楼 发表于: 2015-08-22
这个好!!!!


离线耶稣

发帖
7121
金钱
265688
威望
2471
贡献值
1638
交易币
11152
只看该作者 9楼 发表于: 2015-09-02
横滨 #eyx  
jzMGRN/67  
本帖提到的人: @mjghosts


快速回复
限100 字节
 
上一个 下一个