论坛风格切换切换到宽版
  • 1109阅读
  • 13回复

[亲传][Single] 1992 Heal The World (EU - EPC 658488 2) - WAV整轨 ♬by幽灵 [复制链接]

上一主题 下一主题
离线mjghosts
 

发帖
8247
金钱
210431
威望
9164
贡献值
2715
交易币
4698
只看楼主 倒序阅读 楼主  发表于: 2015-08-15
— 本帖被 mjghosts 执行加亮操作(2015-08-15) —
注:独家整理,转载请注明出处!EAC无损整轨(压缩包内含CD图片) t`WB;o!  
&)8:h+&Z  
解压密码:www.mjsunny.com
Gn\_+Pj$  
Y&[1`:-~-  
pA`+hQNN  
RSr %n1  
ji1viv  
^g*pGrl#  
Exact Audio Copy V1.0 beta 6 from 9. April 2015 n?A6u\sQ  
aY3^C q(r  
EAC 抓取日志文件从15. 八月 2015, 2:01 P.6nA^hXB  
BsBK@+ZyI  
Michael Jackson / Heal the World [!!o-9b  
GRGzP&}@  
使用驱动器  :MATSHITADVD-RAM UJ890AS   Adapter: 1  ID: 1 L~_9_9c  
pV.Av  
读取模式      : 可靠Secure 0zo?eI  
使用精确流     : 是 6WV\}d:  
清空音频缓存    : 否 MG[o%I96  
使用 C2 指示器 : 是 EPS={w$'s  
u1t% (_h  
读取偏移校正:               : 0 *\=.<|HZ  
读取 Lead-In 和 Lead-Out : 否 8i6Ps$T  
用静音填充抓取中丢失偏移的采样       : 是 SxdE?uCUS  
去除首尾静音块               : 否 1c<=A!"{  
在CRC 计算中使用了空样本       : 是 RRmLd/(  
已用接口                  : Win NT 及 2000 本地 Win32 接口  yyv8gH  
bA\<.d  
所用输出模式: : 内部 WAV 函数 Xv< B1  
样本格式    : 44.100 Hz; 16 Bit; 立体声 WA]c=4S  
g)s{ IAVx  
q-]`CW]n  
已抓取 CD 的 TOC F#5B<I  
9Xl`pEhC  
     音轨 |    起始    |    长度    |  起始扇区  |  结束扇区   (q{Ck#+  
    -------------------------------------------- ?T>'j mmV=  
      1 |  0:00.00 |  4:33.25 |      0 |  20499 ]wKzE4Z/  
      2 |  4:33.25 |  4:57.12 |  20500 |  42786 deM7fN4lTi  
      3 |  9:30.37 |  6:27.40 |  42787 |  71851 KN t t  
      4 | 15:58.02 |  3:41.08 |  71852 |  88434 -1ce<nN  
|1ST=O7.LH  
%{/%mJoX  
范围状态及错误 ^| /](  
v.:3"<ur}  
已选择范围 =QK$0r]c'k  
8me ]JRw  
     文件名 J:\12 Music*音乐\CDImage.wav n+BJxu?  
TYlbU<  
     峰值电平 97.7 % M/q E2L[y  
     抓取速度 5.0 X $&"V^@  
     范围质量 100.0 % $b<6y/"  
     复制 CRC 5C14BBDF Fe.t/amS/  
     复制成功 8a_[B~  
DhX#E&  
没有错误发生 }?&k a$rI  
:> &fV  
状态报告结尾
Y3h/~bM%  
D;I6Q1I  
此帖售价 20 金钱,已有 12 人购买 [记录] [购买]
购买后,将显示帖子中所有出售内容。
若发现会员采用欺骗的方法获取财富,请立刻举报,我们会对会员处以2-N倍的罚金,严重者封掉ID!
此段为出售的内容,购买后显示
离线wannam

发帖
2697
金钱
86875
威望
382
贡献值
189
交易币
3340
只看该作者 1楼 发表于: 2015-08-16
谢谢分享
离线q965488338

发帖
709
金钱
27918
威望
224
贡献值
96
交易币
1082
只看该作者 2楼 发表于: 2015-08-16
好东西!!!
发帖
*
金钱
*
威望
*
贡献值
*
交易币
*
只看该作者 3楼 发表于: 2015-08-17
感谢分享
离线marlene55555

发帖
1161
金钱
34314
威望
293
贡献值
98
交易币
1337
只看该作者 4楼 发表于: 2015-09-11
不错拯救地球
离线Mr灬W

发帖
1156
金钱
12819
威望
161
贡献值
56
交易币
1281
只看该作者 5楼 发表于: 2015-09-21
最喜欢的单曲之一,感谢分享
Heal The World
离线肯尼

发帖
946
金钱
5823
威望
419
贡献值
222
交易币
1407
只看该作者 6楼 发表于: 2015-12-31
非常喜欢这首歌,感谢。
顺势待发张元穹 Kenny Saxton @肯尼 & 齐奕同Michael Qi @迈颤我栗
2014年6月25日 合辑 火热制作中
2014 MJFantastics Music International Ltd.
离线自作主张

发帖
338
金钱
2961
威望
78
贡献值
43
交易币
435
只看该作者 7楼 发表于: 2016-02-07
好东西!!!
离线魏聪

发帖
159
金钱
2897
威望
41
贡献值
21
交易币
94
只看该作者 8楼 发表于: 2016-02-27
哎呦不错哦
离线zxcv16

发帖
2634
金钱
4129
威望
409
贡献值
135
交易币
2826
只看该作者 9楼 发表于: 2016-03-08
多谢分享,辛苦了
快速回复
限100 字节
 
上一个 下一个