论坛风格切换切换到宽版
  • 904阅读
  • 13回复

[亲传][Single] 1992 Heal The World (EU - EPC 658488 2) - WAV整轨 ♬by幽灵 [复制链接]

上一主题 下一主题
离线mjghosts
 

发帖
8193
金钱
205205
威望
9035
贡献值
2641
交易币
4552
只看楼主 倒序阅读 楼主  发表于: 2015-08-15
— 本帖被 mjghosts 执行加亮操作(2015-08-15) —
注:独家整理,转载请注明出处!EAC无损整轨(压缩包内含CD图片) m#7(<#  
>L7s[vKn  
解压密码:www.mjsunny.com
~3&{`9Y  
xA] L0h]  
Ni,nQ;9  
d1 j9{  
',+yD9 @  
{Cx5m   
Exact Audio Copy V1.0 beta 6 from 9. April 2015 OrY[  
\/a6h   
EAC 抓取日志文件从15. 八月 2015, 2:01 aB9!}3@  
kxn&f(5  
Michael Jackson / Heal the World bF'rK'',  
w0pMH p'Y  
使用驱动器  :MATSHITADVD-RAM UJ890AS   Adapter: 1  ID: 1 KpLmpK1  
UX 1 )((  
读取模式      : 可靠Secure "}4%vZz  
使用精确流     : 是 [Kg b#L'{  
清空音频缓存    : 否 @-N` W9  
使用 C2 指示器 : 是 0#q=-M/?`  
xmW~R*^  
读取偏移校正:               : 0  6@S6E(^  
读取 Lead-In 和 Lead-Out : 否 <n"BPXF~  
用静音填充抓取中丢失偏移的采样       : 是 J=4>zQLW  
去除首尾静音块               : 否 }aCa2%  
在CRC 计算中使用了空样本       : 是 @ZKf3,J0  
已用接口                  : Win NT 及 2000 本地 Win32 接口 eL!41_QI  
s27IeF3  
所用输出模式: : 内部 WAV 函数 ~%TWF+  
样本格式    : 44.100 Hz; 16 Bit; 立体声 0D X_ *f  
P&-o>mM  
U, 6iT  
已抓取 CD 的 TOC 2_o#Gx'  
v9$!v^U"D  
     音轨 |    起始    |    长度    |  起始扇区  |  结束扇区   &4#Zi.]  
    -------------------------------------------- v* ;d  
      1 |  0:00.00 |  4:33.25 |      0 |  20499 ?GhyVXS y.  
      2 |  4:33.25 |  4:57.12 |  20500 |  42786 YFKE>+  
      3 |  9:30.37 |  6:27.40 |  42787 |  71851 M>Q]{/V7T  
      4 | 15:58.02 |  3:41.08 |  71852 |  88434 x3@-E  
ON?Y Df  
IG-\&  
范围状态及错误 9g92eKS  
2[E wN!IZ  
已选择范围 8;PkuJR_]  
U=>S|>daR  
     文件名 J:\12 Music*音乐\CDImage.wav >}5?`.K~Q*  
0mw1CUx9K  
     峰值电平 97.7 % gcLz}84  
     抓取速度 5.0 X {(73*-~$  
     范围质量 100.0 % "LyD  
     复制 CRC 5C14BBDF qnm_#!&uHT  
     复制成功 S_}`'Z )  
W,q @ww u  
没有错误发生 pO]gf$  
T U%@_vYR  
状态报告结尾
h8rW"8Th  
oy+|:[v:Fk  
此帖售价 20 金钱,已有 12 人购买 [记录] [购买]
购买后,将显示帖子中所有出售内容。
若发现会员采用欺骗的方法获取财富,请立刻举报,我们会对会员处以2-N倍的罚金,严重者封掉ID!
此段为出售的内容,购买后显示
离线wannam

发帖
2582
金钱
75499
威望
363
贡献值
169
交易币
3225
只看该作者 1楼 发表于: 2015-08-16
谢谢分享
离线q965488338

发帖
709
金钱
27822
威望
224
贡献值
96
交易币
1082
只看该作者 2楼 发表于: 2015-08-16
好东西!!!
发帖
*
金钱
*
威望
*
贡献值
*
交易币
*
只看该作者 3楼 发表于: 2015-08-17
感谢分享
离线marlene55555

发帖
1161
金钱
34311
威望
293
贡献值
98
交易币
1337
只看该作者 4楼 发表于: 2015-09-11
不错拯救地球
离线Mr灬W

发帖
1147
金钱
12923
威望
151
贡献值
46
交易币
1272
只看该作者 5楼 发表于: 2015-09-21
最喜欢的单曲之一,感谢分享
Heal The World
离线肯尼

发帖
888
金钱
5322
威望
385
贡献值
188
交易币
1333
只看该作者 6楼 发表于: 2015-12-31
非常喜欢这首歌,感谢。
顺势待发张元穹 Kenny Saxton @肯尼 & 齐奕同Michael Qi @迈颤我栗
2014年6月25日 合辑 火热制作中
2014 MJFantastics Music International Ltd.
离线自作主张

发帖
335
金钱
2838
威望
78
贡献值
43
交易币
432
只看该作者 7楼 发表于: 2016-02-07
好东西!!!
离线魏聪

发帖
159
金钱
2897
威望
41
贡献值
21
交易币
94
只看该作者 8楼 发表于: 2016-02-27
哎呦不错哦
离线zxcv16

发帖
2617
金钱
4552
威望
409
贡献值
135
交易币
2809
只看该作者 9楼 发表于: 2016-03-08
多谢分享,辛苦了
快速回复
限100 字节
 
上一个 下一个