论坛风格切换切换到宽版
  • 941阅读
  • 13回复

[亲传][Single] 1992 Heal The World (EU - EPC 658488 2) - WAV整轨 ♬by幽灵 [复制链接]

上一主题 下一主题
离线mjghosts
 

发帖
8195
金钱
205476
威望
9035
贡献值
2641
交易币
4554
只看楼主 倒序阅读 楼主  发表于: 2015-08-15
— 本帖被 mjghosts 执行加亮操作(2015-08-15) —
注:独家整理,转载请注明出处!EAC无损整轨(压缩包内含CD图片) !J?=nSu  
G.E~&{5xQ  
解压密码:www.mjsunny.com
ZC-evy  
pC.P  
_q4dgi z  
8ewEdnE   
cDol o1*  
I9&<:`  
Exact Audio Copy V1.0 beta 6 from 9. April 2015 ZI]K+jza  
[$+61n}.12  
EAC 抓取日志文件从15. 八月 2015, 2:01 t":>O0>cz  
aa!c>"g6  
Michael Jackson / Heal the World M](U"K?  
2/WXdo  
使用驱动器  :MATSHITADVD-RAM UJ890AS   Adapter: 1  ID: 1 eSf:[^  
Kxn=iv^Ir  
读取模式      : 可靠Secure Q=E6ZxH5;  
使用精确流     : 是 `Hqu 2 '`  
清空音频缓存    : 否 c1f6RCu$b  
使用 C2 指示器 : 是 {_JLmyaerZ  
w>e OERZa  
读取偏移校正:               : 0 _gHJ4(?w  
读取 Lead-In 和 Lead-Out : 否 fHiCuF  
用静音填充抓取中丢失偏移的采样       : 是 A, os rv  
去除首尾静音块               : 否 LImD]e`  
在CRC 计算中使用了空样本       : 是 m-:k]9I  
已用接口                  : Win NT 及 2000 本地 Win32 接口 ] 3v  
gm8H)y,  
所用输出模式: : 内部 WAV 函数 ~ M"[FYw[  
样本格式    : 44.100 Hz; 16 Bit; 立体声 .C1^QY-wL  
Yv{AoL~  
@U&|38  
已抓取 CD 的 TOC 0-5:"SN'  
Bg3^BOT  
     音轨 |    起始    |    长度    |  起始扇区  |  结束扇区   GVg0)}  
    -------------------------------------------- k`N)-`O7  
      1 |  0:00.00 |  4:33.25 |      0 |  20499 UCl,sn  
      2 |  4:33.25 |  4:57.12 |  20500 |  42786 n\d-^ml  
      3 |  9:30.37 |  6:27.40 |  42787 |  71851 D@!#79:)  
      4 | 15:58.02 |  3:41.08 |  71852 |  88434 IAg#YFI  
;Lz96R@}  
~ZT(@w  
范围状态及错误 /-1[}h%U'  
{8'I+-  
已选择范围 81`-xVd  
Xji<oih  
     文件名 J:\12 Music*音乐\CDImage.wav BlMc<k  
UhXZ^ k3  
     峰值电平 97.7 % CB\E@u,  
     抓取速度 5.0 X U TC|8  
     范围质量 100.0 % B^Fe.ty  
     复制 CRC 5C14BBDF %dw@;IZ#8{  
     复制成功 /J9|.];%r  
S&^i*R4]  
没有错误发生 Wo+fMn(O  
.EpcMXT%  
状态报告结尾
K8,Q^!5]"  
}RvinF:5  
此帖售价 20 金钱,已有 12 人购买 [记录] [购买]
购买后,将显示帖子中所有出售内容。
若发现会员采用欺骗的方法获取财富,请立刻举报,我们会对会员处以2-N倍的罚金,严重者封掉ID!
此段为出售的内容,购买后显示
离线wannam

发帖
2606
金钱
80603
威望
363
贡献值
169
交易币
3249
只看该作者 1楼 发表于: 2015-08-16
谢谢分享
离线q965488338

发帖
709
金钱
27830
威望
224
贡献值
96
交易币
1082
只看该作者 2楼 发表于: 2015-08-16
好东西!!!
发帖
*
金钱
*
威望
*
贡献值
*
交易币
*
只看该作者 3楼 发表于: 2015-08-17
感谢分享
离线marlene55555

发帖
1161
金钱
34311
威望
293
贡献值
98
交易币
1337
只看该作者 4楼 发表于: 2015-09-11
不错拯救地球
在线Mr灬W

发帖
1148
金钱
12944
威望
151
贡献值
46
交易币
1273
只看该作者 5楼 发表于: 2015-09-21
最喜欢的单曲之一,感谢分享
Heal The World
离线肯尼

发帖
889
金钱
5345
威望
385
贡献值
188
交易币
1334
只看该作者 6楼 发表于: 2015-12-31
非常喜欢这首歌,感谢。
顺势待发张元穹 Kenny Saxton @肯尼 & 齐奕同Michael Qi @迈颤我栗
2014年6月25日 合辑 火热制作中
2014 MJFantastics Music International Ltd.
离线自作主张

发帖
335
金钱
2932
威望
78
贡献值
43
交易币
432
只看该作者 7楼 发表于: 2016-02-07
好东西!!!
离线魏聪

发帖
159
金钱
2897
威望
41
贡献值
21
交易币
94
只看该作者 8楼 发表于: 2016-02-27
哎呦不错哦
离线zxcv16

发帖
2619
金钱
4472
威望
409
贡献值
135
交易币
2811
只看该作者 9楼 发表于: 2016-03-08
多谢分享,辛苦了
快速回复
限100 字节
 
上一个 下一个