论坛风格切换切换到宽版
  • 871阅读
  • 13回复

[亲传][Single] 1992 Heal The World (EU - EPC 658488 2) - WAV整轨 ♬by幽灵 [复制链接]

上一主题 下一主题
离线mjghosts
 

发帖
8191
金钱
204337
威望
9035
贡献值
2641
交易币
4550
只看楼主 倒序阅读 楼主  发表于: 2015-08-15
— 本帖被 mjghosts 执行加亮操作(2015-08-15) —
注:独家整理,转载请注明出处!EAC无损整轨(压缩包内含CD图片) fm^tU0DY  
r_ 9"^Er  
解压密码:www.mjsunny.com
#/(L.5d[  
~&0lWa  
Y edF%  
V'.gE6we  
JKYtBXOl  
KPK`C0mg@k  
Exact Audio Copy V1.0 beta 6 from 9. April 2015 t- //.  
|Qpo[E }a  
EAC 抓取日志文件从15. 八月 2015, 2:01 AnsJ3C  
;rh =63g  
Michael Jackson / Heal the World <+ <o X"I  
|c]L]PU  
使用驱动器  :MATSHITADVD-RAM UJ890AS   Adapter: 1  ID: 1 y(Pv1=e  
<1V>0[[e  
读取模式      : 可靠Secure aIfB^M*c5  
使用精确流     : 是 ,;= S\  
清空音频缓存    : 否 yK2>ou  
使用 C2 指示器 : 是 3z 5"Ckzb  
0"@p|nAa  
读取偏移校正:               : 0 )/v`k>E  
读取 Lead-In 和 Lead-Out : 否 k"`^vV[{F  
用静音填充抓取中丢失偏移的采样       : 是 K!88 Nox(  
去除首尾静音块               : 否 KC\W6|NtGj  
在CRC 计算中使用了空样本       : 是 t1l4mdp  
已用接口                  : Win NT 及 2000 本地 Win32 接口 /P{'nI  
zy9W{{:P(1  
所用输出模式: : 内部 WAV 函数 vinn|_s%  
样本格式    : 44.100 Hz; 16 Bit; 立体声 R<>uCF0  
f2$<4H hmm  
SQ`ec95',  
已抓取 CD 的 TOC sr.!EQ]  
zL:k(7E  
     音轨 |    起始    |    长度    |  起始扇区  |  结束扇区   ~!dO2\X+  
    -------------------------------------------- kh*td(pfP9  
      1 |  0:00.00 |  4:33.25 |      0 |  20499 ^#j{9FpPs  
      2 |  4:33.25 |  4:57.12 |  20500 |  42786 +3;[1dpgf  
      3 |  9:30.37 |  6:27.40 |  42787 |  71851 =hKu85  
      4 | 15:58.02 |  3:41.08 |  71852 |  88434 !L' O")!3  
^$\#aTyFK  
Ru`7Xd.  
范围状态及错误 .*w3ryQ  
|G>Lud  
已选择范围 u!VY6y7p  
PxZMH=  
     文件名 J:\12 Music*音乐\CDImage.wav ehYGw2  
_;5N@2?  
     峰值电平 97.7 %  *}`D2_uP  
     抓取速度 5.0 X 7tz #R :  
     范围质量 100.0 % 9ioV R  
     复制 CRC 5C14BBDF h7W<$ \P  
     复制成功 ~Aq$GH4  
i/WiSwh:  
没有错误发生 0Fm,F&12  
;F'/[l{+  
状态报告结尾
z}m)u  
*6%r2l'kZ  
此帖售价 20 金钱,已有 12 人购买 [记录] [购买]
购买后,将显示帖子中所有出售内容。
若发现会员采用欺骗的方法获取财富,请立刻举报,我们会对会员处以2-N倍的罚金,严重者封掉ID!
此段为出售的内容,购买后显示
离线wannam

发帖
2539
金钱
69500
威望
363
贡献值
169
交易币
3182
只看该作者 1楼 发表于: 2015-08-16
谢谢分享
离线q965488338

发帖
709
金钱
27814
威望
224
贡献值
96
交易币
1082
只看该作者 2楼 发表于: 2015-08-16
好东西!!!
发帖
*
金钱
*
威望
*
贡献值
*
交易币
*
只看该作者 3楼 发表于: 2015-08-17
感谢分享
离线marlene55555

发帖
1161
金钱
34311
威望
293
贡献值
98
交易币
1337
只看该作者 4楼 发表于: 2015-09-11
不错拯救地球
离线Mr灬W

发帖
1146
金钱
13022
威望
152
贡献值
46
交易币
1271
只看该作者 5楼 发表于: 2015-09-21
最喜欢的单曲之一,感谢分享
Heal The World
离线肯尼

发帖
883
金钱
5216
威望
385
贡献值
188
交易币
1328
只看该作者 6楼 发表于: 2015-12-31
非常喜欢这首歌,感谢。
顺势待发张元穹 Kenny Saxton @肯尼 & 齐奕同Michael Qi @迈颤我栗
2014年6月25日 合辑 火热制作中
2014 MJFantastics Music International Ltd.
离线自作主张

发帖
334
金钱
2793
威望
78
贡献值
43
交易币
431
只看该作者 7楼 发表于: 2016-02-07
好东西!!!
离线魏聪

发帖
159
金钱
2897
威望
41
贡献值
21
交易币
94
只看该作者 8楼 发表于: 2016-02-27
哎呦不错哦
离线zxcv16

发帖
2616
金钱
4547
威望
409
贡献值
135
交易币
2808
只看该作者 9楼 发表于: 2016-03-08
多谢分享,辛苦了
快速回复
限100 字节
 
上一个 下一个