论坛风格切换切换到宽版
  • 1493阅读
  • 14回复

[亲传][Single] 1992 Heal The World (EU - EPC 658488 2) - WAV整轨 ♬by幽灵 [复制链接]

上一主题 下一主题
离线mjghosts
 

发帖
8240
金钱
216247
威望
9172
贡献值
2721
交易币
4743
只看楼主 倒序阅读 楼主  发表于: 2015-08-15
— 本帖被 mjghosts 执行加亮操作(2015-08-15) —
注:独家整理,转载请注明出处!EAC无损整轨(压缩包内含CD图片) ^K4#_H#"  
Nw`}iR0i  
解压密码:www.mjsunny.com
KJ Gh)  
PYldqY   
niZ/yW{w  
{L[n\h.4.  
|22~.9S  
A$K>:Tt>  
Exact Audio Copy V1.0 beta 6 from 9. April 2015 Hq.ys>_  
7l"N%e  
EAC 抓取日志文件从15. 八月 2015, 2:01 FFH9 $>A  
fmDU  
Michael Jackson / Heal the World 7/.-dfEK  
k T$yHB #  
使用驱动器  :MATSHITADVD-RAM UJ890AS   Adapter: 1  ID: 1 2QUZAV\ Y  
(>THN*i  
读取模式      : 可靠Secure nwlo,[  
使用精确流     : 是 P 0xInW F  
清空音频缓存    : 否 >;S/$  
使用 C2 指示器 : 是 -ec ~~95  
 Py$*c  
读取偏移校正:               : 0 38IVSK_  
读取 Lead-In 和 Lead-Out : 否 !br0s(|  
用静音填充抓取中丢失偏移的采样       : 是 g>h5NrD N  
去除首尾静音块               : 否 k,>sBk 8  
在CRC 计算中使用了空样本       : 是 L1"y5HJ  
已用接口                  : Win NT 及 2000 本地 Win32 接口 Ea@N:t?(8=  
q^],K'  
所用输出模式: : 内部 WAV 函数 0r=:l/Pz  
样本格式    : 44.100 Hz; 16 Bit; 立体声 unqX<6hu  
K29]B~0%E  
)>q.!"B  
已抓取 CD 的 TOC \HFeEEKH  
 ?C   
     音轨 |    起始    |    长度    |  起始扇区  |  结束扇区   -R 4 t  
    -------------------------------------------- T69'ta32V  
      1 |  0:00.00 |  4:33.25 |      0 |  20499 -:(,<Jt<  
      2 |  4:33.25 |  4:57.12 |  20500 |  42786 kQXtO)  
      3 |  9:30.37 |  6:27.40 |  42787 |  71851 [nBlHI;&  
      4 | 15:58.02 |  3:41.08 |  71852 |  88434 }YHoWYR  
1,fjdd8OM;  
:`6E{yfM  
范围状态及错误 ) 'x4#5]  
R?g qPi-  
已选择范围 QSf{V(fs  
RWf4Wh?d  
     文件名 J:\12 Music*音乐\CDImage.wav {'8a' 9\  
GbG!vo  
     峰值电平 97.7 % Gc}d#oo*k  
     抓取速度 5.0 X Pb=J4Lvz(d  
     范围质量 100.0 % 6JBE=9d-Q  
     复制 CRC 5C14BBDF FQSepUl  
     复制成功 rz0~W6 U  
knZee!FA7  
没有错误发生 Y( n# =  
U}(*}Ut  
状态报告结尾
aB~?Y+m  
i[A$K~f  
此帖售价 20 金钱,已有 13 人购买 [记录] [购买]
购买后,将显示帖子中所有出售内容。
若发现会员采用欺骗的方法获取财富,请立刻举报,我们会对会员处以2-N倍的罚金,严重者封掉ID!
此段为出售的内容,购买后显示
离线wannam

发帖
2701
金钱
86995
威望
382
贡献值
189
交易币
3344
只看该作者 1楼 发表于: 2015-08-16
谢谢分享
离线q965488338

发帖
709
金钱
28283
威望
224
贡献值
96
交易币
1082
只看该作者 2楼 发表于: 2015-08-16
好东西!!!
发帖
*
金钱
*
威望
*
贡献值
*
交易币
*
只看该作者 3楼 发表于: 2015-08-17
感谢分享
离线marlene55555

发帖
1165
金钱
34275
威望
293
贡献值
98
交易币
1341
只看该作者 4楼 发表于: 2015-09-11
不错拯救地球
离线Mr灬W

发帖
1129
金钱
12950
威望
161
贡献值
56
交易币
1282
只看该作者 5楼 发表于: 2015-09-21
最喜欢的单曲之一,感谢分享
Heal The World
离线肯尼

发帖
953
金钱
7175
威望
431
贡献值
228
交易币
1438
只看该作者 6楼 发表于: 2015-12-31
非常喜欢这首歌,感谢。
顺势待发张元穹 Kenny Saxton @肯尼 & 齐奕同Michael Qi @迈颤我栗
2014年6月25日 合辑 火热制作中
2014 MJFantastics Music International Ltd.
离线自作主张

发帖
344
金钱
3054
威望
80
贡献值
43
交易币
441
只看该作者 7楼 发表于: 2016-02-07
好东西!!!
离线魏聪

发帖
168
金钱
2713
威望
41
贡献值
21
交易币
103
只看该作者 8楼 发表于: 2016-02-27
哎呦不错哦
离线zxcv16

发帖
2661
金钱
3832
威望
409
贡献值
135
交易币
2853
只看该作者 9楼 发表于: 2016-03-08
多谢分享,辛苦了
快速回复
限100 字节
 
上一个 下一个