论坛风格切换切换到宽版
  • 1241阅读
  • 13回复

[亲传][Single] 1992 Heal The World (EU - EPC 658488 2) - WAV整轨 ♬by幽灵 [复制链接]

上一主题 下一主题
离线mjghosts
 

发帖
8258
金钱
212473
威望
9166
贡献值
2715
交易币
4709
只看楼主 倒序阅读 楼主  发表于: 2015-08-15
— 本帖被 mjghosts 执行加亮操作(2015-08-15) —
注:独家整理,转载请注明出处!EAC无损整轨(压缩包内含CD图片) m1sV~"v;  
r#J_;P{U  
解压密码:www.mjsunny.com
PJ<9T3Fa  
Uu9I;q!|  
0W)|n9  
&_\;p-1:  
SErh"~[  
1yFIIj:^|  
Exact Audio Copy V1.0 beta 6 from 9. April 2015 {4)d  
0-/@-qV\  
EAC 抓取日志文件从15. 八月 2015, 2:01 1-Dw-./N  
N0N%~3  
Michael Jackson / Heal the World X1BqN+=@9  
G&4D0f  
使用驱动器  :MATSHITADVD-RAM UJ890AS   Adapter: 1  ID: 1 LLMGs: [  
Ak$9\Sl  
读取模式      : 可靠Secure $_e{Zv[  
使用精确流     : 是 m |.0$+=  
清空音频缓存    : 否 > :0N)Pj  
使用 C2 指示器 : 是 5r;)Ppo  
`[ZA#8Ma  
读取偏移校正:               : 0 9yLPh/!Ob  
读取 Lead-In 和 Lead-Out : 否 9mpQusM  
用静音填充抓取中丢失偏移的采样       : 是 f_:>36{1^!  
去除首尾静音块               : 否 BpF}H^V-  
在CRC 计算中使用了空样本       : 是 :[Ie0[H/M  
已用接口                  : Win NT 及 2000 本地 Win32 接口 XK(aH~7xme  
>lugHF$G  
所用输出模式: : 内部 WAV 函数 @9MrTP  
样本格式    : 44.100 Hz; 16 Bit; 立体声 Vb~;"WABo  
+#g4Crb  
"3NE%1T  
已抓取 CD 的 TOC )`m/vYKWL  
TfFH!1^+  
     音轨 |    起始    |    长度    |  起始扇区  |  结束扇区   <(2,@_~@r  
    -------------------------------------------- [|\BuUT'  
      1 |  0:00.00 |  4:33.25 |      0 |  20499 @-Js)zcl q  
      2 |  4:33.25 |  4:57.12 |  20500 |  42786 Z &R{jQ,  
      3 |  9:30.37 |  6:27.40 |  42787 |  71851 ?1u2P$d  
      4 | 15:58.02 |  3:41.08 |  71852 |  88434 ?`%)3gx|  
3tlA! e  
76rNs|z~  
范围状态及错误 8N|y   
dM{xPpnx  
已选择范围 U!L<v!$  
T=|oZ  
     文件名 J:\12 Music*音乐\CDImage.wav E}aTH  
$\xS~ w  
     峰值电平 97.7 % -v*wT*I1  
     抓取速度 5.0 X gw0b>E8gZ&  
     范围质量 100.0 % iq>PN:mr  
     复制 CRC 5C14BBDF )K2,h5zU  
     复制成功 kYwk'\s  
%zx=rn(K  
没有错误发生 KN>U6=WN  
Vt-D8J\A 0  
状态报告结尾
d4h1#MK  
>gqM|-uY  
此帖售价 20 金钱,已有 12 人购买 [记录] [购买]
购买后,将显示帖子中所有出售内容。
若发现会员采用欺骗的方法获取财富,请立刻举报,我们会对会员处以2-N倍的罚金,严重者封掉ID!
此段为出售的内容,购买后显示
离线wannam

发帖
2698
金钱
86901
威望
382
贡献值
189
交易币
3341
只看该作者 1楼 发表于: 2015-08-16
谢谢分享
离线q965488338

发帖
709
金钱
28138
威望
224
贡献值
96
交易币
1082
只看该作者 2楼 发表于: 2015-08-16
好东西!!!
发帖
*
金钱
*
威望
*
贡献值
*
交易币
*
只看该作者 3楼 发表于: 2015-08-17
感谢分享
离线marlene55555

发帖
1162
金钱
34284
威望
293
贡献值
98
交易币
1338
只看该作者 4楼 发表于: 2015-09-11
不错拯救地球
离线Mr灬W

发帖
1129
金钱
12894
威望
161
贡献值
56
交易币
1282
只看该作者 5楼 发表于: 2015-09-21
最喜欢的单曲之一,感谢分享
Heal The World
在线肯尼

发帖
953
金钱
6764
威望
431
贡献值
228
交易币
1438
只看该作者 6楼 发表于: 2015-12-31
非常喜欢这首歌,感谢。
顺势待发张元穹 Kenny Saxton @肯尼 & 齐奕同Michael Qi @迈颤我栗
2014年6月25日 合辑 火热制作中
2014 MJFantastics Music International Ltd.
离线自作主张

发帖
340
金钱
3144
威望
80
贡献值
43
交易币
437
只看该作者 7楼 发表于: 2016-02-07
好东西!!!
离线魏聪

发帖
167
金钱
2724
威望
41
贡献值
21
交易币
102
只看该作者 8楼 发表于: 2016-02-27
哎呦不错哦
离线zxcv16

发帖
2655
金钱
3941
威望
409
贡献值
135
交易币
2847
只看该作者 9楼 发表于: 2016-03-08
多谢分享,辛苦了
快速回复
限100 字节
 
上一个 下一个