论坛风格切换切换到宽版
  • 1577阅读
  • 14回复

[亲传][Single] 1992 Heal The World (EU - EPC 658488 2) - WAV整轨 ♬by幽灵 [复制链接]

上一主题 下一主题
离线mjghosts
 

发帖
8241
金钱
217206
威望
9172
贡献值
2721
交易币
4744
只看楼主 倒序阅读 楼主  发表于: 2015-08-15
— 本帖被 mjghosts 执行加亮操作(2015-08-15) —
注:独家整理,转载请注明出处!EAC无损整轨(压缩包内含CD图片) c( _R xLJ  
Aflf]G1  
解压密码:www.mjsunny.com
3qQ}U}-;|  
U:AB%gr[  
Alv"D  
PYwGGB-  
a51}~V1  
8Ow#W5_3|  
Exact Audio Copy V1.0 beta 6 from 9. April 2015 z5_jx&^Z  
Z6zLL   
EAC 抓取日志文件从15. 八月 2015, 2:01 IrIW>r} -  
BM9:|}\J65  
Michael Jackson / Heal the World &p+2Vz{  
#3O$B*gV6  
使用驱动器  :MATSHITADVD-RAM UJ890AS   Adapter: 1  ID: 1 /IG3>|R  
7CCSG{k  
读取模式      : 可靠Secure -dw/wHf"  
使用精确流     : 是 x}f)P  
清空音频缓存    : 否 bWZ oGFT  
使用 C2 指示器 : 是 ;p"#ZS7  
>`n)-8  
读取偏移校正:               : 0 { !t6& A  
读取 Lead-In 和 Lead-Out : 否 yg%T{hyzH  
用静音填充抓取中丢失偏移的采样       : 是 `J}FSUn\  
去除首尾静音块               : 否 nB |fw"  
在CRC 计算中使用了空样本       : 是 ?o(Y\YJf  
已用接口                  : Win NT 及 2000 本地 Win32 接口 VjSA& R  
cV* 0+5  
所用输出模式: : 内部 WAV 函数 Wp=:|J   
样本格式    : 44.100 Hz; 16 Bit; 立体声 3UGdXufw  
.Tc?9X~4  
R(A"6a8*  
已抓取 CD 的 TOC f>+:UGmP  
mvBUm-X  
     音轨 |    起始    |    长度    |  起始扇区  |  结束扇区   t-w4rXvF   
    -------------------------------------------- .sbV<ulbc  
      1 |  0:00.00 |  4:33.25 |      0 |  20499 ,9ZN k@q  
      2 |  4:33.25 |  4:57.12 |  20500 |  42786 n&}ILLc  
      3 |  9:30.37 |  6:27.40 |  42787 |  71851 WUqfY?5  
      4 | 15:58.02 |  3:41.08 |  71852 |  88434 L-(.v*  
626 !6E;T  
tsu Mt  
范围状态及错误 3.s.&^  
!5K9L(gqb  
已选择范围 r+%}XS%;h  
$,~D-~-  
     文件名 J:\12 Music*音乐\CDImage.wav UMbM3m=\  
3@/\j^U  
     峰值电平 97.7 % {"uLV{d  
     抓取速度 5.0 X ==\Qj{ 7`  
     范围质量 100.0 % D-tm'APq  
     复制 CRC 5C14BBDF i/%+x-#  
     复制成功 |aovZ/b4  
"[rChso  
没有错误发生 ""JTU6]MS  
B8Cic\2  
状态报告结尾
dp3>G2Yq  
PYYK R  
此帖售价 20 金钱,已有 13 人购买 [记录] [购买]
购买后,将显示帖子中所有出售内容。
若发现会员采用欺骗的方法获取财富,请立刻举报,我们会对会员处以2-N倍的罚金,严重者封掉ID!
此段为出售的内容,购买后显示
离线wannam

发帖
2702
金钱
87010
威望
382
贡献值
189
交易币
3345
只看该作者 1楼 发表于: 2015-08-16
谢谢分享
离线q965488338

发帖
709
金钱
28369
威望
224
贡献值
96
交易币
1082
只看该作者 2楼 发表于: 2015-08-16
好东西!!!
发帖
*
金钱
*
威望
*
贡献值
*
交易币
*
只看该作者 3楼 发表于: 2015-08-17
感谢分享
离线marlene55555

发帖
1165
金钱
34275
威望
293
贡献值
98
交易币
1341
只看该作者 4楼 发表于: 2015-09-11
不错拯救地球
离线Mr灬W

发帖
1129
金钱
12950
威望
161
贡献值
56
交易币
1282
只看该作者 5楼 发表于: 2015-09-21
最喜欢的单曲之一,感谢分享
Heal The World
离线肯尼

发帖
955
金钱
7400
威望
431
贡献值
228
交易币
1440
只看该作者 6楼 发表于: 2015-12-31
非常喜欢这首歌,感谢。
顺势待发张元穹 Kenny Saxton @肯尼 & 齐奕同Michael Qi @迈颤我栗
2014年6月25日 合辑 火热制作中
2014 MJFantastics Music International Ltd.
离线自作主张

发帖
346
金钱
3051
威望
80
贡献值
43
交易币
443
只看该作者 7楼 发表于: 2016-02-07
好东西!!!
离线魏聪

发帖
168
金钱
2713
威望
41
贡献值
21
交易币
103
只看该作者 8楼 发表于: 2016-02-27
哎呦不错哦
离线zxcv16

发帖
2664
金钱
3796
威望
409
贡献值
135
交易币
2856
只看该作者 9楼 发表于: 2016-03-08
多谢分享,辛苦了
快速回复
限100 字节
 
上一个 下一个