论坛风格切换切换到宽版
  • 1647阅读
  • 14回复

[亲传][Single] 1992 Heal The World (EU - EPC 658488 2) - WAV整轨 ♬by幽灵 [复制链接]

上一主题 下一主题
离线mjghosts
 

发帖
8243
金钱
217715
威望
9174
贡献值
2723
交易币
4754
只看楼主 倒序阅读 楼主  发表于: 2015-08-15
— 本帖被 mjghosts 执行加亮操作(2015-08-15) —
注:独家整理,转载请注明出处!EAC无损整轨(压缩包内含CD图片) Ekh)l0 l  
O7 yj<  
解压密码:www.mjsunny.com
B}K<L\S  
.Yz^r?3t  
KTAQ6k  
~y whl'"k  
5KIhk`S  
"$ISun=8  
Exact Audio Copy V1.0 beta 6 from 9. April 2015 c>Ri6=C  
"v0SvV<7  
EAC 抓取日志文件从15. 八月 2015, 2:01 ]86*k %A  
j0w@ \gO<  
Michael Jackson / Heal the World 7{9M ^.}  
a=vH:D  
使用驱动器  :MATSHITADVD-RAM UJ890AS   Adapter: 1  ID: 1 !1UZ<hq  
}r;=<mc,O  
读取模式      : 可靠Secure AsvH@\\  
使用精确流     : 是 ->7zVAX  
清空音频缓存    : 否 +oHbAPs8  
使用 C2 指示器 : 是 ]Zc\si3i&  
oMOh4NH,x  
读取偏移校正:               : 0 ;E>#qYC6  
读取 Lead-In 和 Lead-Out : 否 CC3M7|eO3  
用静音填充抓取中丢失偏移的采样       : 是 ,) aUp4*  
去除首尾静音块               : 否 .M ID)PY-  
在CRC 计算中使用了空样本       : 是 `O;4 b#!g  
已用接口                  : Win NT 及 2000 本地 Win32 接口 1'8-+?r  
4I|pkdF_  
所用输出模式: : 内部 WAV 函数 @D `j   
样本格式    : 44.100 Hz; 16 Bit; 立体声  Vo%Z|  
>hV 2p/D  
\w(0k^<7  
已抓取 CD 的 TOC GaL UZviJ_  
k2PK4Ua_}q  
     音轨 |    起始    |    长度    |  起始扇区  |  结束扇区   )|AxQPd  
    -------------------------------------------- v (S h+p  
      1 |  0:00.00 |  4:33.25 |      0 |  20499 F~bDg tN3  
      2 |  4:33.25 |  4:57.12 |  20500 |  42786 o)DO[  
      3 |  9:30.37 |  6:27.40 |  42787 |  71851 Np+pJc1  
      4 | 15:58.02 |  3:41.08 |  71852 |  88434 -w5sXnS  
#^$_3A Y  
B ?y[ %i  
范围状态及错误 bw+IH-b  
h(4\k?C5  
已选择范围 BglbQ'6p  
up0=Y o@  
     文件名 J:\12 Music*音乐\CDImage.wav hJz]N$@W  
J |UFuD  
     峰值电平 97.7 % V)ag ss w?  
     抓取速度 5.0 X 0[N1SY\lj  
     范围质量 100.0 % Ae"|a_>fMI  
     复制 CRC 5C14BBDF LX=v _}l J  
     复制成功 {SRD\&J[  
&n0Ag]$P  
没有错误发生 !67xN?b  
l0g+OMt  
状态报告结尾
I{.t-3hp  
Pt-O1$C[  
此帖售价 20 金钱,已有 13 人购买 [记录] [购买]
购买后,将显示帖子中所有出售内容。
若发现会员采用欺骗的方法获取财富,请立刻举报,我们会对会员处以2-N倍的罚金,严重者封掉ID!
此段为出售的内容,购买后显示
离线wannam

发帖
2702
金钱
87012
威望
382
贡献值
189
交易币
3345
只看该作者 1楼 发表于: 2015-08-16
谢谢分享
离线q965488338

发帖
709
金钱
28390
威望
224
贡献值
96
交易币
1082
只看该作者 2楼 发表于: 2015-08-16
好东西!!!
发帖
*
金钱
*
威望
*
贡献值
*
交易币
*
只看该作者 3楼 发表于: 2015-08-17
感谢分享
离线marlene55555

发帖
1165
金钱
34275
威望
293
贡献值
98
交易币
1341
只看该作者 4楼 发表于: 2015-09-11
不错拯救地球
离线Mr灬W

发帖
1129
金钱
12950
威望
161
贡献值
56
交易币
1282
只看该作者 5楼 发表于: 2015-09-21
最喜欢的单曲之一,感谢分享
Heal The World
离线肯尼

发帖
955
金钱
7435
威望
431
贡献值
228
交易币
1440
只看该作者 6楼 发表于: 2015-12-31
非常喜欢这首歌,感谢。
顺势待发张元穹 Kenny Saxton @肯尼 & 齐奕同Michael Qi @迈颤我栗
2014年6月25日 合辑 火热制作中
2014 MJFantastics Music International Ltd.
离线自作主张

发帖
346
金钱
3101
威望
80
贡献值
43
交易币
443
只看该作者 7楼 发表于: 2016-02-07
好东西!!!
离线魏聪

发帖
168
金钱
2713
威望
41
贡献值
21
交易币
103
只看该作者 8楼 发表于: 2016-02-27
哎呦不错哦
离线zxcv16

发帖
2664
金钱
3796
威望
409
贡献值
135
交易币
2856
只看该作者 9楼 发表于: 2016-03-08
多谢分享,辛苦了
快速回复
限100 字节
 
上一个 下一个