论坛风格切换切换到宽版
  • 1005阅读
  • 13回复

[亲传][Single] 1992 Heal The World (EU - EPC 658488 2) - WAV整轨 ♬by幽灵 [复制链接]

上一主题 下一主题
离线mjghosts
 

发帖
8233
金钱
208923
威望
9161
贡献值
2712
交易币
4672
只看楼主 倒序阅读 楼主  发表于: 2015-08-15
— 本帖被 mjghosts 执行加亮操作(2015-08-15) —
注:独家整理,转载请注明出处!EAC无损整轨(压缩包内含CD图片) D%A-& =  
7'I7   
解压密码:www.mjsunny.com
$Yka\tS'  
A3n"zxU  
6PH*]#PfoD  
hq BRh+[  
q~3&f  
Ir'f((8:  
Exact Audio Copy V1.0 beta 6 from 9. April 2015 NEk [0  
D\R^*k@V  
EAC 抓取日志文件从15. 八月 2015, 2:01 7h2bL6Y88  
Oq5k4  
Michael Jackson / Heal the World oB9m\o7$  
5*$Zfuf  
使用驱动器  :MATSHITADVD-RAM UJ890AS   Adapter: 1  ID: 1 t3G'x1  
OT i3T1&  
读取模式      : 可靠Secure =HHg:"  
使用精确流     : 是 CvJEY  
清空音频缓存    : 否 L ]c9  
使用 C2 指示器 : 是 7g9^Jn  
*.g?y6d  
读取偏移校正:               : 0 "'Uk0>d=_I  
读取 Lead-In 和 Lead-Out : 否 (+dRD] |T  
用静音填充抓取中丢失偏移的采样       : 是 u,:`5*al{  
去除首尾静音块               : 否 Ir #V2]$  
在CRC 计算中使用了空样本       : 是 VY@hhr1s~  
已用接口                  : Win NT 及 2000 本地 Win32 接口 7G/|e24  
=hIT?Z6A  
所用输出模式: : 内部 WAV 函数 CL :M>(  
样本格式    : 44.100 Hz; 16 Bit; 立体声 MmH_gR  
Mk/!,N<h#  
h\*rv5\M  
已抓取 CD 的 TOC Y zW7;U S  
Fi% W\Y'  
     音轨 |    起始    |    长度    |  起始扇区  |  结束扇区   Q;ZHx.ye{  
    -------------------------------------------- w <>6>w@GZ  
      1 |  0:00.00 |  4:33.25 |      0 |  20499 [2 w <F[  
      2 |  4:33.25 |  4:57.12 |  20500 |  42786 [S&O-b8A  
      3 |  9:30.37 |  6:27.40 |  42787 |  71851 _q$LrAT  
      4 | 15:58.02 |  3:41.08 |  71852 |  88434 +<WRB\W  
@W\4UX3dK  
u~- fK'/!|  
范围状态及错误 r>:L$_]L  
opcR~tg@r  
已选择范围 Fwx~ ~"I  
nze1]3`  
     文件名 J:\12 Music*音乐\CDImage.wav o~o6S=4,}  
BsK|:MM]  
     峰值电平 97.7 % f05"3L:  
     抓取速度 5.0 X <nw <v9Z  
     范围质量 100.0 % 8yE%X!E  
     复制 CRC 5C14BBDF xgtJl}L  
     复制成功 B-\,2rCCZ  
~tg1N^]kV  
没有错误发生 462!;/ y  
5Cc6 , ]  
状态报告结尾
u\()E|?p  
fuNl4BU  
此帖售价 20 金钱,已有 12 人购买 [记录] [购买]
购买后,将显示帖子中所有出售内容。
若发现会员采用欺骗的方法获取财富,请立刻举报,我们会对会员处以2-N倍的罚金,严重者封掉ID!
此段为出售的内容,购买后显示
离线wannam

发帖
2680
金钱
86709
威望
382
贡献值
189
交易币
3323
只看该作者 1楼 发表于: 2015-08-16
谢谢分享
离线q965488338

发帖
709
金钱
27898
威望
224
贡献值
96
交易币
1082
只看该作者 2楼 发表于: 2015-08-16
好东西!!!
发帖
*
金钱
*
威望
*
贡献值
*
交易币
*
只看该作者 3楼 发表于: 2015-08-17
感谢分享
离线marlene55555

发帖
1161
金钱
34314
威望
293
贡献值
98
交易币
1337
只看该作者 4楼 发表于: 2015-09-11
不错拯救地球
离线Mr灬W

发帖
1156
金钱
12831
威望
161
贡献值
56
交易币
1281
只看该作者 5楼 发表于: 2015-09-21
最喜欢的单曲之一,感谢分享
Heal The World
离线肯尼

发帖
891
金钱
5704
威望
406
贡献值
209
交易币
1340
只看该作者 6楼 发表于: 2015-12-31
非常喜欢这首歌,感谢。
顺势待发张元穹 Kenny Saxton @肯尼 & 齐奕同Michael Qi @迈颤我栗
2014年6月25日 合辑 火热制作中
2014 MJFantastics Music International Ltd.
离线自作主张

发帖
335
金钱
2993
威望
78
贡献值
43
交易币
432
只看该作者 7楼 发表于: 2016-02-07
好东西!!!
离线魏聪

发帖
159
金钱
2897
威望
41
贡献值
21
交易币
94
只看该作者 8楼 发表于: 2016-02-27
哎呦不错哦
离线zxcv16

发帖
2626
金钱
4380
威望
409
贡献值
135
交易币
2818
只看该作者 9楼 发表于: 2016-03-08
多谢分享,辛苦了
快速回复
限100 字节
 
上一个 下一个