论坛风格切换切换到宽版
  • 2240阅读
  • 25回复

[亲传][Single] 1995 Scream (EU - EPC 662022 5) - WAV整轨 ♬by幽灵 [复制链接]

上一主题 下一主题
离线mjghosts
 

发帖
8251
金钱
218601
威望
9176
贡献值
2723
交易币
4762
只看楼主 倒序阅读 楼主  发表于: 2015-08-15
— 本帖被 mjghosts 执行加亮操作(2015-08-15) —
注:独家整理,转载请注明出处!EAC无损整轨(压缩包内含CD图片) D3g5#.$,}>  
&Pv$nMB$I  
解压密码:www.mjsunny.com
(@T{ [\  
,eOZv=:  
2PPb  
;gHcDnH)  
_{if"  
)=glN<*?  
Exact Audio Copy V1.0 beta 6 from 9. April 2015 D)L~vA/8b  
jl;N Fk%  
EAC 抓取日志文件从15. 八月 2015, 2:28 WM$Z?CN%KB  
7Fa<m]k  
Michael Jackson / Scream [4;_8-[Nv  
nF3Sfw,  
使用驱动器  :MATSHITADVD-RAM UJ890AS   Adapter: 1  ID: 1 4u2_xbT  
@/01MBs;  
读取模式      : 可靠Secure %PR,TWe  
使用精确流     : 是 3M^`6W[;  
清空音频缓存    : 否 &QH mo*  
使用 C2 指示器 : 是 2l+'p[b0>  
- 3<&sTR  
读取偏移校正:               : 0 P4MP`A  
读取 Lead-In 和 Lead-Out : 否 )5<dmK@  
用静音填充抓取中丢失偏移的采样       : 是 =/xXB  
去除首尾静音块               : 否 h^ K>(x  
在CRC 计算中使用了空样本       : 是 oY@]&A^ah  
已用接口                  : Win NT 及 2000 本地 Win32 接口 M9yqJPS}B  
ryd}-_LL  
所用输出模式: : 内部 WAV 函数 6|Rj YX  
样本格式    : 44.100 Hz; 16 Bit; 立体声 127@ TN"  
,.gI'YPQC  
PO2]x:  
已抓取 CD 的 TOC A_6Dol=J@  
6& 9q6IIy  
     音轨 |    起始    |    长度    |  起始扇区  |  结束扇区   F|WH=s3  
    -------------------------------------------- ZQJh5.B  
      1 |  0:00.00 |  9:02.72 |      0 |  40721 ! }awlv;  
      2 |  9:02.72 |  5:35.65 |  40722 |  65911 @qsOWx`l$  
      3 | 14:38.62 | 10:05.73 |  65912 | 111359 rHtX4;f+><  
      4 | 24:44.60 |  5:12.35 | 111360 | 134794 9l7 youZ]  
      5 | 29:57.20 |  5:44.42 | 134795 | 160636 piiO5fK|  
      6 | 35:41.62 |  4:01.30 | 160637 | 178741 )4/UzR$  
:Z5kiEwYM  
0k|/]zfb  
范围状态及错误 ![_GA)7  
h1?.x  
已选择范围 p WKpc  
ngaQa-8w  
     文件名 J:\12 Music*音乐\[Single] 1995 Scream (EU - EPC 662022 5) 6 track\CDImage.wav hB*3Py27L  
o&:n>:im  
     峰值电平 100.0 % $U5$*R@jo[  
     抓取速度 5.8 X fm,:8%  
     范围质量 100.0 % l_*:StyR+  
     复制 CRC 7D17D209 ~f%AbDye  
     复制成功 12%4>2}~>  
QWxl$%`89<  
没有错误发生 s=|&NlO$  
o!t1EPJE*  
状态报告结尾
z15QFVm  
Y3wL EG%,:  
此帖售价 20 金钱,已有 18 人购买 [记录] [购买]
购买后,将显示帖子中所有出售内容。
若发现会员采用欺骗的方法获取财富,请立刻举报,我们会对会员处以2-N倍的罚金,严重者封掉ID!
此段为出售的内容,购买后显示
离线wannam

发帖
2702
金钱
87018
威望
382
贡献值
189
交易币
3345
只看该作者 1楼 发表于: 2015-08-16
非常喜欢这首歌,mv也很喜欢
离线musickingdom

发帖
835
金钱
50
威望
109
贡献值
56
交易币
1034
只看该作者 2楼 发表于: 2015-08-16
开心的收了,谢谢分享
正在建设的土豆小站萌萌哒~http://www.tudou.com/home/_68623032/
离线q965488338

发帖
709
金钱
28398
威望
224
贡献值
96
交易币
1082
只看该作者 3楼 发表于: 2015-08-16
感谢分享!!!
离线hzh

发帖
8803
金钱
99375
威望
630
贡献值
341
交易币
10071
只看该作者 4楼 发表于: 2015-08-16
看不懂 但是感觉挺舒服 (LRM~5KVg  
离线mich008

发帖
839
金钱
5912
威望
24
贡献值
15
交易币
901
只看该作者 5楼 发表于: 2015-08-16
不错 收下了
离线mjghosts

发帖
8251
金钱
218601
威望
9176
贡献值
2723
交易币
4762
只看该作者 6楼 发表于: 2015-08-16
回 hzh 的帖子
hzh:看不懂[表情] 但是感觉挺舒服 Z) Wnow  
 (2015-08-16 13:19)  ESTM$k }X  
0:"2MSf>  
单曲CD你不懂?
发帖
*
金钱
*
威望
*
贡献值
*
交易币
*
只看该作者 7楼 发表于: 2015-08-17
感谢分享,
离线thriller001

发帖
148
金钱
34
威望
19
贡献值
18
交易币
221
只看该作者 8楼 发表于: 2015-08-18
经典中的经典啊
离线hzh

发帖
8803
金钱
99375
威望
630
贡献值
341
交易币
10071
只看该作者 9楼 发表于: 2015-08-18
回 mjghosts 的帖子
mjghosts:单曲CD你不懂? (2015-08-16 20:01)  <-D/O$q  
~ab:/!Z  
你做的啥我不懂啊
快速回复
限100 字节
 
上一个 下一个