论坛风格切换切换到宽版
  • 2569阅读
  • 25回复

[亲传][Single] 1995 Scream (EU - EPC 662022 5) - WAV整轨 ♬by幽灵 [复制链接]

上一主题 下一主题
离线mjghosts
 

发帖
8257
金钱
219480
威望
9187
贡献值
2734
交易币
4792
只看楼主 倒序阅读 楼主  发表于: 2015-08-15
— 本帖被 mjghosts 执行加亮操作(2015-08-15) —
注:独家整理,转载请注明出处!EAC无损整轨(压缩包内含CD图片) g-`HKoKe  
tGHZU^B:}  
解压密码:www.mjsunny.com
gB/4ro8  
):"Z7~j=  
>iD&n4TK  
*J[3f]PBmR  
U9k;)fK  
O.61-rp  
Exact Audio Copy V1.0 beta 6 from 9. April 2015 ' >a(|  
"|P8L| @*  
EAC 抓取日志文件从15. 八月 2015, 2:28 _dOR-<  
W/03L, 1  
Michael Jackson / Scream h'*>\eC6  
)1 ]P4  
使用驱动器  :MATSHITADVD-RAM UJ890AS   Adapter: 1  ID: 1 0($@9k4!/  
Uc oVp}vl  
读取模式      : 可靠Secure Wp2b*B=-  
使用精确流     : 是 W(jXOgs+_  
清空音频缓存    : 否 IQn|0$':Z  
使用 C2 指示器 : 是 )_[eqr  
K@uUe3  
读取偏移校正:               : 0 !~X[qT  
读取 Lead-In 和 Lead-Out : 否 tG!ApL  
用静音填充抓取中丢失偏移的采样       : 是 gz{~\0y  
去除首尾静音块               : 否 3&H#LGoV$  
在CRC 计算中使用了空样本       : 是 ,&+"|,m  
已用接口                  : Win NT 及 2000 本地 Win32 接口  :{#%_^}k  
cJb.@8^J  
所用输出模式: : 内部 WAV 函数 eK<X7m^  
样本格式    : 44.100 Hz; 16 Bit; 立体声 ~!PAs_O  
/-Saz29f^Q  
>F@qFP N]  
已抓取 CD 的 TOC R^_7B(  
G8]DK3#  
     音轨 |    起始    |    长度    |  起始扇区  |  结束扇区   &Z kY9XO  
    -------------------------------------------- :0G_n\  
      1 |  0:00.00 |  9:02.72 |      0 |  40721 N)F&c!anh  
      2 |  9:02.72 |  5:35.65 |  40722 |  65911 .9":Ljs(L  
      3 | 14:38.62 | 10:05.73 |  65912 | 111359 />wM#)o2  
      4 | 24:44.60 |  5:12.35 | 111360 | 134794 ,r$k79TI  
      5 | 29:57.20 |  5:44.42 | 134795 | 160636 KKrLF?rc  
      6 | 35:41.62 |  4:01.30 | 160637 | 178741 (P( =6-0  
-4rXOmiA  
QNH-b9u>8  
范围状态及错误 @D?KS;#  
)K=%s%3h<  
已选择范围 0 _!')+  
#hp 7@ Tu  
     文件名 J:\12 Music*音乐\[Single] 1995 Scream (EU - EPC 662022 5) 6 track\CDImage.wav pUGFQ."\  
b" Z$?5  
     峰值电平 100.0 % lpjeEaw o4  
     抓取速度 5.8 X S]}hh,A  
     范围质量 100.0 % u[{j;l(  
     复制 CRC 7D17D209 :.k1="H~@  
     复制成功 \ F\ /<  
lx'^vK%F  
没有错误发生 }?\8%hK"a7  
%9 q]  
状态报告结尾
<W>T!;4!  
s6DmZ^Y%  
此帖售价 20 金钱,已有 18 人购买 [记录] [购买]
购买后,将显示帖子中所有出售内容。
若发现会员采用欺骗的方法获取财富,请立刻举报,我们会对会员处以2-N倍的罚金,严重者封掉ID!
此段为出售的内容,购买后显示
离线wannam

发帖
2703
金钱
87075
威望
382
贡献值
189
交易币
3346
只看该作者 1楼 发表于: 2015-08-16
非常喜欢这首歌,mv也很喜欢
离线musickingdom

发帖
835
金钱
55
威望
109
贡献值
56
交易币
1034
只看该作者 2楼 发表于: 2015-08-16
开心的收了,谢谢分享
正在建设的土豆小站萌萌哒~http://www.tudou.com/home/_68623032/
离线q965488338

发帖
709
金钱
28408
威望
224
贡献值
96
交易币
1082
只看该作者 3楼 发表于: 2015-08-16
感谢分享!!!
离线hzh

发帖
8830
金钱
99442
威望
630
贡献值
341
交易币
10098
只看该作者 4楼 发表于: 2015-08-16
看不懂 但是感觉挺舒服 !>!jLZ0  
离线mich008

发帖
852
金钱
6251
威望
24
贡献值
15
交易币
914
只看该作者 5楼 发表于: 2015-08-16
不错 收下了
离线mjghosts

发帖
8257
金钱
219480
威望
9187
贡献值
2734
交易币
4792
只看该作者 6楼 发表于: 2015-08-16
回 hzh 的帖子
hzh:看不懂[表情] 但是感觉挺舒服 aaesgF  
 (2015-08-16 13:19)  0Y ld!L  
&0@AM_b  
单曲CD你不懂?
发帖
*
金钱
*
威望
*
贡献值
*
交易币
*
只看该作者 7楼 发表于: 2015-08-17
感谢分享,
离线thriller001

发帖
148
金钱
34
威望
19
贡献值
18
交易币
221
只看该作者 8楼 发表于: 2015-08-18
经典中的经典啊
离线hzh

发帖
8830
金钱
99442
威望
630
贡献值
341
交易币
10098
只看该作者 9楼 发表于: 2015-08-18
回 mjghosts 的帖子
mjghosts:单曲CD你不懂? (2015-08-16 20:01)  9#;UQ.qA  
cs%NsnZ  
你做的啥我不懂啊
快速回复
限100 字节
 
上一个 下一个