论坛风格切换切换到宽版
  • 2816阅读
  • 25回复

[亲传][Single] 1995 Scream (EU - EPC 662022 5) - WAV整轨 ♬by幽灵 [复制链接]

上一主题 下一主题
离线mjghosts
 

发帖
8261
金钱
219535
威望
9187
贡献值
2734
交易币
4796
只看楼主 倒序阅读 楼主  发表于: 2015-08-15
— 本帖被 mjghosts 执行加亮操作(2015-08-15) —
注:独家整理,转载请注明出处!EAC无损整轨(压缩包内含CD图片) \# p@ef  
zBQV2.@  
解压密码:www.mjsunny.com
)x!b{5'"7  
&kR*J<)V  
|r U?  
:w!A_~ w2  
,Y:ET1:  
3`JLb]6  
Exact Audio Copy V1.0 beta 6 from 9. April 2015 R ]h3a :ic  
i/C`]1R/  
EAC 抓取日志文件从15. 八月 2015, 2:28 z4qc)- {L  
HUA{ P%  
Michael Jackson / Scream %.h&W;  
&<=?O a  
使用驱动器  :MATSHITADVD-RAM UJ890AS   Adapter: 1  ID: 1 jIL+^{K<  
;u8a%h!  
读取模式      : 可靠Secure e=cb%  
使用精确流     : 是 VLfc6:Yg  
清空音频缓存    : 否 E0*KKo%  
使用 C2 指示器 : 是 @*9c2\"k  
%lnVzGP  
读取偏移校正:               : 0 +a'LdEp  
读取 Lead-In 和 Lead-Out : 否 A_\`Gj!s%  
用静音填充抓取中丢失偏移的采样       : 是 M!/!*,~  
去除首尾静音块               : 否 :#VdFMC<  
在CRC 计算中使用了空样本       : 是 M ZAz= )-  
已用接口                  : Win NT 及 2000 本地 Win32 接口 Nz77" kC  
4;bc!> sfC  
所用输出模式: : 内部 WAV 函数 i'QR-B&Z  
样本格式    : 44.100 Hz; 16 Bit; 立体声 3#0y.. F  
FVxORQI  
Xw#"?B(M]  
已抓取 CD 的 TOC q@^^jlHP  
&qzy?/i8  
     音轨 |    起始    |    长度    |  起始扇区  |  结束扇区    6oI/*`>  
    -------------------------------------------- ?Dl;DE1  
      1 |  0:00.00 |  9:02.72 |      0 |  40721 /^L <q  
      2 |  9:02.72 |  5:35.65 |  40722 |  65911 iR!]&Oh  
      3 | 14:38.62 | 10:05.73 |  65912 | 111359 y`i?Qo3  
      4 | 24:44.60 |  5:12.35 | 111360 | 134794 8 (ot<3(D  
      5 | 29:57.20 |  5:44.42 | 134795 | 160636 D/ VEl{ba-  
      6 | 35:41.62 |  4:01.30 | 160637 | 178741 Om*(dK]zHQ  
gBO,  
1% C EUE  
范围状态及错误 ify48]  
8`wKq6  
已选择范围 (< >Lfn  
Ai"MJ6)  
     文件名 J:\12 Music*音乐\[Single] 1995 Scream (EU - EPC 662022 5) 6 track\CDImage.wav I4|"Ztw  
'"+Gn52#  
     峰值电平 100.0 % !x:{"  
     抓取速度 5.8 X 3 l}9'j  
     范围质量 100.0 % ?6\N&MTF  
     复制 CRC 7D17D209 d!46`b$rd  
     复制成功 kBLFK3i  
TFm[sO0RZ  
没有错误发生 5rfDm  
lo1bj*Y2  
状态报告结尾
`K:n=hpF  
Sa%%3_&  
此帖售价 20 金钱,已有 18 人购买 [记录] [购买]
购买后,将显示帖子中所有出售内容。
若发现会员采用欺骗的方法获取财富,请立刻举报,我们会对会员处以2-N倍的罚金,严重者封掉ID!
此段为出售的内容,购买后显示
离线wannam

发帖
2703
金钱
87081
威望
382
贡献值
189
交易币
3346
只看该作者 1楼 发表于: 2015-08-16
非常喜欢这首歌,mv也很喜欢
离线musickingdom

发帖
835
金钱
57
威望
109
贡献值
56
交易币
1034
只看该作者 2楼 发表于: 2015-08-16
开心的收了,谢谢分享
正在建设的土豆小站萌萌哒~http://www.tudou.com/home/_68623032/
离线q965488338

发帖
709
金钱
28408
威望
224
贡献值
96
交易币
1082
只看该作者 3楼 发表于: 2015-08-16
感谢分享!!!
离线hzh

发帖
8837
金钱
99454
威望
630
贡献值
341
交易币
10105
只看该作者 4楼 发表于: 2015-08-16
看不懂 但是感觉挺舒服 cvw17j  
离线mich008

发帖
856
金钱
6701
威望
24
贡献值
15
交易币
918
只看该作者 5楼 发表于: 2015-08-16
不错 收下了
离线mjghosts

发帖
8261
金钱
219535
威望
9187
贡献值
2734
交易币
4796
只看该作者 6楼 发表于: 2015-08-16
回 hzh 的帖子
hzh:看不懂[表情] 但是感觉挺舒服 co\Il]`R/  
 (2015-08-16 13:19)  ;ow)N <Z  
1,h:|  
单曲CD你不懂?
发帖
*
金钱
*
威望
*
贡献值
*
交易币
*
只看该作者 7楼 发表于: 2015-08-17
感谢分享,
离线thriller001

发帖
152
金钱
19
威望
19
贡献值
18
交易币
225
只看该作者 8楼 发表于: 2015-08-18
经典中的经典啊
离线hzh

发帖
8837
金钱
99454
威望
630
贡献值
341
交易币
10105
只看该作者 9楼 发表于: 2015-08-18
回 mjghosts 的帖子
mjghosts:单曲CD你不懂? (2015-08-16 20:01)  [ncK+rGAc  
MY@&^71i4  
你做的啥我不懂啊
快速回复
限100 字节
 
上一个 下一个