论坛风格切换切换到宽版
  • 2152阅读
  • 25回复

[亲传][Single] 1995 Scream (EU - EPC 662022 5) - WAV整轨 ♬by幽灵 [复制链接]

上一主题 下一主题
离线mjghosts
 

发帖
8246
金钱
217730
威望
9174
贡献值
2723
交易币
4757
只看楼主 倒序阅读 楼主  发表于: 2015-08-15
— 本帖被 mjghosts 执行加亮操作(2015-08-15) —
注:独家整理,转载请注明出处!EAC无损整轨(压缩包内含CD图片) E^vJ@O  
k< y>)  
解压密码:www.mjsunny.com
FFu9&8Y  
a-=8xs'  
cc~O&?)i  
B56L1^ 7  
23Nw!6S  
@d mV  
Exact Audio Copy V1.0 beta 6 from 9. April 2015 eHn7iuS8  
I %sFqh>  
EAC 抓取日志文件从15. 八月 2015, 2:28 * +"9%&?  
VyzS^AH K  
Michael Jackson / Scream DW5Y@;[  
S?{#r  
使用驱动器  :MATSHITADVD-RAM UJ890AS   Adapter: 1  ID: 1 YG3J$_?y0  
2NC.Z;  
读取模式      : 可靠Secure [x+FcXb  
使用精确流     : 是 j(m.$:  
清空音频缓存    : 否 pT=JP> nd^  
使用 C2 指示器 : 是 d,+Hd2o^X  
[<n2Uz7MP  
读取偏移校正:               : 0 >_[ 9t  
读取 Lead-In 和 Lead-Out : 否 q!.byrod  
用静音填充抓取中丢失偏移的采样       : 是 !%CWZZ 6u  
去除首尾静音块               : 否 A,JmX  
在CRC 计算中使用了空样本       : 是 O#ai)e_uQk  
已用接口                  : Win NT 及 2000 本地 Win32 接口 :flx6,7D  
$Q&lSVQ  
所用输出模式: : 内部 WAV 函数 ;O,+2VzP%^  
样本格式    : 44.100 Hz; 16 Bit; 立体声 GzhYY"iif#  
w mn+  
joFm]3$;  
已抓取 CD 的 TOC ,|3MG",@@h  
zNs55e.rx  
     音轨 |    起始    |    长度    |  起始扇区  |  结束扇区   `ZU($!(  
    -------------------------------------------- BBaQ}{F8>2  
      1 |  0:00.00 |  9:02.72 |      0 |  40721 -)w@f~Q  
      2 |  9:02.72 |  5:35.65 |  40722 |  65911 ZGBd%RWjG_  
      3 | 14:38.62 | 10:05.73 |  65912 | 111359 qB~rQPa  
      4 | 24:44.60 |  5:12.35 | 111360 | 134794 YJ^] u}  
      5 | 29:57.20 |  5:44.42 | 134795 | 160636 :y+2*lV  
      6 | 35:41.62 |  4:01.30 | 160637 | 178741 pM+ AjPr  
H['N  
6 hw=  
范围状态及错误 S*==aftl(  
s6H]J{1F  
已选择范围 ]q;Emy  
)fFb_U  
     文件名 J:\12 Music*音乐\[Single] 1995 Scream (EU - EPC 662022 5) 6 track\CDImage.wav +Jlay1U&  
68NYIyTW9  
     峰值电平 100.0 % e|NG"<  
     抓取速度 5.8 X &D >G8  
     范围质量 100.0 % 1[mXd  
     复制 CRC 7D17D209 k o5@qNq  
     复制成功 nxY\|@  
Vmc5IPd{\  
没有错误发生 )) Zf|86N  
4]rnY~  
状态报告结尾
Nw:GCf-L  
[N FFB96  
此帖售价 20 金钱,已有 18 人购买 [记录] [购买]
购买后,将显示帖子中所有出售内容。
若发现会员采用欺骗的方法获取财富,请立刻举报,我们会对会员处以2-N倍的罚金,严重者封掉ID!
此段为出售的内容,购买后显示
离线wannam

发帖
2702
金钱
87012
威望
382
贡献值
189
交易币
3345
只看该作者 1楼 发表于: 2015-08-16
非常喜欢这首歌,mv也很喜欢
离线musickingdom

发帖
835
金钱
50
威望
109
贡献值
56
交易币
1034
只看该作者 2楼 发表于: 2015-08-16
开心的收了,谢谢分享
正在建设的土豆小站萌萌哒~http://www.tudou.com/home/_68623032/
离线q965488338

发帖
709
金钱
28390
威望
224
贡献值
96
交易币
1082
只看该作者 3楼 发表于: 2015-08-16
感谢分享!!!
离线hzh

发帖
8786
金钱
99303
威望
625
贡献值
341
交易币
10054
只看该作者 4楼 发表于: 2015-08-16
看不懂 但是感觉挺舒服 T&mbXMN  
离线mich008

发帖
832
金钱
5951
威望
24
贡献值
15
交易币
894
只看该作者 5楼 发表于: 2015-08-16
不错 收下了
离线mjghosts

发帖
8246
金钱
217730
威望
9174
贡献值
2723
交易币
4757
只看该作者 6楼 发表于: 2015-08-16
回 hzh 的帖子
hzh:看不懂[表情] 但是感觉挺舒服 O"J.k&C<,  
 (2015-08-16 13:19)  s68_o[[E  
X!+Mgh6  
单曲CD你不懂?
发帖
*
金钱
*
威望
*
贡献值
*
交易币
*
只看该作者 7楼 发表于: 2015-08-17
感谢分享,
离线thriller001

发帖
148
金钱
34
威望
19
贡献值
18
交易币
221
只看该作者 8楼 发表于: 2015-08-18
经典中的经典啊
离线hzh

发帖
8786
金钱
99303
威望
625
贡献值
341
交易币
10054
只看该作者 9楼 发表于: 2015-08-18
回 mjghosts 的帖子
mjghosts:单曲CD你不懂? (2015-08-16 20:01)  q;Pz B4#  
jt r=8OiL  
你做的啥我不懂啊
快速回复
限100 字节
 
上一个 下一个