论坛风格切换切换到宽版
  • 1365阅读
  • 15回复

[亲传][Single] 1997 Blood On The Dance Floor (CA - 49K 78008) - WAV整轨 ♬by幽灵 [复制链接]

上一主题 下一主题
离线mjghosts
 

发帖
8232
金钱
213252
威望
9167
贡献值
2716
交易币
4715
只看楼主 倒序阅读 楼主  发表于: 2015-08-18
— 本帖被 mjghosts 执行加亮操作(2015-08-18) —
注:独家整理,转载请注明出处!EAC无损整轨(压缩包内含CD图片) --->另有Apple Lossless版本:http://www.mjsunny.com/read.php?tid=63876 Qx$C oY  
E_t ^osY&  
解压密码:www.mjsunny.com
xj/Iq<'R*O  
:C%cnU;N  
Ygwej2  
f$\gm+&hXE  
(]wd8M  
Exact Audio Copy V1.0 beta 6 from 9. April 2015 O!Rw? Y  
STfcx] L  
EAC 抓取日志文件从15. 八月 2015, 3:20 Q db~I#}m'  
Wr3).m52}P  
Michael Jackson / Blood On The Dance Floor }ZP;kM$g  
E{Gkq:  
使用驱动器  :MATSHITADVD-RAM UJ890AS   Adapter: 1  ID: 1 1c$<z~  
p "J^  
读取模式      : 可靠Secure j@j%)CCM  
使用精确流     : 是 u:6PAVW?  
清空音频缓存    : 否 4 ^=qc99  
使用 C2 指示器 : 是 c`hj^t  
Up(Jw-.  
读取偏移校正:               : 0 DgJG: D{  
读取 Lead-In 和 Lead-Out : 否 eX+FtN  
用静音填充抓取中丢失偏移的采样       : 是 uv:DO6 {  
去除首尾静音块               : 否 w&M)ws;$  
在CRC 计算中使用了空样本       : 是 b),_rr  
已用接口                  : Win NT 及 2000 本地 Win32 接口 0 .& B  
*ybwl Lg  
所用输出模式: : 内部 WAV 函数 xk1pZQ8c  
样本格式    : 44.100 Hz; 16 Bit; 立体声 " <GDOL  
JG2)-x;9  
ng ZkBX  
已抓取 CD 的 TOC e[3 rz%'Q  
2 |fN*Wm  
     音轨 |    起始    |    长度    |  起始扇区  |  结束扇区   uW.)(l  
    -------------------------------------------- =Vgj=19X(  
      1 |  0:00.00 |  4:13.30 |      0 |  19004 I b)>M`J  
      2 |  4:13.30 |  3:22.45 |  19005 |  34199 [qHLo>HaL  
      3 |  7:36.00 |  3:21.22 |  34200 |  49296 MDfE(cn2q  
      4 | 10:57.22 |  3:52.00 |  49297 |  66696 d83K;Ryd  
      5 | 14:49.22 |  8:39.10 |  66697 | 105631 >L#HE  
      6 | 23:28.32 |  6:56.10 | 105632 | 136841 9zj^\-FA_l  
C|kZT<,]  
M <3P  
范围状态及错误 83*"58  
t]Ey~-Rx  
已选择范围 &n% 3rC5{  
]M|Iy~ X   
     文件名 J:\12 Music*音乐\[Single] 1997 Blood On The Dance Floor (CA - 49K 78008) 6 track\CDImage.wav kRBPl9 9  
&H!#jh\w  
     峰值电平 100.0 % ~eH+*U|\|M  
     抓取速度 5.7 X 4_3 DQx9s  
     范围质量 100.0 % o@}+b}R}  
     复制 CRC 3FFA05B1 (ilU<Ht  
     复制成功 ~Tv %6iaeE  
n237%LH[  
没有错误发生 t 7D2k2x9  
p&=F:-  
状态报告结尾
/i+8b(x  
C% <[mM  
此帖售价 20 金钱,已有 14 人购买 [记录] [购买]
购买后,将显示帖子中所有出售内容。
若发现会员采用欺骗的方法获取财富,请立刻举报,我们会对会员处以2-N倍的罚金,严重者封掉ID!
此段为出售的内容,购买后显示
离线thriller001

发帖
148
金钱
34
威望
19
贡献值
18
交易币
221
只看该作者 1楼 发表于: 2015-08-18
不错喜欢这首歌曲
离线mich008

发帖
814
金钱
5337
威望
24
贡献值
15
交易币
876
只看该作者 2楼 发表于: 2015-08-19
这首歌发行量应该不错
离线wannam

发帖
2699
金钱
86933
威望
382
贡献值
189
交易币
3342
只看该作者 3楼 发表于: 2015-08-20
舞曲专辑里最喜欢的一首。
离线小李

发帖
226
金钱
155
威望
99
贡献值
8
交易币
198
只看该作者 4楼 发表于: 2015-09-10
谢谢分享,感谢
离线Mr灬W

发帖
1129
金钱
12894
威望
161
贡献值
56
交易币
1282
只看该作者 5楼 发表于: 2015-09-21
最喜欢的单曲之一...感谢分享!
Heal The World
离线lifan_npl

发帖
2165
金钱
16980
威望
782
贡献值
347
交易币
2518
只看该作者 6楼 发表于: 2015-11-21
很罕见的单曲    谢谢分享 `-uE(qp  
我的淘宝:
http://shop63152617.taobao.com  
离线肯尼

发帖
953
金钱
6819
威望
431
贡献值
228
交易币
1438
只看该作者 7楼 发表于: 2015-12-30
感谢~~
顺势待发张元穹 Kenny Saxton @肯尼 & 齐奕同Michael Qi @迈颤我栗
2014年6月25日 合辑 火热制作中
2014 MJFantastics Music International Ltd.
离线自作主张

发帖
341
金钱
3169
威望
80
贡献值
43
交易币
438
只看该作者 8楼 发表于: 2016-02-07
不错喜欢这首歌曲
离线魏聪

发帖
168
金钱
2713
威望
41
贡献值
21
交易币
103
只看该作者 9楼 发表于: 2016-02-27
这首歌感觉不错
快速回复
限100 字节
 
上一个 下一个