论坛风格切换切换到宽版
  • 1141阅读
  • 14回复

[亲传][Single] 1997 Blood On The Dance Floor (CA - 49K 78008) - WAV整轨 ♬by幽灵 [复制链接]

上一主题 下一主题
离线mjghosts
 

发帖
8235
金钱
209092
威望
9162
贡献值
2713
交易币
4678
只看楼主 倒序阅读 楼主  发表于: 2015-08-18
— 本帖被 mjghosts 执行加亮操作(2015-08-18) —
注:独家整理,转载请注明出处!EAC无损整轨(压缩包内含CD图片) --->另有Apple Lossless版本:http://www.mjsunny.com/read.php?tid=63876 <1K7@Tu  
O>%$q8x@i  
解压密码:www.mjsunny.com
x9&p!&*&IT  
+(&|uq^  
b]i>Bv  
,56;4)cv  
>vAN(3Idu  
Exact Audio Copy V1.0 beta 6 from 9. April 2015 Y{+3}drJE  
M4:s;@qZ.  
EAC 抓取日志文件从15. 八月 2015, 3:20 8UM0vNk  
FmD +8=  
Michael Jackson / Blood On The Dance Floor LGVlc@0'  
vD26;S.y[a  
使用驱动器  :MATSHITADVD-RAM UJ890AS   Adapter: 1  ID: 1 eaAPKx  
u)~s4tP4  
读取模式      : 可靠Secure CDCC1BG"  
使用精确流     : 是 w2zp#;d  
清空音频缓存    : 否 OKPJuV`y6  
使用 C2 指示器 : 是 vGN3 YcH  
uvv.WbZ  
读取偏移校正:               : 0 it,w^VU_]  
读取 Lead-In 和 Lead-Out : 否 MGybGbd  
用静音填充抓取中丢失偏移的采样       : 是 f:vD`Fz1  
去除首尾静音块               : 否 ?v.Gn9Z&  
在CRC 计算中使用了空样本       : 是 ^'W%X  
已用接口                  : Win NT 及 2000 本地 Win32 接口 A.U'Q|  
|Fp'/~|w2d  
所用输出模式: : 内部 WAV 函数 g1V)$s 7  
样本格式    : 44.100 Hz; 16 Bit; 立体声 @L8;VSI  
} 07r  
0jTMZ<&zZ  
已抓取 CD 的 TOC 2sun=3qb  
~U%j{8uH  
     音轨 |    起始    |    长度    |  起始扇区  |  结束扇区   hBy*09Sv  
    -------------------------------------------- 7LdzZS0OM  
      1 |  0:00.00 |  4:13.30 |      0 |  19004 R@$+t:}  
      2 |  4:13.30 |  3:22.45 |  19005 |  34199 +7Rt{C,  
      3 |  7:36.00 |  3:21.22 |  34200 |  49296 >~wu3q  
      4 | 10:57.22 |  3:52.00 |  49297 |  66696 M:(&n@e  
      5 | 14:49.22 |  8:39.10 |  66697 | 105631 WKOI\  
      6 | 23:28.32 |  6:56.10 | 105632 | 136841 g-|Kyhr?=  
]_\AHnJ  
c dDY]"k  
范围状态及错误 AHWh}~Yi  
ka8$dfC  
已选择范围 X*)?LxTj  
U Q)!|@&  
     文件名 J:\12 Music*音乐\[Single] 1997 Blood On The Dance Floor (CA - 49K 78008) 6 track\CDImage.wav hAlPl<BO#V  
n 3h^VQ*]G  
     峰值电平 100.0 % 'V1!&Q6  
     抓取速度 5.7 X Q7L)f71i  
     范围质量 100.0 % 5`{=`  
     复制 CRC 3FFA05B1 ;4l-M2  
     复制成功 UmYD]  
(v]P<3%  
没有错误发生 4C6=77Jr  
@51z-T  
状态报告结尾
h|K\z{ A  
oN_S}o  
此帖售价 20 金钱,已有 13 人购买 [记录] [购买]
购买后,将显示帖子中所有出售内容。
若发现会员采用欺骗的方法获取财富,请立刻举报,我们会对会员处以2-N倍的罚金,严重者封掉ID!
此段为出售的内容,购买后显示
离线thriller001

发帖
137
金钱
157
威望
19
贡献值
18
交易币
210
只看该作者 1楼 发表于: 2015-08-18
不错喜欢这首歌曲
离线mich008

发帖
793
金钱
4977
威望
24
贡献值
15
交易币
855
只看该作者 2楼 发表于: 2015-08-19
这首歌发行量应该不错
离线wannam

发帖
2681
金钱
86778
威望
382
贡献值
189
交易币
3324
只看该作者 3楼 发表于: 2015-08-20
舞曲专辑里最喜欢的一首。
离线小李

发帖
211
金钱
177
威望
98
贡献值
7
交易币
179
只看该作者 4楼 发表于: 2015-09-10
谢谢分享,感谢
在线Mr灬W

发帖
1156
金钱
12831
威望
161
贡献值
56
交易币
1281
只看该作者 5楼 发表于: 2015-09-21
最喜欢的单曲之一...感谢分享!
Heal The World
离线lifan_npl

发帖
2098
金钱
17955
威望
787
贡献值
347
交易币
2451
只看该作者 6楼 发表于: 2015-11-21
很罕见的单曲    谢谢分享 ==9Ez  
我的淘宝:
http://shop63152617.taobao.com  
离线肯尼

发帖
897
金钱
6189
威望
416
贡献值
219
交易币
1346
只看该作者 7楼 发表于: 2015-12-30
感谢~~
顺势待发张元穹 Kenny Saxton @肯尼 & 齐奕同Michael Qi @迈颤我栗
2014年6月25日 合辑 火热制作中
2014 MJFantastics Music International Ltd.
离线自作主张

发帖
335
金钱
2993
威望
78
贡献值
43
交易币
432
只看该作者 8楼 发表于: 2016-02-07
不错喜欢这首歌曲
离线魏聪

发帖
159
金钱
2897
威望
41
贡献值
21
交易币
94
只看该作者 9楼 发表于: 2016-02-27
这首歌感觉不错
快速回复
限100 字节
 
上一个 下一个