论坛风格切换切换到宽版
  • 1747阅读
  • 15回复

[亲传][Single] 1997 Blood On The Dance Floor (CA - 49K 78008) - WAV整轨 ♬by幽灵 [复制链接]

上一主题 下一主题
离线mjghosts
 

发帖
8242
金钱
217441
威望
9173
贡献值
2722
交易币
4749
只看楼主 倒序阅读 楼主  发表于: 2015-08-18
— 本帖被 mjghosts 执行加亮操作(2015-08-18) —
注:独家整理,转载请注明出处!EAC无损整轨(压缩包内含CD图片) --->另有Apple Lossless版本:http://www.mjsunny.com/read.php?tid=63876 6zGM[2  
)zR(e>VX  
解压密码:www.mjsunny.com
yG`J3++ S  
:E>" z6H  
*88Q6=Mm  
Y$%z]i5   
YA:7^-Bv  
Exact Audio Copy V1.0 beta 6 from 9. April 2015 7l%]/`Y-  
J ^y1=PM  
EAC 抓取日志文件从15. 八月 2015, 3:20 L>&o_bzp  
Fbpe`pS+V  
Michael Jackson / Blood On The Dance Floor 'nrX RDb  
jc4#k+sb  
使用驱动器  :MATSHITADVD-RAM UJ890AS   Adapter: 1  ID: 1 r}-si^fo;  
Cw*:`  
读取模式      : 可靠Secure n7J6YtUwP  
使用精确流     : 是 kgq"b)  
清空音频缓存    : 否 ]~Su  
使用 C2 指示器 : 是 &y7<h>z  
_V jfH2Y  
读取偏移校正:               : 0 vDeb?n  
读取 Lead-In 和 Lead-Out : 否 R;G"LT  
用静音填充抓取中丢失偏移的采样       : 是 Skb d'j  
去除首尾静音块               : 否 y.xyr"-Q  
在CRC 计算中使用了空样本       : 是 j5rB+  
已用接口                  : Win NT 及 2000 本地 Win32 接口 isG8S(}IW&  
y:m ;_U,%c  
所用输出模式: : 内部 WAV 函数 gPW% *|D,  
样本格式    : 44.100 Hz; 16 Bit; 立体声 @26gP:Um  
,w9:)B7  
SU,#:s(  
已抓取 CD 的 TOC a_GnN\kX^Z  
)w t mc4'  
     音轨 |    起始    |    长度    |  起始扇区  |  结束扇区   Q{:5gh  
    -------------------------------------------- V,*<E&+  
      1 |  0:00.00 |  4:13.30 |      0 |  19004 NrVE[Z#  
      2 |  4:13.30 |  3:22.45 |  19005 |  34199 x$:P;#  
      3 |  7:36.00 |  3:21.22 |  34200 |  49296 Un~8N  
      4 | 10:57.22 |  3:52.00 |  49297 |  66696 ~YH'&L.O  
      5 | 14:49.22 |  8:39.10 |  66697 | 105631 o#^(mGj_.  
      6 | 23:28.32 |  6:56.10 | 105632 | 136841 xpO'.xEs  
&2P+9j>  
+=V[7^K;  
范围状态及错误 mr 6~8 I  
jQ"z\}Wf  
已选择范围 <27:O,I  
;!C~_{/t  
     文件名 J:\12 Music*音乐\[Single] 1997 Blood On The Dance Floor (CA - 49K 78008) 6 track\CDImage.wav C)a;zU;9  
,\Q^[e!m~  
     峰值电平 100.0 % u alpm#GU  
     抓取速度 5.7 X S#:yl>2  
     范围质量 100.0 % WXj iKW(  
     复制 CRC 3FFA05B1 Fmd^9K  
     复制成功 # h/#h\  
9*<=K  
没有错误发生 %*A|hK+G:W  
;k=&ZV  
状态报告结尾
Po1/_# mu  
 n$u@v(I  
此帖售价 20 金钱,已有 14 人购买 [记录] [购买]
购买后,将显示帖子中所有出售内容。
若发现会员采用欺骗的方法获取财富,请立刻举报,我们会对会员处以2-N倍的罚金,严重者封掉ID!
此段为出售的内容,购买后显示
离线thriller001

发帖
148
金钱
34
威望
19
贡献值
18
交易币
221
只看该作者 1楼 发表于: 2015-08-18
不错喜欢这首歌曲
离线mich008

发帖
831
金钱
5836
威望
24
贡献值
15
交易币
893
只看该作者 2楼 发表于: 2015-08-19
这首歌发行量应该不错
离线wannam

发帖
2702
金钱
87012
威望
382
贡献值
189
交易币
3345
只看该作者 3楼 发表于: 2015-08-20
舞曲专辑里最喜欢的一首。
离线小李

发帖
233
金钱
190
威望
99
贡献值
8
交易币
205
只看该作者 4楼 发表于: 2015-09-10
谢谢分享,感谢
离线Mr灬W

发帖
1129
金钱
12950
威望
161
贡献值
56
交易币
1282
只看该作者 5楼 发表于: 2015-09-21
最喜欢的单曲之一...感谢分享!
Heal The World
离线lifan_npl

发帖
2185
金钱
16546
威望
783
贡献值
348
交易币
2542
只看该作者 6楼 发表于: 2015-11-21
很罕见的单曲    谢谢分享 ~ H"-km"@  
我的淘宝:
http://shop63152617.taobao.com  
离线肯尼

发帖
955
金钱
7410
威望
431
贡献值
228
交易币
1440
只看该作者 7楼 发表于: 2015-12-30
感谢~~
顺势待发张元穹 Kenny Saxton @肯尼 & 齐奕同Michael Qi @迈颤我栗
2014年6月25日 合辑 火热制作中
2014 MJFantastics Music International Ltd.
离线自作主张

发帖
346
金钱
3051
威望
80
贡献值
43
交易币
443
只看该作者 8楼 发表于: 2016-02-07
不错喜欢这首歌曲
离线魏聪

发帖
168
金钱
2713
威望
41
贡献值
21
交易币
103
只看该作者 9楼 发表于: 2016-02-27
这首歌感觉不错
快速回复
限100 字节
 
上一个 下一个