论坛风格切换切换到宽版
  • 952阅读
  • 14回复

[亲传][Single] 1997 Blood On The Dance Floor (CA - 49K 78008) - WAV整轨 ♬by幽灵 [复制链接]

上一主题 下一主题
离线mjghosts
 

发帖
8194
金钱
205225
威望
9035
贡献值
2641
交易币
4553
只看楼主 倒序阅读 楼主  发表于: 2015-08-18
— 本帖被 mjghosts 执行加亮操作(2015-08-18) —
注:独家整理,转载请注明出处!EAC无损整轨(压缩包内含CD图片) --->另有Apple Lossless版本:http://www.mjsunny.com/read.php?tid=63876 FLi(#9  
`4$4bXrP'  
解压密码:www.mjsunny.com
l6',  
03P N{<  
Q x9>,e6+  
iMP*]K-O  
 5xG|35Pj  
Exact Audio Copy V1.0 beta 6 from 9. April 2015 g5lmUKlQ$0  
MLkL.1eGSb  
EAC 抓取日志文件从15. 八月 2015, 3:20 a7XXhsZ  
_)HD4,`  
Michael Jackson / Blood On The Dance Floor *#9VC)Q  
]+^;vc 1r  
使用驱动器  :MATSHITADVD-RAM UJ890AS   Adapter: 1  ID: 1 i6meY$l  
ZXF AuF  
读取模式      : 可靠Secure gaLEhf^  
使用精确流     : 是 _A@fP[C  
清空音频缓存    : 否 W\ 1bE(AwZ  
使用 C2 指示器 : 是 |_hioMVz  
lpM>}0v   
读取偏移校正:               : 0 oTplxF1  
读取 Lead-In 和 Lead-Out : 否 3p?<iVE  
用静音填充抓取中丢失偏移的采样       : 是 @%I_&!d  
去除首尾静音块               : 否 $UFge%`,q@  
在CRC 计算中使用了空样本       : 是 )[@YHE5g  
已用接口                  : Win NT 及 2000 本地 Win32 接口 fg>B  
cJ7{4YK_#/  
所用输出模式: : 内部 WAV 函数  #{)r*"%  
样本格式    : 44.100 Hz; 16 Bit; 立体声 m>Yo 9/XpZ  
L5-T6CD  
. BYKdxa  
已抓取 CD 的 TOC Xh7~MU~X  
zAkc 67:  
     音轨 |    起始    |    长度    |  起始扇区  |  结束扇区   A4 A6F<  
    -------------------------------------------- U- *8%>Qp  
      1 |  0:00.00 |  4:13.30 |      0 |  19004 k *G!.  
      2 |  4:13.30 |  3:22.45 |  19005 |  34199 Oet#wp/I  
      3 |  7:36.00 |  3:21.22 |  34200 |  49296 &(H)gjH  
      4 | 10:57.22 |  3:52.00 |  49297 |  66696 -$L],q_S^  
      5 | 14:49.22 |  8:39.10 |  66697 | 105631 /A[oj2un  
      6 | 23:28.32 |  6:56.10 | 105632 | 136841 7T|J[W O  
`lu"yF  
4mM2C`I  
范围状态及错误 d0H  
p^4;fD  
已选择范围 V. bH$@ej  
@o3R`ZgC]\  
     文件名 J:\12 Music*音乐\[Single] 1997 Blood On The Dance Floor (CA - 49K 78008) 6 track\CDImage.wav :cmI"Bo  
w ~L\Ebg  
     峰值电平 100.0 % qUoMg%Z%l  
     抓取速度 5.7 X d=4f`q0k  
     范围质量 100.0 % z|DA _dG  
     复制 CRC 3FFA05B1 WFeMr%Zqh>  
     复制成功 HgSmAziv  
bWQORjnd8  
没有错误发生 Rbj+P;t&  
z:i X]df  
状态报告结尾
C tC`:!Q  
4MtqQq4%  
此帖售价 20 金钱,已有 13 人购买 [记录] [购买]
购买后,将显示帖子中所有出售内容。
若发现会员采用欺骗的方法获取财富,请立刻举报,我们会对会员处以2-N倍的罚金,严重者封掉ID!
此段为出售的内容,购买后显示
离线thriller001

发帖
136
金钱
164
威望
19
贡献值
18
交易币
209
只看该作者 1楼 发表于: 2015-08-18
不错喜欢这首歌曲
离线mich008

发帖
756
金钱
4938
威望
24
贡献值
15
交易币
818
只看该作者 2楼 发表于: 2015-08-19
这首歌发行量应该不错
离线wannam

发帖
2584
金钱
75519
威望
363
贡献值
169
交易币
3227
只看该作者 3楼 发表于: 2015-08-20
舞曲专辑里最喜欢的一首。
离线小李

发帖
200
金钱
176
威望
98
贡献值
7
交易币
168
只看该作者 4楼 发表于: 2015-09-10
谢谢分享,感谢
离线Mr灬W

发帖
1147
金钱
12923
威望
151
贡献值
46
交易币
1272
只看该作者 5楼 发表于: 2015-09-21
最喜欢的单曲之一...感谢分享!
Heal The World
离线lifan_npl

发帖
2062
金钱
18203
威望
777
贡献值
337
交易币
2415
只看该作者 6楼 发表于: 2015-11-21
很罕见的单曲    谢谢分享 6&0a?Xu  
我的淘宝:
http://shop63152617.taobao.com  
离线肯尼

发帖
888
金钱
5322
威望
385
贡献值
188
交易币
1333
只看该作者 7楼 发表于: 2015-12-30
感谢~~
顺势待发张元穹 Kenny Saxton @肯尼 & 齐奕同Michael Qi @迈颤我栗
2014年6月25日 合辑 火热制作中
2014 MJFantastics Music International Ltd.
离线自作主张

发帖
335
金钱
2833
威望
78
贡献值
43
交易币
432
只看该作者 8楼 发表于: 2016-02-07
不错喜欢这首歌曲
离线魏聪

发帖
159
金钱
2897
威望
41
贡献值
21
交易币
94
只看该作者 9楼 发表于: 2016-02-27
这首歌感觉不错
快速回复
限100 字节
 
上一个 下一个