论坛风格切换切换到宽版
  • 1252阅读
  • 15回复

[亲传][Single] 1997 Blood On The Dance Floor (CA - 49K 78008) - WAV整轨 ♬by幽灵 [复制链接]

上一主题 下一主题
离线mjghosts
 

发帖
8256
金钱
212060
威望
9166
贡献值
2715
交易币
4707
只看楼主 倒序阅读 楼主  发表于: 2015-08-18
— 本帖被 mjghosts 执行加亮操作(2015-08-18) —
注:独家整理,转载请注明出处!EAC无损整轨(压缩包内含CD图片) --->另有Apple Lossless版本:http://www.mjsunny.com/read.php?tid=63876 fL@[B{XMM  
-V+fQGZe  
解压密码:www.mjsunny.com
C{,nDa?|  
j jwY{jV  
,JjTzO  
B.{yf4a#L  
5-sxTp  
Exact Audio Copy V1.0 beta 6 from 9. April 2015 p'R}z|d)  
w,P2_xk`  
EAC 抓取日志文件从15. 八月 2015, 3:20 ;\H2U .  
>97V2W  
Michael Jackson / Blood On The Dance Floor LsmC/+7r$1  
2#rF/!`^  
使用驱动器  :MATSHITADVD-RAM UJ890AS   Adapter: 1  ID: 1 A/o=a#  
UrtN3icph  
读取模式      : 可靠Secure [3\}Ca1  
使用精确流     : 是 ;Z8K3p  
清空音频缓存    : 否 cLXMq"?C  
使用 C2 指示器 : 是 8L&#<Ol  
{? 6]_J  
读取偏移校正:               : 0 /6f$%:q  
读取 Lead-In 和 Lead-Out : 否 7wZKK0;T  
用静音填充抓取中丢失偏移的采样       : 是 /|>z7#?m^  
去除首尾静音块               : 否 (llg!1  
在CRC 计算中使用了空样本       : 是 Er%nSH^"  
已用接口                  : Win NT 及 2000 本地 Win32 接口 b>o38(  
h>fY'r)DAx  
所用输出模式: : 内部 WAV 函数 iptzVr#b[  
样本格式    : 44.100 Hz; 16 Bit; 立体声 tQ*5[F,fm  
)WD<Q x&  
0(64}T)  
已抓取 CD 的 TOC sqsBGFeG  
rFGbp8(2  
     音轨 |    起始    |    长度    |  起始扇区  |  结束扇区   A?Uyj  
    -------------------------------------------- V+DN<F-  
      1 |  0:00.00 |  4:13.30 |      0 |  19004 QKe=/;  
      2 |  4:13.30 |  3:22.45 |  19005 |  34199 A5z5e# ,u  
      3 |  7:36.00 |  3:21.22 |  34200 |  49296 0>>tdd7  
      4 | 10:57.22 |  3:52.00 |  49297 |  66696 ^ @sg{_.~l  
      5 | 14:49.22 |  8:39.10 |  66697 | 105631 \y{C>! WX4  
      6 | 23:28.32 |  6:56.10 | 105632 | 136841 LKTIwb>  
6 fL=2a  
U+URj <)  
范围状态及错误 L_Ff*   
RYy_Ppn96f  
已选择范围 /0@'8f\I  
Il,2^54q  
     文件名 J:\12 Music*音乐\[Single] 1997 Blood On The Dance Floor (CA - 49K 78008) 6 track\CDImage.wav [a`89'"z  
%?^IS&]Z  
     峰值电平 100.0 % EH=[!iW;  
     抓取速度 5.7 X VMZ\9IwI  
     范围质量 100.0 % g Q6_]~4  
     复制 CRC 3FFA05B1 +co VE^/w  
     复制成功 Et}S*!IS  
i]Njn k  
没有错误发生 j KGfm9|zj  
OWx-I\:  
状态报告结尾
8KiG(6*Q  
sIJl9  
此帖售价 20 金钱,已有 14 人购买 [记录] [购买]
购买后,将显示帖子中所有出售内容。
若发现会员采用欺骗的方法获取财富,请立刻举报,我们会对会员处以2-N倍的罚金,严重者封掉ID!
此段为出售的内容,购买后显示
离线thriller001

发帖
145
金钱
44
威望
19
贡献值
18
交易币
218
只看该作者 1楼 发表于: 2015-08-18
不错喜欢这首歌曲
离线mich008

发帖
805
金钱
5199
威望
24
贡献值
15
交易币
867
只看该作者 2楼 发表于: 2015-08-19
这首歌发行量应该不错
离线wannam

发帖
2698
金钱
86889
威望
382
贡献值
189
交易币
3341
只看该作者 3楼 发表于: 2015-08-20
舞曲专辑里最喜欢的一首。
在线小李

发帖
219
金钱
137
威望
98
贡献值
7
交易币
187
只看该作者 4楼 发表于: 2015-09-10
谢谢分享,感谢
离线Mr灬W

发帖
1128
金钱
12839
威望
161
贡献值
56
交易币
1281
只看该作者 5楼 发表于: 2015-09-21
最喜欢的单曲之一...感谢分享!
Heal The World
离线lifan_npl

发帖
2132
金钱
17379
威望
787
贡献值
347
交易币
2485
只看该作者 6楼 发表于: 2015-11-21
很罕见的单曲    谢谢分享 L~)8Q(f  
我的淘宝:
http://shop63152617.taobao.com  
离线肯尼

发帖
950
金钱
6396
威望
423
贡献值
226
交易币
1427
只看该作者 7楼 发表于: 2015-12-30
感谢~~
顺势待发张元穹 Kenny Saxton @肯尼 & 齐奕同Michael Qi @迈颤我栗
2014年6月25日 合辑 火热制作中
2014 MJFantastics Music International Ltd.
离线自作主张

发帖
339
金钱
3158
威望
80
贡献值
43
交易币
436
只看该作者 8楼 发表于: 2016-02-07
不错喜欢这首歌曲
离线魏聪

发帖
162
金钱
2911
威望
41
贡献值
21
交易币
97
只看该作者 9楼 发表于: 2016-02-27
这首歌感觉不错
快速回复
限100 字节
 
上一个 下一个