论坛风格切换切换到宽版
  • 1044阅读
  • 14回复

[亲传][Single] 1997 Blood On The Dance Floor (CA - 49K 78008) - WAV整轨 ♬by幽灵 [复制链接]

上一主题 下一主题
在线mjghosts
 

发帖
8228
金钱
208461
威望
9161
贡献值
2712
交易币
4667
只看楼主 倒序阅读 楼主  发表于: 2015-08-18
— 本帖被 mjghosts 执行加亮操作(2015-08-18) —
注:独家整理,转载请注明出处!EAC无损整轨(压缩包内含CD图片) --->另有Apple Lossless版本:http://www.mjsunny.com/read.php?tid=63876 <&#]|HGc  
ONy\/lu|  
解压密码:www.mjsunny.com
:2 :VMIa  
Ty~z%=H  
r%ebC   
-Eq[J k  
<%m1+%mA.  
Exact Audio Copy V1.0 beta 6 from 9. April 2015 U:3O E97  
rKFnivGT  
EAC 抓取日志文件从15. 八月 2015, 3:20 N|>JLZ>  
ePJ_O~c  
Michael Jackson / Blood On The Dance Floor La '6k  
<Z.{q Zd  
使用驱动器  :MATSHITADVD-RAM UJ890AS   Adapter: 1  ID: 1 G8%VL^;O*5  
"M[&4'OM  
读取模式      : 可靠Secure +L.D3  
使用精确流     : 是 DbFe;3  
清空音频缓存    : 否 _,aFQ^]'9  
使用 C2 指示器 : 是 jXALL8[c  
m;{HlDez  
读取偏移校正:               : 0 !z4I-a  
读取 Lead-In 和 Lead-Out : 否 V59!}kel1%  
用静音填充抓取中丢失偏移的采样       : 是 4[]*=  
去除首尾静音块               : 否 (GL'm[V  
在CRC 计算中使用了空样本       : 是 ftPhE)i  
已用接口                  : Win NT 及 2000 本地 Win32 接口 p"~@q}3  
_xi &%F/  
所用输出模式: : 内部 WAV 函数 =LK`m NA  
样本格式    : 44.100 Hz; 16 Bit; 立体声 `fX\pOk~e  
JLoE)\Mi  
#4LTUVH  
已抓取 CD 的 TOC Oe@w$?  
Bd=K40Z:  
     音轨 |    起始    |    长度    |  起始扇区  |  结束扇区   s}` |!Vyl  
    -------------------------------------------- t4:/qy  
      1 |  0:00.00 |  4:13.30 |      0 |  19004 KV&6v`K/N  
      2 |  4:13.30 |  3:22.45 |  19005 |  34199 +cmi?~KS*  
      3 |  7:36.00 |  3:21.22 |  34200 |  49296 MwSfuP  
      4 | 10:57.22 |  3:52.00 |  49297 |  66696 b|kL*{;  
      5 | 14:49.22 |  8:39.10 |  66697 | 105631 eA?|X|  
      6 | 23:28.32 |  6:56.10 | 105632 | 136841 ~/aCzx~  
R!X+-  
FrLv%tK|  
范围状态及错误 *nHMQ/uf  
7u :kR;wk  
已选择范围 6iEg]FI  
J#3[,~  
     文件名 J:\12 Music*音乐\[Single] 1997 Blood On The Dance Floor (CA - 49K 78008) 6 track\CDImage.wav THK^u+~LM  
KV6D0~  
     峰值电平 100.0 % -G_3B(]`  
     抓取速度 5.7 X c_.Fe'E  
     范围质量 100.0 % M&9urOa`  
     复制 CRC 3FFA05B1 2<w vO 9  
     复制成功 $2}%3{<j  
%yl17:h#  
没有错误发生 "o_'q@.}  
MtoOIkQ  
状态报告结尾
Y ZuA"l Y  
M1*bT@ 6  
此帖售价 20 金钱,已有 13 人购买 [记录] [购买]
购买后,将显示帖子中所有出售内容。
若发现会员采用欺骗的方法获取财富,请立刻举报,我们会对会员处以2-N倍的罚金,严重者封掉ID!
此段为出售的内容,购买后显示
离线thriller001

发帖
136
金钱
164
威望
19
贡献值
18
交易币
209
只看该作者 1楼 发表于: 2015-08-18
不错喜欢这首歌曲
在线mich008

发帖
777
金钱
5053
威望
24
贡献值
15
交易币
839
只看该作者 2楼 发表于: 2015-08-19
这首歌发行量应该不错
离线wannam

发帖
2666
金钱
80618
威望
382
贡献值
189
交易币
3309
只看该作者 3楼 发表于: 2015-08-20
舞曲专辑里最喜欢的一首。
离线小李

发帖
207
金钱
182
威望
98
贡献值
7
交易币
175
只看该作者 4楼 发表于: 2015-09-10
谢谢分享,感谢
离线Mr灬W

发帖
1156
金钱
12831
威望
161
贡献值
56
交易币
1281
只看该作者 5楼 发表于: 2015-09-21
最喜欢的单曲之一...感谢分享!
Heal The World
离线lifan_npl

发帖
2076
金钱
18269
威望
787
贡献值
347
交易币
2429
只看该作者 6楼 发表于: 2015-11-21
很罕见的单曲    谢谢分享 K#v@bu:'  
我的淘宝:
http://shop63152617.taobao.com  
在线肯尼

发帖
890
金钱
5333
威望
385
贡献值
188
交易币
1335
只看该作者 7楼 发表于: 2015-12-30
感谢~~
顺势待发张元穹 Kenny Saxton @肯尼 & 齐奕同Michael Qi @迈颤我栗
2014年6月25日 合辑 火热制作中
2014 MJFantastics Music International Ltd.
离线自作主张

发帖
335
金钱
2932
威望
78
贡献值
43
交易币
432
只看该作者 8楼 发表于: 2016-02-07
不错喜欢这首歌曲
离线魏聪

发帖
159
金钱
2897
威望
41
贡献值
21
交易币
94
只看该作者 9楼 发表于: 2016-02-27
这首歌感觉不错
快速回复
限100 字节
 
上一个 下一个