论坛风格切换切换到宽版
  • 880阅读
  • 14回复

[亲传][Single] 1997 Blood On The Dance Floor (CA - 49K 78008) - WAV整轨 ♬by幽灵 [复制链接]

上一主题 下一主题
离线mjghosts
 

发帖
8191
金钱
204337
威望
9035
贡献值
2641
交易币
4550
只看楼主 倒序阅读 楼主  发表于: 2015-08-18
— 本帖被 mjghosts 执行加亮操作(2015-08-18) —
注:独家整理,转载请注明出处!EAC无损整轨(压缩包内含CD图片) --->另有Apple Lossless版本:http://www.mjsunny.com/read.php?tid=63876 'pB?  
=&(e*u_  
解压密码:www.mjsunny.com
2<:dA >1  
|nGv:= H@  
6\`8b&'n  
?CcX>R-/  
k4E9=y?  
Exact Audio Copy V1.0 beta 6 from 9. April 2015 (@;^uVJP  
m9+?>/R  
EAC 抓取日志文件从15. 八月 2015, 3:20 # s7e/GdKb  
7>0u N|  
Michael Jackson / Blood On The Dance Floor M9m~ck  
N">#fYix  
使用驱动器  :MATSHITADVD-RAM UJ890AS   Adapter: 1  ID: 1 -Q&@P3x  
0rm(i*Q  
读取模式      : 可靠Secure TQ0ZBhd  
使用精确流     : 是 c]bG5  
清空音频缓存    : 否 4=;j.=>0X  
使用 C2 指示器 : 是 .w'b%M  
6a_U[-a9;  
读取偏移校正:               : 0 E'5KJn;_7  
读取 Lead-In 和 Lead-Out : 否 nwC*w`4  
用静音填充抓取中丢失偏移的采样       : 是 .D\oKhV(  
去除首尾静音块               : 否 F w t  
在CRC 计算中使用了空样本       : 是 Q1rEUbvCE  
已用接口                  : Win NT 及 2000 本地 Win32 接口 $R+gA{49%  
z( }w|  
所用输出模式: : 内部 WAV 函数 &m   GU  
样本格式    : 44.100 Hz; 16 Bit; 立体声 /e*fsQ>M:  
'J5F+, \Ka  
^u1Nbo  
已抓取 CD 的 TOC uXLZ!LJo  
N:'!0|6?x-  
     音轨 |    起始    |    长度    |  起始扇区  |  结束扇区   !H{>c@i  
    -------------------------------------------- <r`;$K  
      1 |  0:00.00 |  4:13.30 |      0 |  19004 NGkxg:  
      2 |  4:13.30 |  3:22.45 |  19005 |  34199 [{Q$$aV1  
      3 |  7:36.00 |  3:21.22 |  34200 |  49296 o?Cc  
      4 | 10:57.22 |  3:52.00 |  49297 |  66696 \Q1&w2mw  
      5 | 14:49.22 |  8:39.10 |  66697 | 105631 );6f8H@G  
      6 | 23:28.32 |  6:56.10 | 105632 | 136841 b-#lKW so  
m%>}T 75C^  
+R HiX!PG  
范围状态及错误 ,Z _@]D@  
aNNRw(0/  
已选择范围 #s15AyKz5  
'5[(QM5Gi&  
     文件名 J:\12 Music*音乐\[Single] 1997 Blood On The Dance Floor (CA - 49K 78008) 6 track\CDImage.wav KG9-ac  
@G=7A;-pv0  
     峰值电平 100.0 % fjl 9*  
     抓取速度 5.7 X vNuws_  
     范围质量 100.0 % I"x|U[*B  
     复制 CRC 3FFA05B1 g1"Z pD  
     复制成功 un -h%-e |  
u a_w5o7  
没有错误发生 b7I0R; Zj  
|9IOZ>H9  
状态报告结尾
/2c(6h  
<OKc?[  
此帖售价 20 金钱,已有 13 人购买 [记录] [购买]
购买后,将显示帖子中所有出售内容。
若发现会员采用欺骗的方法获取财富,请立刻举报,我们会对会员处以2-N倍的罚金,严重者封掉ID!
此段为出售的内容,购买后显示
离线thriller001

发帖
136
金钱
164
威望
19
贡献值
18
交易币
209
只看该作者 1楼 发表于: 2015-08-18
不错喜欢这首歌曲
离线mich008

发帖
750
金钱
4942
威望
24
贡献值
15
交易币
812
只看该作者 2楼 发表于: 2015-08-19
这首歌发行量应该不错
离线wannam

发帖
2547
金钱
69379
威望
363
贡献值
169
交易币
3190
只看该作者 3楼 发表于: 2015-08-20
舞曲专辑里最喜欢的一首。
离线小李

发帖
199
金钱
163
威望
97
贡献值
6
交易币
163
只看该作者 4楼 发表于: 2015-09-10
谢谢分享,感谢
离线Mr灬W

发帖
1146
金钱
13022
威望
151
贡献值
46
交易币
1271
只看该作者 5楼 发表于: 2015-09-21
最喜欢的单曲之一...感谢分享!
Heal The World
离线lifan_npl

发帖
2058
金钱
18220
威望
777
贡献值
337
交易币
2411
只看该作者 6楼 发表于: 2015-11-21
很罕见的单曲    谢谢分享 &)Qq%\EP4  
我的淘宝:
http://shop63152617.taobao.com  
离线肯尼

发帖
883
金钱
5216
威望
385
贡献值
188
交易币
1328
只看该作者 7楼 发表于: 2015-12-30
感谢~~
顺势待发张元穹 Kenny Saxton @肯尼 & 齐奕同Michael Qi @迈颤我栗
2014年6月25日 合辑 火热制作中
2014 MJFantastics Music International Ltd.
离线自作主张

发帖
334
金钱
2793
威望
78
贡献值
43
交易币
431
只看该作者 8楼 发表于: 2016-02-07
不错喜欢这首歌曲
离线魏聪

发帖
159
金钱
2897
威望
41
贡献值
21
交易币
94
只看该作者 9楼 发表于: 2016-02-27
这首歌感觉不错
快速回复
限100 字节
 
上一个 下一个