论坛风格切换切换到宽版
  • 930阅读
  • 15回复

[亲传][Single] 1993 Will You Be There (EU - EPC 659222 2) - WAV整轨 ♬by幽灵 [复制链接]

上一主题 下一主题
离线mjghosts
 

发帖
8191
金钱
204337
威望
9035
贡献值
2641
交易币
4550
只看楼主 倒序阅读 楼主  发表于: 2015-08-19
— 本帖被 mjghosts 执行加亮操作(2015-08-19) —
注:独家整理,转载请注明出处!EAC无损整轨(压缩包内含CD图片) GYx0U8MJ[e  
RyJy%| \-S  
解压密码:www.mjsunny.com
+QU>D:l  
t\K (zE  
ZOqS"3j! j  
&.,K@OFE}  
I_<XL<  
y|}~"^+T  
Exact Audio Copy V1.0 beta 6 from 9. April 2015 W5 F\e[Ax5  
{h@\C|nF  
EAC 抓取日志文件从15. 八月 2015, 1:27 [j+:2@  
D=-}&w_T"  
Michael Jackson / Will You Be There Q?k *3A  
TlS? S+  
使用驱动器  :MATSHITADVD-RAM UJ890AS   Adapter: 1  ID: 1 :+,;5  
b&U1^{(  
读取模式      : 可靠Secure  2h   
使用精确流     : 是 ,x8;| o5  
清空音频缓存    : 否  vmqa_gU\  
使用 C2 指示器 : 是 {Yj5Mj|#  
[tpiU'/Zl  
读取偏移校正:               : 0 ?bB>}:~j)  
读取 Lead-In 和 Lead-Out : 否 Y<xqws  
用静音填充抓取中丢失偏移的采样       : 是 /| v.A\ :  
去除首尾静音块               : 否 r)iEtT!p*  
在CRC 计算中使用了空样本       : 是 MxsLrWxm  
已用接口                  : Win NT 及 2000 本地 Win32 接口 xnY?<?J"!  
@V%\Gspv  
所用输出模式: : 内部 WAV 函数 UX)GA[WI  
样本格式    : 44.100 Hz; 16 Bit; 立体声 n%&L&G  
M~taZt4  
fu "cX;  
已抓取 CD 的 TOC !=dz^f.{  
Bu{Kjv  
     音轨 |    起始    |    长度    |  起始扇区  |  结束扇区   h Qn?qJy%W  
    -------------------------------------------- (9]Uuvfp6"  
      1 |  0:00.00 |  5:22.02 |      0 |  24151 E3uu vQ#|  
      2 |  5:22.02 |  5:21.68 |  24152 |  48294 2Vx4"fHP#N  
      3 | 10:43.70 |  3:06.32 |  48295 |  62276 b>07t!;  
      4 | 13:50.27 |  7:40.70 |  62277 |  96846 o<Zlm)"%1  
)eyzHB,H  
Y Zj-%5  
范围状态及错误 *7!MG  
fkxkf^g)  
已选择范围 V:n0BlZ,B  
0?7yM:!l  
     文件名 J:\12 Music*音乐\[Single, CD] 1993 Will You Be There (EU - EPC 659222 2) 4 track\CDImage.wav <]rayUyaf  
#1<m\z7l  
     峰值电平 100.0 % [b++bCH3  
     抓取速度 5.1 X .|,LBc!  
     范围质量 100.0 % YdhTjvx  
     复制 CRC 3F9B6C93 9Dx~! (  
     复制成功 LqWiw24#  
fd)8lK[KJ"  
没有错误发生 /@9Q:'P  
HMq}){=S  
状态报告结尾
Z0<Vss  
2/?Zp=|j\  
此帖售价 20 金钱,已有 11 人购买 [记录] [购买]
购买后,将显示帖子中所有出售内容。
若发现会员采用欺骗的方法获取财富,请立刻举报,我们会对会员处以2-N倍的罚金,严重者封掉ID!
此段为出售的内容,购买后显示
离线q965488338

发帖
709
金钱
27814
威望
224
贡献值
96
交易币
1082
只看该作者 1楼 发表于: 2015-08-19
不错。。。
离线mich008

发帖
750
金钱
4947
威望
24
贡献值
15
交易币
812
只看该作者 2楼 发表于: 2015-08-19
迈克为孩子们写的歌 很是欣赏
离线hzh

发帖
8430
金钱
85790
威望
616
贡献值
337
交易币
9682
只看该作者 3楼 发表于: 2015-08-19
你买单曲碟了?
离线mjghosts

发帖
8191
金钱
204337
威望
9035
贡献值
2641
交易币
4550
只看该作者 4楼 发表于: 2015-08-20
回 hzh 的帖子
hzh:你买单曲碟了? (2015-08-19 20:00)  Dmtsu2o  
ylmVmHmc  
是的。                    
离线wannam

发帖
2554
金钱
69420
威望
363
贡献值
169
交易币
3197
只看该作者 5楼 发表于: 2015-08-20
这首歌的和声非常好听。
离线耶稣

发帖
6459
金钱
181108
威望
1800
贡献值
1197
交易币
9629
只看该作者 6楼 发表于: 2015-08-23
蛮不错的!!!



离线marlene55555

发帖
1161
金钱
34311
威望
293
贡献值
98
交易币
1337
只看该作者 7楼 发表于: 2015-09-11
\(^o^)/~
离线Mr灬W

发帖
1146
金钱
13022
威望
151
贡献值
46
交易币
1271
只看该作者 8楼 发表于: 2015-09-21
感谢分享!!!
Heal The World
离线arfongs

发帖
306
金钱
5036
威望
21
贡献值
22
交易币
395
只看该作者 9楼 发表于: 2015-10-01
谢谢了!
Every day create your history~

快速回复
限100 字节
 
上一个 下一个