论坛风格切换切换到宽版
  • 1315阅读
  • 16回复

[亲传][Single] 1993 Will You Be There (EU - EPC 659222 2) - WAV整轨 ♬by幽灵 [复制链接]

上一主题 下一主题
离线mjghosts
 

发帖
8258
金钱
212473
威望
9166
贡献值
2715
交易币
4709
只看楼主 倒序阅读 楼主  发表于: 2015-08-19
— 本帖被 mjghosts 执行加亮操作(2015-08-19) —
注:独家整理,转载请注明出处!EAC无损整轨(压缩包内含CD图片)  q$$:<*Uy  
4~Ptn/ g  
解压密码:www.mjsunny.com
B!|<<;Da6  
gU7@}P  
~f&lQN'1  
)D ^.{70N  
c+l1#[Dnc  
jk-hIl&  
Exact Audio Copy V1.0 beta 6 from 9. April 2015 V[f-Nj Kf  
Lpw9hj|  
EAC 抓取日志文件从15. 八月 2015, 1:27 1JIL6w_  
`}:q@: %  
Michael Jackson / Will You Be There y,&UST  
h8;B+#f`  
使用驱动器  :MATSHITADVD-RAM UJ890AS   Adapter: 1  ID: 1 c"BFkw  
FQ dz":5  
读取模式      : 可靠Secure 8 wGq:@# =  
使用精确流     : 是 /]H6'  
清空音频缓存    : 否 N ]/ N}b  
使用 C2 指示器 : 是 j8p</gd  
aRSGI ja<L  
读取偏移校正:               : 0 I&9_F% rX  
读取 Lead-In 和 Lead-Out : 否 *1F DK{  
用静音填充抓取中丢失偏移的采样       : 是 /Y=Cg%+  
去除首尾静音块               : 否 T: zO9C/  
在CRC 计算中使用了空样本       : 是 8 xfn$  
已用接口                  : Win NT 及 2000 本地 Win32 接口 <sU?q<MC  
x`7Ch3`4}  
所用输出模式: : 内部 WAV 函数 OS$}ej\  
样本格式    : 44.100 Hz; 16 Bit; 立体声 i rjOGn  
j-~x==c-;  
ar&j1""  
已抓取 CD 的 TOC Zr(4Q9fDo  
rCK   
     音轨 |    起始    |    长度    |  起始扇区  |  结束扇区   o*k.je1  
    -------------------------------------------- DX2_} |$!  
      1 |  0:00.00 |  5:22.02 |      0 |  24151 m/e*P*\ =  
      2 |  5:22.02 |  5:21.68 |  24152 |  48294 a1>Tz  
      3 | 10:43.70 |  3:06.32 |  48295 |  62276 FUP0X2P   
      4 | 13:50.27 |  7:40.70 |  62277 |  96846 aD&4C -,1  
xrZzfg  
YfstE3BV  
范围状态及错误 |\U5m6q  
z[qi~&7:v  
已选择范围 F@b=S0}K  
(sSGJS'X  
     文件名 J:\12 Music*音乐\[Single, CD] 1993 Will You Be There (EU - EPC 659222 2) 4 track\CDImage.wav /bF>cpM  
hlfdmh? /  
     峰值电平 100.0 % tF6-@T\6  
     抓取速度 5.1 X f VJWW):  
     范围质量 100.0 % SX&Q5:  
     复制 CRC 3F9B6C93 i0Rj;E=:]  
     复制成功 F:~@e(  
v3G$9 (NE;  
没有错误发生 DS_0p|2  
qlnA7cK!  
状态报告结尾
m/;fY>}3  
bR;.KC3C  
此帖售价 20 金钱,已有 12 人购买 [记录] [购买]
购买后,将显示帖子中所有出售内容。
若发现会员采用欺骗的方法获取财富,请立刻举报,我们会对会员处以2-N倍的罚金,严重者封掉ID!
此段为出售的内容,购买后显示
离线q965488338

发帖
709
金钱
28138
威望
224
贡献值
96
交易币
1082
只看该作者 1楼 发表于: 2015-08-19
不错。。。
离线mich008

发帖
811
金钱
5257
威望
24
贡献值
15
交易币
873
只看该作者 2楼 发表于: 2015-08-19
迈克为孩子们写的歌 很是欣赏
离线hzh

发帖
8734
金钱
95072
威望
616
贡献值
338
交易币
9990
只看该作者 3楼 发表于: 2015-08-19
你买单曲碟了?
离线mjghosts

发帖
8258
金钱
212473
威望
9166
贡献值
2715
交易币
4709
只看该作者 4楼 发表于: 2015-08-20
回 hzh 的帖子
hzh:你买单曲碟了? (2015-08-19 20:00)  o>bi~(H  
J9DI(`  
是的。                    
离线wannam

发帖
2698
金钱
86901
威望
382
贡献值
189
交易币
3341
只看该作者 5楼 发表于: 2015-08-20
这首歌的和声非常好听。
离线耶稣

发帖
7064
金钱
246450
威望
2438
贡献值
1612
交易币
11003
只看该作者 6楼 发表于: 2015-08-23
蛮不错的!!!




离线marlene55555

发帖
1162
金钱
34284
威望
293
贡献值
98
交易币
1338
只看该作者 7楼 发表于: 2015-09-11
\(^o^)/~
离线Mr灬W

发帖
1129
金钱
12894
威望
161
贡献值
56
交易币
1282
只看该作者 8楼 发表于: 2015-09-21
感谢分享!!!
Heal The World
离线arfongs

发帖
306
金钱
5036
威望
21
贡献值
22
交易币
395
只看该作者 9楼 发表于: 2015-10-01
谢谢了!
Every day create your history~

快速回复
限100 字节
 
上一个 下一个