论坛风格切换切换到宽版
  • 1172阅读
  • 15回复

[亲传][Single] 1993 Will You Be There (EU - EPC 659222 2) - WAV整轨 ♬by幽灵 [复制链接]

上一主题 下一主题
离线mjghosts
 

发帖
8247
金钱
210534
威望
9164
贡献值
2715
交易币
4698
只看楼主 倒序阅读 楼主  发表于: 2015-08-19
— 本帖被 mjghosts 执行加亮操作(2015-08-19) —
注:独家整理,转载请注明出处!EAC无损整轨(压缩包内含CD图片) 7dtkylW  
b[os0D95  
解压密码:www.mjsunny.com
}`^D O Ar  
G7uYkJO  
r%412 #  
`Y_G*b.Rm  
vtF|: *h  
?4cj"i  
Exact Audio Copy V1.0 beta 6 from 9. April 2015 qT~a`ou:  
.,F`*JVFq  
EAC 抓取日志文件从15. 八月 2015, 1:27 7#(0GZN9h%  
xauMF~*  
Michael Jackson / Will You Be There h"7~`!"~  
^?NLA&v<  
使用驱动器  :MATSHITADVD-RAM UJ890AS   Adapter: 1  ID: 1 _y&XFdp  
e07u@_'^  
读取模式      : 可靠Secure /DjsnU~3  
使用精确流     : 是 1'N<ITb  
清空音频缓存    : 否 5'(T*"  
使用 C2 指示器 : 是 'E&tEbY  
Gu@C* .jj!  
读取偏移校正:               : 0 KY}H-  
读取 Lead-In 和 Lead-Out : 否 p8 Ao{  
用静音填充抓取中丢失偏移的采样       : 是 BeN]D  
去除首尾静音块               : 否 vw4b@v-XQ3  
在CRC 计算中使用了空样本       : 是 z1]nC]2  
已用接口                  : Win NT 及 2000 本地 Win32 接口 MB7*AA;  
R7U%v"F>`  
所用输出模式: : 内部 WAV 函数 SZyORN  
样本格式    : 44.100 Hz; 16 Bit; 立体声 46pR!k  
+wJ!zab`  
jw9v&/-  
已抓取 CD 的 TOC mLpM8~L  
C l,vBjl h  
     音轨 |    起始    |    长度    |  起始扇区  |  结束扇区   )Z:D}r8[  
    -------------------------------------------- #XA`n@2Uoo  
      1 |  0:00.00 |  5:22.02 |      0 |  24151 ^a_a%ws  
      2 |  5:22.02 |  5:21.68 |  24152 |  48294 ~bx ev/$d  
      3 | 10:43.70 |  3:06.32 |  48295 |  62276 CDRbYO  
      4 | 13:50.27 |  7:40.70 |  62277 |  96846 M|K^u.4  
ft6)n T/"&  
<cp9+P <  
范围状态及错误 hc[ K VLpS  
`a4&_`E,p  
已选择范围 fw jo?  
%S^hqC  
     文件名 J:\12 Music*音乐\[Single, CD] 1993 Will You Be There (EU - EPC 659222 2) 4 track\CDImage.wav jU j\<aW  
C~qZ&  
     峰值电平 100.0 % FfJp::|ddr  
     抓取速度 5.1 X Swhz\/u9  
     范围质量 100.0 % p|-MwCeH  
     复制 CRC 3F9B6C93 yS W$zA,  
     复制成功 |q*yuK/  
 !Ld5Y$  
没有错误发生 :2? g_  
@Z~YFnEJi  
状态报告结尾
f8:nKb>nq$  
b w P=f.  
此帖售价 20 金钱,已有 11 人购买 [记录] [购买]
购买后,将显示帖子中所有出售内容。
若发现会员采用欺骗的方法获取财富,请立刻举报,我们会对会员处以2-N倍的罚金,严重者封掉ID!
此段为出售的内容,购买后显示
离线q965488338

发帖
709
金钱
27918
威望
224
贡献值
96
交易币
1082
只看该作者 1楼 发表于: 2015-08-19
不错。。。
离线mich008

发帖
796
金钱
5107
威望
24
贡献值
15
交易币
858
只看该作者 2楼 发表于: 2015-08-19
迈克为孩子们写的歌 很是欣赏
离线hzh

发帖
8651
金钱
91190
威望
616
贡献值
338
交易币
9907
只看该作者 3楼 发表于: 2015-08-19
你买单曲碟了?
离线mjghosts

发帖
8247
金钱
210534
威望
9164
贡献值
2715
交易币
4698
只看该作者 4楼 发表于: 2015-08-20
回 hzh 的帖子
hzh:你买单曲碟了? (2015-08-19 20:00)  ~$//4kES  
M(C$SB>  
是的。                    
离线wannam

发帖
2697
金钱
86877
威望
382
贡献值
189
交易币
3340
只看该作者 5楼 发表于: 2015-08-20
这首歌的和声非常好听。
离线耶稣

发帖
6834
金钱
227057
威望
2274
贡献值
1485
交易币
10529
只看该作者 6楼 发表于: 2015-08-23
蛮不错的!!!


离线marlene55555

发帖
1161
金钱
34314
威望
293
贡献值
98
交易币
1337
只看该作者 7楼 发表于: 2015-09-11
\(^o^)/~
离线Mr灬W

发帖
1156
金钱
12819
威望
161
贡献值
56
交易币
1281
只看该作者 8楼 发表于: 2015-09-21
感谢分享!!!
Heal The World
离线arfongs

发帖
306
金钱
5036
威望
21
贡献值
22
交易币
395
只看该作者 9楼 发表于: 2015-10-01
谢谢了!
Every day create your history~

快速回复
限100 字节
 
上一个 下一个