论坛风格切换切换到宽版
  • 1576阅读
  • 16回复

[亲传][Single] 1993 Will You Be There (EU - EPC 659222 2) - WAV整轨 ♬by幽灵 [复制链接]

上一主题 下一主题
离线mjghosts
 

发帖
8240
金钱
216247
威望
9172
贡献值
2721
交易币
4743
只看楼主 倒序阅读 楼主  发表于: 2015-08-19
— 本帖被 mjghosts 执行加亮操作(2015-08-19) —
注:独家整理,转载请注明出处!EAC无损整轨(压缩包内含CD图片) :BrnRW64  
+-KRp1qq  
解压密码:www.mjsunny.com
{KQ-Ce-6  
*F4G qX3  
,a?\i JNb  
m} F Ce  
kI1{>vYD  
Uc%`? +Q  
Exact Audio Copy V1.0 beta 6 from 9. April 2015 c K}  
(k HQKQmq  
EAC 抓取日志文件从15. 八月 2015, 1:27 cd%g]T)#1  
t;~`Lm@hY  
Michael Jackson / Will You Be There W;@ae,^  
Oj|p`Dzh  
使用驱动器  :MATSHITADVD-RAM UJ890AS   Adapter: 1  ID: 1 |"E9DD]{  
'!L1z45  
读取模式      : 可靠Secure qO3BQ]UF  
使用精确流     : 是 R3!vS+5rR  
清空音频缓存    : 否 \osQwGPV  
使用 C2 指示器 : 是 T[=cKYp8\  
k_^/   
读取偏移校正:               : 0 1e| M6*  
读取 Lead-In 和 Lead-Out : 否 0BD((oNg  
用静音填充抓取中丢失偏移的采样       : 是 (>`SS#(T!  
去除首尾静音块               : 否 :Aiu!}\  
在CRC 计算中使用了空样本       : 是 l#.,wOO{  
已用接口                  : Win NT 及 2000 本地 Win32 接口 ?Gw89r  
*lF%8k"Al  
所用输出模式: : 内部 WAV 函数 wcT6d?*5  
样本格式    : 44.100 Hz; 16 Bit; 立体声 WfO$q^'?DP  
[i#Gqx>'w  
Ls*=mh~IY  
已抓取 CD 的 TOC .w)t<7 y  
Jz'+@q6h  
     音轨 |    起始    |    长度    |  起始扇区  |  结束扇区   }dl(9H=4  
    -------------------------------------------- hZJqo +s  
      1 |  0:00.00 |  5:22.02 |      0 |  24151 'YZs6rcJ  
      2 |  5:22.02 |  5:21.68 |  24152 |  48294 oFp&j@`k8j  
      3 | 10:43.70 |  3:06.32 |  48295 |  62276 Pc1N~?}.  
      4 | 13:50.27 |  7:40.70 |  62277 |  96846 Pme?`YO$x  
V.1sZYA9  
bP@ _4Dy  
范围状态及错误 rg~CF<  
9n'p7(s%  
已选择范围 rge/jE,^~Z  
|z%,W/Ef  
     文件名 J:\12 Music*音乐\[Single, CD] 1993 Will You Be There (EU - EPC 659222 2) 4 track\CDImage.wav .$iIr:Tc>  
i_"I"5pBF  
     峰值电平 100.0 % 85mQHZ8aR  
     抓取速度 5.1 X $/H'Dt6x  
     范围质量 100.0 % 1yu!:8=ee  
     复制 CRC 3F9B6C93 $$@Tgkg?o  
     复制成功 FyEl@ }W  
E !8y|_(j  
没有错误发生 #d~"bn q;c  
Fv9Z'#t  
状态报告结尾
OjN]mp-q  
=T$E lXwJ  
此帖售价 20 金钱,已有 12 人购买 [记录] [购买]
购买后,将显示帖子中所有出售内容。
若发现会员采用欺骗的方法获取财富,请立刻举报,我们会对会员处以2-N倍的罚金,严重者封掉ID!
此段为出售的内容,购买后显示
离线q965488338

发帖
709
金钱
28283
威望
224
贡献值
96
交易币
1082
只看该作者 1楼 发表于: 2015-08-19
不错。。。
离线mich008

发帖
824
金钱
5499
威望
24
贡献值
15
交易币
886
只看该作者 2楼 发表于: 2015-08-19
迈克为孩子们写的歌 很是欣赏
离线hzh

发帖
8769
金钱
99371
威望
625
贡献值
341
交易币
10037
只看该作者 3楼 发表于: 2015-08-19
你买单曲碟了?
离线mjghosts

发帖
8240
金钱
216247
威望
9172
贡献值
2721
交易币
4743
只看该作者 4楼 发表于: 2015-08-20
回 hzh 的帖子
hzh:你买单曲碟了? (2015-08-19 20:00)  lT1*e(I  
3)__b:7J  
是的。                    
离线wannam

发帖
2701
金钱
86995
威望
382
贡献值
189
交易币
3344
只看该作者 5楼 发表于: 2015-08-20
这首歌的和声非常好听。
离线耶稣

发帖
7121
金钱
265628
威望
2471
贡献值
1638
交易币
11152
只看该作者 6楼 发表于: 2015-08-23
蛮不错的!!!


离线marlene55555

发帖
1165
金钱
34275
威望
293
贡献值
98
交易币
1341
只看该作者 7楼 发表于: 2015-09-11
\(^o^)/~
离线Mr灬W

发帖
1129
金钱
12950
威望
161
贡献值
56
交易币
1282
只看该作者 8楼 发表于: 2015-09-21
感谢分享!!!
Heal The World
离线arfongs

发帖
306
金钱
4993
威望
21
贡献值
22
交易币
395
只看该作者 9楼 发表于: 2015-10-01
谢谢了!
Every day create your history~

快速回复
限100 字节
 
上一个 下一个