论坛风格切换切换到宽版
  • 757阅读
  • 13回复

[亲传][Single] 1995 Scream/Childhood (UK - EPC 662022 2) - WAV整轨 ♬by幽灵 [复制链接]

上一主题 下一主题
离线mjghosts
 

发帖
8191
金钱
204337
威望
9035
贡献值
2641
交易币
4550
只看楼主 倒序阅读 楼主  发表于: 2015-08-21
— 本帖被 mjghosts 执行加亮操作(2015-08-21) —
注:独家整理,转载请注明出处!EAC无损整轨(压缩包内含CD图片) |Pj]sh[^Y  
 -#<AbT  
解压密码:www.mjsunny.com
e> -fI_+b  
ptMDhMVW  
% "CF-K@th  
K|sk]2.  
OH/!Ky\@  
5e}adHjM  
Exact Audio Copy V1.0 beta 6 from 9. April 2015 PJ3M,2H1b.  
bAS/cuZs  
EAC 抓取日志文件从16. 八月 2015, 22:49 g?E8zf `  
*r(Qy0(  
Michael Jackson Duet With Janet Jackson / Scream 1=z6m7@'-  
51-@4E2:l:  
使用驱动器  :MATSHITADVD-RAM UJ890AS   Adapter: 1  ID: 1 JBk >|q"  
8@A}.:  
读取模式      : 可靠Secure '|J~2rbyr  
使用精确流     : 是 ]@{l<ExP  
清空音频缓存    : 否 CWY-}M  
使用 C2 指示器 : 是 jG["#5<?  
tE WolO[\  
读取偏移校正:               : 0 *b8AN3!  
读取 Lead-In 和 Lead-Out : 否 .s-*aoj  
用静音填充抓取中丢失偏移的采样       : 是 ;u;_\k<qK  
去除首尾静音块               : 否 sT'j36Nc<,  
在CRC 计算中使用了空样本       : 是 U(/8dCyyY  
已用接口                  : Win NT 及 2000 本地 Win32 接口 ~$d(@T&  
1+ 9!W  
所用输出模式: : 内部 WAV 函数 }'`}| pM$  
样本格式    : 44.100 Hz; 16 Bit; 立体声 # 1 1<=3Yj  
(;9j#x  
GB4^ 4Ajx  
已抓取 CD 的 TOC sB8v:  
{Y|?~ha#  
     音轨 |    起始    |    长度    |  起始扇区  |  结束扇区   KAg-M#  
    -------------------------------------------- NA=m<n#  
      1 |  0:00.00 |  4:03.00 |      0 |  18224 ~9Qd83`UH  
      2 |  4:03.00 |  3:20.17 |  18225 |  33241 W. BX6  
      3 |  7:23.17 |  4:37.38 |  33242 |  54054 I,W `s  
      4 | 12:00.55 |  4:27.25 |  54055 |  74104 uCoy~kt292  
_*ar\A`  
%UlgG 1?A  
范围状态及错误 p z\8Bp}yo  
Irui{%T  
已选择范围 DE+k'8\T  
liMw(F2  
     文件名 J:\12 Music*音乐\CDImage.wav o)n= n!A  
WO6R04+WV  
     峰值电平 100.0 % 6)c-s|#  
     抓取速度 4.9 X 3&6sQ-}*  
     范围质量 100.0 % 86);0EBX  
     复制 CRC BEF7FE72 /U} )mdFm  
     复制成功 0g9y4z{H  
\-SC-c  
没有错误发生 A76H M@Q  
Rg^ps  
状态报告结尾
R90#T6^  
\OXQ%J2v  
此帖售价 20 金钱,已有 12 人购买 [记录] [购买]
购买后,将显示帖子中所有出售内容。
若发现会员采用欺骗的方法获取财富,请立刻举报,我们会对会员处以2-N倍的罚金,严重者封掉ID!
此段为出售的内容,购买后显示
-@ra~li,yQ  
离线wannam

发帖
2547
金钱
69379
威望
363
贡献值
169
交易币
3190
只看该作者 1楼 发表于: 2015-08-21
谢谢分享
在线耶稣

发帖
6459
金钱
181018
威望
1800
贡献值
1197
交易币
9629
只看该作者 2楼 发表于: 2015-08-23
美丽的迈克尔



离线marlene55555

发帖
1161
金钱
34311
威望
293
贡献值
98
交易币
1337
只看该作者 3楼 发表于: 2015-09-11
尖叫
离线小李

发帖
199
金钱
163
威望
97
贡献值
6
交易币
163
只看该作者 4楼 发表于: 2015-09-11
Childhood (UK - EPC 662022 2) - WAV整轨 ♬by幽灵
论坛里面李爽是很厉害的长春歌迷
离线Mr灬W

发帖
1146
金钱
13022
威望
151
贡献值
46
交易币
1271
只看该作者 5楼 发表于: 2015-09-21
感谢分享!
Heal The World
离线arfongs

发帖
306
金钱
5036
威望
21
贡献值
22
交易币
395
只看该作者 6楼 发表于: 2015-10-01
没听过,谢谢
Every day create your history~

离线lifan_npl

发帖
2058
金钱
18220
威望
777
贡献值
337
交易币
2411
只看该作者 7楼 发表于: 2015-11-21
很罕见的单曲    谢谢分享
我的淘宝:
http://shop63152617.taobao.com  
离线肯尼

发帖
883
金钱
5216
威望
385
贡献值
188
交易币
1328
只看该作者 8楼 发表于: 2015-12-30
感谢分享。
顺势待发张元穹 Kenny Saxton @肯尼 & 齐奕同Michael Qi @迈颤我栗
2014年6月25日 合辑 火热制作中
2014 MJFantastics Music International Ltd.
离线自作主张

发帖
334
金钱
2793
威望
78
贡献值
43
交易币
431
只看该作者 9楼 发表于: 2016-02-07
感谢分享!
快速回复
限100 字节
 
上一个 下一个