论坛风格切换切换到宽版
  • 879阅读
  • 13回复

[亲传][Single] 1995 Scream/Childhood (UK - EPC 662022 2) - WAV整轨 ♬by幽灵 [复制链接]

上一主题 下一主题
离线mjghosts
 

发帖
8224
金钱
208131
威望
9160
贡献值
2711
交易币
4659
只看楼主 倒序阅读 楼主  发表于: 2015-08-21
— 本帖被 mjghosts 执行加亮操作(2015-08-21) —
注:独家整理,转载请注明出处!EAC无损整轨(压缩包内含CD图片) w=Cq v~  
;]/>n:[ E  
解压密码:www.mjsunny.com
,j^z];  
TX/Ng+v S  
z;fi  
bvpP/LeY  
m 3k}iIU7  
VkKq<`t<  
Exact Audio Copy V1.0 beta 6 from 9. April 2015 p:g`K# [F  
b3$aPwv  
EAC 抓取日志文件从16. 八月 2015, 22:49 Qqju6}+  
8}5dyn{cvE  
Michael Jackson Duet With Janet Jackson / Scream -^a?]`3_v  
&tKr ?l  
使用驱动器  :MATSHITADVD-RAM UJ890AS   Adapter: 1  ID: 1 ctqXzM `  
I)9un|+,y  
读取模式      : 可靠Secure 8+gti*C?\  
使用精确流     : 是 IYb%f T  
清空音频缓存    : 否 G?`x$UU  
使用 C2 指示器 : 是 y}TiN!M  
}\p>h  
读取偏移校正:               : 0 e7fA-,DV  
读取 Lead-In 和 Lead-Out : 否 *&i SW~s  
用静音填充抓取中丢失偏移的采样       : 是 yW3X<  
去除首尾静音块               : 否 jSY&P/[ xb  
在CRC 计算中使用了空样本       : 是 !kzC1U  
已用接口                  : Win NT 及 2000 本地 Win32 接口 5)%bnLxn  
)T4%}$(  
所用输出模式: : 内部 WAV 函数 z% ln}  
样本格式    : 44.100 Hz; 16 Bit; 立体声 eh@6trzp=  
,}9G|$  
C&d%S|:IR  
已抓取 CD 的 TOC Y+ZQN>  
.iDxq8l  
     音轨 |    起始    |    长度    |  起始扇区  |  结束扇区   ^iWcuh_n  
    -------------------------------------------- MT`gCvoF4P  
      1 |  0:00.00 |  4:03.00 |      0 |  18224 i{['18Q$F3  
      2 |  4:03.00 |  3:20.17 |  18225 |  33241 $}{u6*u.,  
      3 |  7:23.17 |  4:37.38 |  33242 |  54054 H,/|pP.  
      4 | 12:00.55 |  4:27.25 |  54055 |  74104 N k~Xz  
&) '5_#S  
\,U#^Vr  
范围状态及错误 76Drhh(  
uVO*@Kj+  
已选择范围 A7{l60(5  
OokBi 02b  
     文件名 J:\12 Music*音乐\CDImage.wav ER z@o_  
c&A;0**K,  
     峰值电平 100.0 % NPN*k].  
     抓取速度 4.9 X bzz{ p1e  
     范围质量 100.0 % cfb8kNn~+  
     复制 CRC BEF7FE72 "E? 8. `T  
     复制成功 Z*/*P4\  
2TR l @  
没有错误发生 (-lu#hJ`&r  
:z;}:+7n  
状态报告结尾
?*I _'2  
1wx&/ #a  
此帖售价 20 金钱,已有 12 人购买 [记录] [购买]
购买后,将显示帖子中所有出售内容。
若发现会员采用欺骗的方法获取财富,请立刻举报,我们会对会员处以2-N倍的罚金,严重者封掉ID!
此段为出售的内容,购买后显示
v-* CE[  
离线wannam

发帖
2666
金钱
80607
威望
382
贡献值
189
交易币
3309
只看该作者 1楼 发表于: 2015-08-21
谢谢分享
离线耶稣

发帖
6542
金钱
196726
威望
2070
贡献值
1354
交易币
9868
只看该作者 2楼 发表于: 2015-08-23
美丽的迈克尔



离线marlene55555

发帖
1161
金钱
34311
威望
293
贡献值
98
交易币
1337
只看该作者 3楼 发表于: 2015-09-11
尖叫
离线小李

发帖
206
金钱
177
威望
98
贡献值
7
交易币
174
只看该作者 4楼 发表于: 2015-09-11
Childhood (UK - EPC 662022 2) - WAV整轨 ♬by幽灵
论坛里面李爽是很厉害的长春歌迷
离线Mr灬W

发帖
1156
金钱
12831
威望
161
贡献值
56
交易币
1281
只看该作者 5楼 发表于: 2015-09-21
感谢分享!
Heal The World
离线arfongs

发帖
306
金钱
5036
威望
21
贡献值
22
交易币
395
只看该作者 6楼 发表于: 2015-10-01
没听过,谢谢
Every day create your history~

离线lifan_npl

发帖
2076
金钱
18269
威望
787
贡献值
347
交易币
2429
只看该作者 7楼 发表于: 2015-11-21
很罕见的单曲    谢谢分享
我的淘宝:
http://shop63152617.taobao.com  
离线肯尼

发帖
890
金钱
5333
威望
385
贡献值
188
交易币
1335
只看该作者 8楼 发表于: 2015-12-30
感谢分享。
顺势待发张元穹 Kenny Saxton @肯尼 & 齐奕同Michael Qi @迈颤我栗
2014年6月25日 合辑 火热制作中
2014 MJFantastics Music International Ltd.
离线自作主张

发帖
335
金钱
2932
威望
78
贡献值
43
交易币
432
只看该作者 9楼 发表于: 2016-02-07
感谢分享!
快速回复
限100 字节
 
上一个 下一个