论坛风格切换切换到宽版
  • 1047阅读
  • 14回复

[亲传][Single] 1995 Scream/Childhood (UK - EPC 662022 2) - WAV整轨 ♬by幽灵 [复制链接]

上一主题 下一主题
在线mjghosts
 

发帖
8257
金钱
212065
威望
9166
贡献值
2715
交易币
4708
只看楼主 倒序阅读 楼主  发表于: 2015-08-21
— 本帖被 mjghosts 执行加亮操作(2015-08-21) —
注:独家整理,转载请注明出处!EAC无损整轨(压缩包内含CD图片) \qdHX  
WejY y|  
解压密码:www.mjsunny.com
n7B7m,@1  
5{|7$VqPF  
Y;dz,}re  
NPhhD&W_  
1L%CJ+Q#0i  
BWeA@v  
Exact Audio Copy V1.0 beta 6 from 9. April 2015 ]e"=$2d$  
MW! srTQ_  
EAC 抓取日志文件从16. 八月 2015, 22:49 h;C5hU 4P  
(yu/l 6[  
Michael Jackson Duet With Janet Jackson / Scream hEA<o67  
j-4VB_N@  
使用驱动器  :MATSHITADVD-RAM UJ890AS   Adapter: 1  ID: 1 \kp8S'qVo  
j>*R]mr6  
读取模式      : 可靠Secure -|J"s$yO4  
使用精确流     : 是 ) brVduB  
清空音频缓存    : 否 *EOdEFsR/  
使用 C2 指示器 : 是 YNLV9.P6  
~T ]m>A!  
读取偏移校正:               : 0 MC?,UDNd%  
读取 Lead-In 和 Lead-Out : 否 $h5xH9x ;  
用静音填充抓取中丢失偏移的采样       : 是 qmnZAk  
去除首尾静音块               : 否 sc|_Q/`\.  
在CRC 计算中使用了空样本       : 是 8I-u2Y$Sr  
已用接口                  : Win NT 及 2000 本地 Win32 接口 ,oN8HpGs  
-u&6X,Oq\u  
所用输出模式: : 内部 WAV 函数 `k=bL"T>\  
样本格式    : 44.100 Hz; 16 Bit; 立体声 b_,|>U  
b^ L \>3  
6,"IDH|ND  
已抓取 CD 的 TOC ?f#y1m  
^:K3vC[h;c  
     音轨 |    起始    |    长度    |  起始扇区  |  结束扇区   ]P#XVDn+;  
    -------------------------------------------- IKABBW  
      1 |  0:00.00 |  4:03.00 |      0 |  18224 hD\rtW  
      2 |  4:03.00 |  3:20.17 |  18225 |  33241 t/ +=|*  
      3 |  7:23.17 |  4:37.38 |  33242 |  54054 w<zIAQN  
      4 | 12:00.55 |  4:27.25 |  54055 |  74104 pV.Av  
X'%E\/~u  
Dpvk\t  
范围状态及错误 ZPiq-q  
S M!Txe#  
已选择范围 EG0WoUX|  
bSsh^Z  
     文件名 J:\12 Music*音乐\CDImage.wav f>aEkh6u9  
_$= _du  
     峰值电平 100.0 % [!}:KD2yX  
     抓取速度 4.9 X 8CnRi  
     范围质量 100.0 % /J04^ 6  
     复制 CRC BEF7FE72 Vl%^H[]  
     复制成功 QFg sq{  
vJ\pR~?  
没有错误发生 q6_u@:3u  
vw>2(K=e1  
状态报告结尾
BZud) l24  
?*?RP)V  
此帖售价 20 金钱,已有 13 人购买 [记录] [购买]
购买后,将显示帖子中所有出售内容。
若发现会员采用欺骗的方法获取财富,请立刻举报,我们会对会员处以2-N倍的罚金,严重者封掉ID!
此段为出售的内容,购买后显示
#{k|I$  
离线wannam

发帖
2698
金钱
86889
威望
382
贡献值
189
交易币
3341
只看该作者 1楼 发表于: 2015-08-21
谢谢分享
离线耶稣

发帖
6932
金钱
230050
威望
2381
贡献值
1574
交易币
10731
只看该作者 2楼 发表于: 2015-08-23
美丽的迈克尔


离线marlene55555

发帖
1162
金钱
34284
威望
293
贡献值
98
交易币
1338
只看该作者 3楼 发表于: 2015-09-11
尖叫
离线小李

发帖
219
金钱
137
威望
98
贡献值
7
交易币
187
只看该作者 4楼 发表于: 2015-09-11
Childhood (UK - EPC 662022 2) - WAV整轨 ♬by幽灵
论坛里面李爽是很厉害的长春歌迷
离线Mr灬W

发帖
1128
金钱
12839
威望
161
贡献值
56
交易币
1281
只看该作者 5楼 发表于: 2015-09-21
感谢分享!
Heal The World
离线arfongs

发帖
306
金钱
5036
威望
21
贡献值
22
交易币
395
只看该作者 6楼 发表于: 2015-10-01
没听过,谢谢
Every day create your history~

离线lifan_npl

发帖
2132
金钱
17379
威望
787
贡献值
347
交易币
2485
只看该作者 7楼 发表于: 2015-11-21
很罕见的单曲    谢谢分享
我的淘宝:
http://shop63152617.taobao.com  
离线肯尼

发帖
950
金钱
6396
威望
423
贡献值
226
交易币
1427
只看该作者 8楼 发表于: 2015-12-30
感谢分享。
顺势待发张元穹 Kenny Saxton @肯尼 & 齐奕同Michael Qi @迈颤我栗
2014年6月25日 合辑 火热制作中
2014 MJFantastics Music International Ltd.
离线自作主张

发帖
340
金钱
3144
威望
80
贡献值
43
交易币
437
只看该作者 9楼 发表于: 2016-02-07
感谢分享!
快速回复
限100 字节
 
上一个 下一个