论坛风格切换切换到宽版
  • 1424阅读
  • 14回复

[亲传][Single] 1995 Scream/Childhood (UK - EPC 662022 2) - WAV整轨 ♬by幽灵 [复制链接]

上一主题 下一主题
离线mjghosts
 

发帖
8241
金钱
217202
威望
9172
贡献值
2721
交易币
4744
只看楼主 倒序阅读 楼主  发表于: 2015-08-21
— 本帖被 mjghosts 执行加亮操作(2015-08-21) —
注:独家整理,转载请注明出处!EAC无损整轨(压缩包内含CD图片) {a% T <WW  
b-~`A;pr  
解压密码:www.mjsunny.com
xu& v(C9  
$t}L|"=8X  
[DjdR_9*I  
cC4*4bMm  
I"<~!krt%  
Vfc 9 +T+  
Exact Audio Copy V1.0 beta 6 from 9. April 2015 mYa0_P%^  
go{'mX)}u  
EAC 抓取日志文件从16. 八月 2015, 22:49 mjy%xzVr6^  
/*D]4AK  
Michael Jackson Duet With Janet Jackson / Scream r,yhc =  
LZ\}Kgi(!T  
使用驱动器  :MATSHITADVD-RAM UJ890AS   Adapter: 1  ID: 1 2v%~KV  
(Ptv#LSUX  
读取模式      : 可靠Secure dc%+f  
使用精确流     : 是 OZk(VMuI  
清空音频缓存    : 否 q] ,&$d^@  
使用 C2 指示器 : 是 -Ux/ Ug@  
O]lWaiR`  
读取偏移校正:               : 0 mC J/gWDY  
读取 Lead-In 和 Lead-Out : 否 fqvA0"tv  
用静音填充抓取中丢失偏移的采样       : 是 \{NeDv{A  
去除首尾静音块               : 否 t{84ioJ"$  
在CRC 计算中使用了空样本       : 是 BflF*-s ^  
已用接口                  : Win NT 及 2000 本地 Win32 接口 =X-$k k  
mL3'/3-7:V  
所用输出模式: : 内部 WAV 函数 7jEAhi!Cq(  
样本格式    : 44.100 Hz; 16 Bit; 立体声 Wq"pKI#x  
rQ~%SUM7  
?uh7m 2l0D  
已抓取 CD 的 TOC PksHq77  
_3kAN .g  
     音轨 |    起始    |    长度    |  起始扇区  |  结束扇区   NhpGa@[D  
    -------------------------------------------- &b{L|I'KYT  
      1 |  0:00.00 |  4:03.00 |      0 |  18224 =BNmuAY7  
      2 |  4:03.00 |  3:20.17 |  18225 |  33241 ~e'FPVDn  
      3 |  7:23.17 |  4:37.38 |  33242 |  54054 /z5j.TMs  
      4 | 12:00.55 |  4:27.25 |  54055 |  74104  UIhB  
|)GE7y0Q  
]$KH78MTW  
范围状态及错误 "&v?>  
hb^e2@i;Oq  
已选择范围 Mt-y{*6!k  
_khQ  
     文件名 J:\12 Music*音乐\CDImage.wav `^|mNh  
PP$Ig2Q  
     峰值电平 100.0 % .DCp)&m l;  
     抓取速度 4.9 X vjbot^W9  
     范围质量 100.0 % LOe!qt\&  
     复制 CRC BEF7FE72 cC WOG d  
     复制成功 ?mgr #UN  
j:U>V7Kn3~  
没有错误发生 $+*ZsIo   
+$8hTi,  
状态报告结尾
o)1wF X  
tk_y~-xz  
此帖售价 20 金钱,已有 13 人购买 [记录] [购买]
购买后,将显示帖子中所有出售内容。
若发现会员采用欺骗的方法获取财富,请立刻举报,我们会对会员处以2-N倍的罚金,严重者封掉ID!
此段为出售的内容,购买后显示
S,Tm=} wj  
离线wannam

发帖
2702
金钱
87010
威望
382
贡献值
189
交易币
3345
只看该作者 1楼 发表于: 2015-08-21
谢谢分享
离线耶稣

发帖
7134
金钱
268414
威望
2485
贡献值
1649
交易币
11181
只看该作者 2楼 发表于: 2015-08-23
美丽的迈克尔





离线marlene55555

发帖
1165
金钱
34275
威望
293
贡献值
98
交易币
1341
只看该作者 3楼 发表于: 2015-09-11
尖叫
离线小李

发帖
232
金钱
230
威望
99
贡献值
8
交易币
204
只看该作者 4楼 发表于: 2015-09-11
Childhood (UK - EPC 662022 2) - WAV整轨 ♬by幽灵
论坛里面李爽是很厉害的长春歌迷
离线Mr灬W

发帖
1129
金钱
12950
威望
161
贡献值
56
交易币
1282
只看该作者 5楼 发表于: 2015-09-21
感谢分享!
Heal The World
离线arfongs

发帖
307
金钱
4993
威望
21
贡献值
22
交易币
396
只看该作者 6楼 发表于: 2015-10-01
没听过,谢谢
Every day create your history~

离线lifan_npl

发帖
2180
金钱
16659
威望
783
贡献值
348
交易币
2537
只看该作者 7楼 发表于: 2015-11-21
很罕见的单曲    谢谢分享
我的淘宝:
http://shop63152617.taobao.com  
离线肯尼

发帖
955
金钱
7400
威望
431
贡献值
228
交易币
1440
只看该作者 8楼 发表于: 2015-12-30
感谢分享。
顺势待发张元穹 Kenny Saxton @肯尼 & 齐奕同Michael Qi @迈颤我栗
2014年6月25日 合辑 火热制作中
2014 MJFantastics Music International Ltd.
离线自作主张

发帖
346
金钱
3051
威望
80
贡献值
43
交易币
443
只看该作者 9楼 发表于: 2016-02-07
感谢分享!
快速回复
限100 字节
 
上一个 下一个