论坛风格切换切换到宽版
  • 1492阅读
  • 14回复

[亲传][Single] 1995 Scream/Childhood (UK - EPC 662022 2) - WAV整轨 ♬by幽灵 [复制链接]

上一主题 下一主题
离线mjghosts
 

发帖
8244
金钱
217720
威望
9174
贡献值
2723
交易币
4755
只看楼主 倒序阅读 楼主  发表于: 2015-08-21
— 本帖被 mjghosts 执行加亮操作(2015-08-21) —
注:独家整理,转载请注明出处!EAC无损整轨(压缩包内含CD图片) ~HT:BO$  
v~._]f$:  
解压密码:www.mjsunny.com
w Bm4~ ~_  
|q\i, }  
ybv< 1  
8+(wAbp  
Ip8:~Fl]  
&fkH\o7)  
Exact Audio Copy V1.0 beta 6 from 9. April 2015 7.n\a@I/  
G-]_ d  
EAC 抓取日志文件从16. 八月 2015, 22:49 s(L!]d.S$y  
/@DJf\`vM  
Michael Jackson Duet With Janet Jackson / Scream ke/4l?zs  
B LZ<"npn  
使用驱动器  :MATSHITADVD-RAM UJ890AS   Adapter: 1  ID: 1 o{mVXidE  
%Z*)<[cIE0  
读取模式      : 可靠Secure c <Q*g  
使用精确流     : 是 /Vx EqIK  
清空音频缓存    : 否 X@)'E9g5:  
使用 C2 指示器 : 是 f&$$*a  
<v\x<ul6  
读取偏移校正:               : 0 rK'O 85)eU  
读取 Lead-In 和 Lead-Out : 否 @?0))@kPc3  
用静音填充抓取中丢失偏移的采样       : 是 wDBU+Z  
去除首尾静音块               : 否 z`]:\j'O3"  
在CRC 计算中使用了空样本       : 是 A\.{(,;kp  
已用接口                  : Win NT 及 2000 本地 Win32 接口 98UI]? 4  
OY!WEP$F-C  
所用输出模式: : 内部 WAV 函数 =%b1EY k  
样本格式    : 44.100 Hz; 16 Bit; 立体声 jgfr_"@A  
x3nUKQtk:8  
r[2*K 9  
已抓取 CD 的 TOC * C*aH6*  
6O*lZNN  
     音轨 |    起始    |    长度    |  起始扇区  |  结束扇区   }%0X7'  
    -------------------------------------------- aT BFF  
      1 |  0:00.00 |  4:03.00 |      0 |  18224 e&NJj:Ph*  
      2 |  4:03.00 |  3:20.17 |  18225 |  33241 nrbP3sf*  
      3 |  7:23.17 |  4:37.38 |  33242 |  54054 gy"<[N .?c  
      4 | 12:00.55 |  4:27.25 |  54055 |  74104 A5sz[k  
?R4%z2rcW  
0(o.[% Ye  
范围状态及错误 F;BCSoO4  
o3h>)4  
已选择范围 6r`Xi&  
@\W-=YKLg  
     文件名 J:\12 Music*音乐\CDImage.wav 4b6)+*[O  
E5Sn mxd  
     峰值电平 100.0 % @3bVjQ`4f  
     抓取速度 4.9 X [8K :ml  
     范围质量 100.0 % SIc~cZ!Yu  
     复制 CRC BEF7FE72 A8Km8"  
     复制成功 @#;*e] 1a  
%,zHS?)l  
没有错误发生 6~x a^3G:  
c;zk{dP   
状态报告结尾
+wQ}ZP&  
S(CVkCP  
此帖售价 20 金钱,已有 14 人购买 [记录] [购买]
购买后,将显示帖子中所有出售内容。
若发现会员采用欺骗的方法获取财富,请立刻举报,我们会对会员处以2-N倍的罚金,严重者封掉ID!
此段为出售的内容,购买后显示
q?@*  
离线wannam

发帖
2702
金钱
87012
威望
382
贡献值
189
交易币
3345
只看该作者 1楼 发表于: 2015-08-21
谢谢分享
离线耶稣

发帖
7147
金钱
272109
威望
2491
贡献值
1655
交易币
11218
只看该作者 2楼 发表于: 2015-08-23
美丽的迈克尔




离线marlene55555

发帖
1165
金钱
34275
威望
293
贡献值
98
交易币
1341
只看该作者 3楼 发表于: 2015-09-11
尖叫
离线小李

发帖
236
金钱
1405
威望
9
贡献值
8
交易币
208
只看该作者 4楼 发表于: 2015-09-11
Childhood (UK - EPC 662022 2) - WAV整轨 ♬by幽灵
论坛里面李爽是很厉害的长春歌迷
离线Mr灬W

发帖
1129
金钱
12950
威望
161
贡献值
56
交易币
1282
只看该作者 5楼 发表于: 2015-09-21
感谢分享!
Heal The World
离线arfongs

发帖
307
金钱
4993
威望
21
贡献值
22
交易币
396
只看该作者 6楼 发表于: 2015-10-01
没听过,谢谢
Every day create your history~

离线lifan_npl

发帖
2189
金钱
19354
威望
816
贡献值
395
交易币
2550
只看该作者 7楼 发表于: 2015-11-21
很罕见的单曲    谢谢分享
我的淘宝:
http://shop63152617.taobao.com  
离线肯尼

发帖
955
金钱
7435
威望
431
贡献值
228
交易币
1440
只看该作者 8楼 发表于: 2015-12-30
感谢分享。
顺势待发张元穹 Kenny Saxton @肯尼 & 齐奕同Michael Qi @迈颤我栗
2014年6月25日 合辑 火热制作中
2014 MJFantastics Music International Ltd.
离线自作主张

发帖
346
金钱
3101
威望
80
贡献值
43
交易币
443
只看该作者 9楼 发表于: 2016-02-07
感谢分享!
快速回复
限100 字节
 
上一个 下一个