论坛风格切换切换到宽版
  • 1281阅读
  • 14回复

[亲传][Single] 1995 Scream/Childhood (UK - EPC 662022 2) - WAV整轨 ♬by幽灵 [复制链接]

上一主题 下一主题
离线mjghosts
 

发帖
8235
金钱
214525
威望
9169
贡献值
2718
交易币
4726
只看楼主 倒序阅读 楼主  发表于: 2015-08-21
— 本帖被 mjghosts 执行加亮操作(2015-08-21) —
注:独家整理,转载请注明出处!EAC无损整轨(压缩包内含CD图片) X?Omk, '  
)u ]<8  
解压密码:www.mjsunny.com
`/]8C &u  
$&k2m^R<  
Ajq;\- :  
*D,+v!wG9  
$z{HNY* 2  
8+ B.x  
Exact Audio Copy V1.0 beta 6 from 9. April 2015 0} liK  
0tn5>Dsk  
EAC 抓取日志文件从16. 八月 2015, 22:49 JeUFCWm  
/n?5J`6  
Michael Jackson Duet With Janet Jackson / Scream F>n<;<  
jfqWcX.X=  
使用驱动器  :MATSHITADVD-RAM UJ890AS   Adapter: 1  ID: 1 ,$vc*}yI0  
N iNZh;  
读取模式      : 可靠Secure P!B\:B%4~]  
使用精确流     : 是 tI{ n!  
清空音频缓存    : 否 Ax0u \(p<^  
使用 C2 指示器 : 是 in#qV  
SP HeI@i  
读取偏移校正:               : 0 IOTHk+w  
读取 Lead-In 和 Lead-Out : 否 _4zlEo-.gU  
用静音填充抓取中丢失偏移的采样       : 是 *M+:GH/5  
去除首尾静音块               : 否 _*bXVJ ]  
在CRC 计算中使用了空样本       : 是 3Eiy/  
已用接口                  : Win NT 及 2000 本地 Win32 接口 1xM&"p:  
4^70r9hV9  
所用输出模式: : 内部 WAV 函数 e#kPf 'gL  
样本格式    : 44.100 Hz; 16 Bit; 立体声 wzo-V^+q  
8-juzL}  
.__X[Mzth3  
已抓取 CD 的 TOC WF*2^iWJ  
{U^mL6=&v  
     音轨 |    起始    |    长度    |  起始扇区  |  结束扇区   $Xz9xzOR  
    -------------------------------------------- q+gqa<kM  
      1 |  0:00.00 |  4:03.00 |      0 |  18224 8EbYk2j  
      2 |  4:03.00 |  3:20.17 |  18225 |  33241 ,589/xTA@  
      3 |  7:23.17 |  4:37.38 |  33242 |  54054 KQ3)^J_Z  
      4 | 12:00.55 |  4:27.25 |  54055 |  74104 w{2V7*+l  
^x 4,}'(  
T{sw{E*  
范围状态及错误 Q(V c/  
I|Z5*iXqCm  
已选择范围 0Lc X7gU>  
[u)^QgP  
     文件名 J:\12 Music*音乐\CDImage.wav eg?vYW  
{_^sR}%]F  
     峰值电平 100.0 % u^ngD64  
     抓取速度 4.9 X =B<g_9d4  
     范围质量 100.0 % L8R|\Bx  
     复制 CRC BEF7FE72 PJA 1/"  
     复制成功 =x/]2+ s  
P-^Z7^o-bX  
没有错误发生 wG^{Jf&@$  
@zd)]O]xH?  
状态报告结尾
!8l4H c8  
R['qBHQ?  
此帖售价 20 金钱,已有 13 人购买 [记录] [购买]
购买后,将显示帖子中所有出售内容。
若发现会员采用欺骗的方法获取财富,请立刻举报,我们会对会员处以2-N倍的罚金,严重者封掉ID!
此段为出售的内容,购买后显示
h"wXmAf4%  
在线wannam

发帖
2701
金钱
86989
威望
382
贡献值
189
交易币
3344
只看该作者 1楼 发表于: 2015-08-21
谢谢分享
离线耶稣

发帖
7108
金钱
259918
威望
2458
贡献值
1632
交易币
11115
只看该作者 2楼 发表于: 2015-08-23
美丽的迈克尔




离线marlene55555

发帖
1164
金钱
34278
威望
293
贡献值
98
交易币
1340
只看该作者 3楼 发表于: 2015-09-11
尖叫
离线小李

发帖
229
金钱
130
威望
99
贡献值
8
交易币
201
只看该作者 4楼 发表于: 2015-09-11
Childhood (UK - EPC 662022 2) - WAV整轨 ♬by幽灵
论坛里面李爽是很厉害的长春歌迷
离线Mr灬W

发帖
1129
金钱
12950
威望
161
贡献值
56
交易币
1282
只看该作者 5楼 发表于: 2015-09-21
感谢分享!
Heal The World
离线arfongs

发帖
306
金钱
5058
威望
21
贡献值
22
交易币
395
只看该作者 6楼 发表于: 2015-10-01
没听过,谢谢
Every day create your history~

离线lifan_npl

发帖
2170
金钱
16847
威望
782
贡献值
347
交易币
2523
只看该作者 7楼 发表于: 2015-11-21
很罕见的单曲    谢谢分享
我的淘宝:
http://shop63152617.taobao.com  
离线肯尼

发帖
953
金钱
7145
威望
431
贡献值
228
交易币
1438
只看该作者 8楼 发表于: 2015-12-30
感谢分享。
顺势待发张元穹 Kenny Saxton @肯尼 & 齐奕同Michael Qi @迈颤我栗
2014年6月25日 合辑 火热制作中
2014 MJFantastics Music International Ltd.
离线自作主张

发帖
344
金钱
3054
威望
80
贡献值
43
交易币
441
只看该作者 9楼 发表于: 2016-02-07
感谢分享!
快速回复
限100 字节
 
上一个 下一个