论坛风格切换切换到宽版
  • 950阅读
  • 18回复

[亲传][Single] 1997 HIStory/Ghosts (EU#1 - EPC 664615 2) - WAV整轨 ♬by幽灵 [复制链接]

上一主题 下一主题
离线mjghosts
 

发帖
8228
金钱
208462
威望
9161
贡献值
2712
交易币
4667
只看楼主 倒序阅读 楼主  发表于: 2015-08-21
— 本帖被 mjghosts 执行加亮操作(2015-08-21) —
注:独家整理,转载请注明出处!EAC无损整轨(压缩包内含CD图片) YuO-a$BP  
rh;@|/<l  
解压密码:www.mjsunny.com
4H 4U  
2{t i])  
~T<yp  
w6F'rsko]  
79:Wo>C3-  
Ax[!7~s  
Exact Audio Copy V1.0 beta 6 from 9. April 2015 ?2ZggV  
cP[3p :  
EAC 抓取日志文件从15. 八月 2015, 2:46 ,fS}c pV  
7.4Q  
Michael Jackson / HIStory / Ghosts ZKKz?reM'  
C2GF N1i  
使用驱动器  :MATSHITADVD-RAM UJ890AS   Adapter: 1  ID: 1 FY%v \`@1*  
/E'c y  
读取模式      : 可靠Secure q1j<p)(  
使用精确流     : 是 h4C DZ  
清空音频缓存    : 否 ND[u$N+5x"  
使用 C2 指示器 : 是 ?c)PBJ+]  
X%W_cb2  
读取偏移校正:               : 0 ?29zcuRaru  
读取 Lead-In 和 Lead-Out : 否 }49X  N  
用静音填充抓取中丢失偏移的采样       : 是 e*_8B2da  
去除首尾静音块               : 否 U JG)-x  
在CRC 计算中使用了空样本       : 是 ^_b+o  
已用接口                  : Win NT 及 2000 本地 Win32 接口 HM%n`1ZU  
.{D[!Dp#h  
所用输出模式: : 内部 WAV 函数 Q&:% U  
样本格式    : 44.100 Hz; 16 Bit; 立体声 \UFno$;mA  
B`OggdE  
~/1kCZB  
已抓取 CD 的 TOC Z"Z&X0O j  
 g#~jF  
     音轨 |    起始    |    长度    |  起始扇区  |  结束扇区   o:#l r{  
    -------------------------------------------- i+T#z  
      1 |  0:00.00 |  4:10.35 |      0 |  18784 '1;Q'-/J  
      2 |  4:10.35 |  4:17.42 |  18785 |  38101  ])}{GW  
      3 |  8:28.02 |  9:12.43 |  38102 |  79544 leyhiL<  
      4 | 17:40.45 |  4:59.47 |  79545 | 102016 {g\Yy(r  
      5 | 22:40.17 |  3:03.68 | 102017 | 115809 m8$6FN  
      6 | 25:44.10 |  4:06.00 | 115810 | 134259 aq~hl7MTj  
      7 | 29:50.10 |  3:49.57 | 134260 | 151491 C$ oY,A,  
.Br2^F  
2\l7=9 ]\3  
范围状态及错误 ,)'!E^n  
QKc3Q5)@j  
已选择范围 o,9E~Q'`{  
-VD[iH  
     文件名 J:\12 Music*音乐\[Single] 1997 HIStory/Ghosts (EU#1 EPC 664615 2) 7 track\CDImage.wav 6[wej$ u  
iI+kZI-  
     峰值电平 100.0 % "6^tG[G%  
     抓取速度 5.6 X GBu&2}  
     范围质量 100.0 % tvP_LNMF  
     复制 CRC 3375A6F0 1lfkb1BM  
     复制成功 AR`X2m '  
epCU(d*b  
没有错误发生 ~ 6 1?nu  
:g2?)Er-  
状态报告结尾
3qiE#+dC  
%'"#X?jk1  
此帖售价 20 金钱,已有 15 人购买 [记录] [购买]
购买后,将显示帖子中所有出售内容。
若发现会员采用欺骗的方法获取财富,请立刻举报,我们会对会员处以2-N倍的罚金,严重者封掉ID!
此段为出售的内容,购买后显示
2条评分金钱+51威望+5
无神论者 威望 +5 - 2015-08-21
无神论者 金钱 +51 - 2015-08-21
离线自作主张

发帖
335
金钱
2932
威望
78
贡献值
43
交易币
432
只看该作者 1楼 发表于: 2015-08-21
虽然贵,但也值得
离线wannam

发帖
2666
金钱
80618
威望
382
贡献值
189
交易币
3309
只看该作者 2楼 发表于: 2015-08-21
谢谢分享
离线mj1997

发帖
1462
金钱
6414
威望
221
贡献值
92
交易币
965
只看该作者 3楼 发表于: 2015-08-21
自抓辛苦,感谢分享
我的资源博客http://blog.sina.com.cn/u/2993163994慢慢建设
离线zxcv16

发帖
2625
金钱
4367
威望
409
贡献值
135
交易币
2817
只看该作者 4楼 发表于: 2015-08-21
感谢分享,辛苦了
离线q965488338

发帖
709
金钱
27830
威望
224
贡献值
96
交易币
1082
只看该作者 5楼 发表于: 2015-08-21
谢谢。。
离线mich008

发帖
777
金钱
5053
威望
24
贡献值
15
交易币
839
只看该作者 6楼 发表于: 2015-08-22
希望有更多 支持一个
在线耶稣

发帖
6549
金钱
196867
威望
2072
贡献值
1356
交易币
9883
只看该作者 7楼 发表于: 2015-08-23
优秀文章。。



离线marlene55555

发帖
1161
金钱
34311
威望
293
贡献值
98
交易币
1337
只看该作者 8楼 发表于: 2015-09-11
好好好 我头像
离线小李

发帖
207
金钱
182
威望
98
贡献值
7
交易币
175
只看该作者 9楼 发表于: 2015-09-11
/Ghosts (EU#1 - EPC 664615 2) - WAV整轨 ♬by幽灵
好,我就全买了你的帖子了
快速回复
限100 字节
 
上一个 下一个