论坛风格切换切换到宽版
  • 1108阅读
  • 19回复

[亲传][Single] 1997 HIStory/Ghosts (EU#1 - EPC 664615 2) - WAV整轨 ♬by幽灵 [复制链接]

上一主题 下一主题
离线mjghosts
 

发帖
8256
金钱
212030
威望
9166
贡献值
2715
交易币
4707
只看楼主 倒序阅读 楼主  发表于: 2015-08-21
— 本帖被 mjghosts 执行加亮操作(2015-08-21) —
注:独家整理,转载请注明出处!EAC无损整轨(压缩包内含CD图片) TF0-?vBWh  
!\#Wk0Ku  
解压密码:www.mjsunny.com
u@Cf*VPK  
$TA6S+  
..]*Ao2  
juCG?}di;  
RF4$  
C '-zh\a  
Exact Audio Copy V1.0 beta 6 from 9. April 2015 s ~Lfi.  
\7,MZt  
EAC 抓取日志文件从15. 八月 2015, 2:46 !f\?c7  
OB?SkR  
Michael Jackson / HIStory / Ghosts I%}L@fZ  
]~ !X iCqu  
使用驱动器  :MATSHITADVD-RAM UJ890AS   Adapter: 1  ID: 1 L289'Gzg  
mb0n}I_AC  
读取模式      : 可靠Secure Dq/3E-y5  
使用精确流     : 是 ";PG%_(  
清空音频缓存    : 否 29"mE;j  
使用 C2 指示器 : 是 {UB%(E[Mr  
7w "sJ  
读取偏移校正:               : 0  bt;lq!g  
读取 Lead-In 和 Lead-Out : 否 |vv]Z(_  
用静音填充抓取中丢失偏移的采样       : 是 k_]\(myq  
去除首尾静音块               : 否 Ll,I-BQ 9  
在CRC 计算中使用了空样本       : 是 I?^aCnU  
已用接口                  : Win NT 及 2000 本地 Win32 接口 ]de\i=?|  
9 +}cE**=d  
所用输出模式: : 内部 WAV 函数 RF:04d  
样本格式    : 44.100 Hz; 16 Bit; 立体声 |7y6 pz  
C#0brCQq3  
z?)He)d  
已抓取 CD 的 TOC . @@an;C  
"e@n:N!  
     音轨 |    起始    |    长度    |  起始扇区  |  结束扇区   T<P0T<  
    -------------------------------------------- pl|h>4af  
      1 |  0:00.00 |  4:10.35 |      0 |  18784 K3L"^a  
      2 |  4:10.35 |  4:17.42 |  18785 |  38101 ~g7m3  
      3 |  8:28.02 |  9:12.43 |  38102 |  79544 {rDq_^  
      4 | 17:40.45 |  4:59.47 |  79545 | 102016 ^&Q< tN 7  
      5 | 22:40.17 |  3:03.68 | 102017 | 115809 V&%C\ns4  
      6 | 25:44.10 |  4:06.00 | 115810 | 134259 R 5(F)abi  
      7 | 29:50.10 |  3:49.57 | 134260 | 151491 cS(;Qs]Q  
Q+'nw9:;T  
"(f`U.  
范围状态及错误 "%@v++4y  
2+Yb 7 uI,  
已选择范围 ~=cmM  
J# EP%  
     文件名 J:\12 Music*音乐\[Single] 1997 HIStory/Ghosts (EU#1 EPC 664615 2) 7 track\CDImage.wav >bIF>9T  
[>Fm [5x  
     峰值电平 100.0 % /{*$JF  
     抓取速度 5.6 X yWb4Ify  
     范围质量 100.0 % e|lD:_1i  
     复制 CRC 3375A6F0 fk{0d  
     复制成功 #/70!+J_UF  
d%ME@6K)  
没有错误发生 RE"^ )-  
y7lWeBnC  
状态报告结尾
D1T@R)j  
0.;}]v  
此帖售价 20 金钱,已有 16 人购买 [记录] [购买]
购买后,将显示帖子中所有出售内容。
若发现会员采用欺骗的方法获取财富,请立刻举报,我们会对会员处以2-N倍的罚金,严重者封掉ID!
此段为出售的内容,购买后显示
2条评分金钱+51威望+5
无神论者 威望 +5 - 2015-08-21
无神论者 金钱 +51 - 2015-08-21
离线自作主张

发帖
339
金钱
3049
威望
78
贡献值
43
交易币
436
只看该作者 1楼 发表于: 2015-08-21
虽然贵,但也值得
离线wannam

发帖
2698
金钱
86889
威望
382
贡献值
189
交易币
3341
只看该作者 2楼 发表于: 2015-08-21
谢谢分享
离线mj1997

发帖
1473
金钱
6236
威望
221
贡献值
92
交易币
976
只看该作者 3楼 发表于: 2015-08-21
自抓辛苦,感谢分享
我的资源博客http://blog.sina.com.cn/u/2993163994慢慢建设
离线zxcv16

发帖
2642
金钱
4057
威望
409
贡献值
135
交易币
2834
只看该作者 4楼 发表于: 2015-08-21
感谢分享,辛苦了
离线q965488338

发帖
709
金钱
28060
威望
224
贡献值
96
交易币
1082
只看该作者 5楼 发表于: 2015-08-21
谢谢。。
离线mich008

发帖
804
金钱
5190
威望
24
贡献值
15
交易币
866
只看该作者 6楼 发表于: 2015-08-22
希望有更多 支持一个
在线耶稣

发帖
6918
金钱
228887
威望
2362
贡献值
1570
交易币
10701
只看该作者 7楼 发表于: 2015-08-23
优秀文章。。


离线marlene55555

发帖
1162
金钱
34284
威望
293
贡献值
98
交易币
1338
只看该作者 8楼 发表于: 2015-09-11
好好好 我头像
离线小李

发帖
219
金钱
137
威望
98
贡献值
7
交易币
187
只看该作者 9楼 发表于: 2015-09-11
/Ghosts (EU#1 - EPC 664615 2) - WAV整轨 ♬by幽灵
好,我就全买了你的帖子了
快速回复
限100 字节
 
上一个 下一个