论坛风格切换切换到宽版
  • 869阅读
  • 18回复

[亲传][Single] 1997 HIStory/Ghosts (EU#1 - EPC 664615 2) - WAV整轨 ♬by幽灵 [复制链接]

上一主题 下一主题
离线mjghosts
 

发帖
8191
金钱
204337
威望
9035
贡献值
2641
交易币
4550
只看楼主 倒序阅读 楼主  发表于: 2015-08-21
— 本帖被 mjghosts 执行加亮操作(2015-08-21) —
注:独家整理,转载请注明出处!EAC无损整轨(压缩包内含CD图片) ~BS Ip .  
rfl-(_3  
解压密码:www.mjsunny.com
&at^~ o  
7u9]BhcFv?  
(sXR@Ce$  
x}8 U\  
] BJ]  
8: x{  
Exact Audio Copy V1.0 beta 6 from 9. April 2015  Stzv  
[SFX;v!9  
EAC 抓取日志文件从15. 八月 2015, 2:46 ,-C%+SC  
.d^XM  
Michael Jackson / HIStory / Ghosts th$?#4SbR  
baD`k?](  
使用驱动器  :MATSHITADVD-RAM UJ890AS   Adapter: 1  ID: 1 -2{NIF^H  
Qh4<HQ<9  
读取模式      : 可靠Secure k u@sQn  
使用精确流     : 是 -v '|#q  
清空音频缓存    : 否 69z,_p$@:  
使用 C2 指示器 : 是 D4@'C4kL  
X ^ ?M4  
读取偏移校正:               : 0 dB{VY+!  
读取 Lead-In 和 Lead-Out : 否 B4hT(;k  
用静音填充抓取中丢失偏移的采样       : 是 {Qe 7/ln!  
去除首尾静音块               : 否 %Sgdhgk1  
在CRC 计算中使用了空样本       : 是 _'W en  
已用接口                  : Win NT 及 2000 本地 Win32 接口 >uu ]K  
:o)4Y  
所用输出模式: : 内部 WAV 函数 8&g`Uy/b  
样本格式    : 44.100 Hz; 16 Bit; 立体声 kp{q5J6/  
(M>[D!Yt  
NZP>aV-  
已抓取 CD 的 TOC ]TE,N$X  
4 Qo(Wl  
     音轨 |    起始    |    长度    |  起始扇区  |  结束扇区   ^Yz.}a##w2  
    -------------------------------------------- c]u^0X?&  
      1 |  0:00.00 |  4:10.35 |      0 |  18784 LW"p/`#<  
      2 |  4:10.35 |  4:17.42 |  18785 |  38101 'S[&-D%(3  
      3 |  8:28.02 |  9:12.43 |  38102 |  79544 1ymq7F(2  
      4 | 17:40.45 |  4:59.47 |  79545 | 102016 L\CufAN  
      5 | 22:40.17 |  3:03.68 | 102017 | 115809 Y[0  
      6 | 25:44.10 |  4:06.00 | 115810 | 134259 w 2o% {n\L  
      7 | 29:50.10 |  3:49.57 | 134260 | 151491 `egyk)"aM  
|i}5vT78  
O%>FKU>(?  
范围状态及错误 `T-lBwH  
7%%FYHMO:  
已选择范围 ZRK1 UpP  
)\!-n]+A  
     文件名 J:\12 Music*音乐\[Single] 1997 HIStory/Ghosts (EU#1 EPC 664615 2) 7 track\CDImage.wav zv Dg1p  
N ?RJuDW  
     峰值电平 100.0 % U1.w%b,  
     抓取速度 5.6 X %Ob#GA+  
     范围质量 100.0 % SEL7,8 Hm  
     复制 CRC 3375A6F0 "G(^v?x:P  
     复制成功 5UTIGla  
7[b]%i  
没有错误发生 #VLO6  
*<5zMSZO  
状态报告结尾
t$*V*gK{  
ff1Em.  
此帖售价 20 金钱,已有 15 人购买 [记录] [购买]
购买后,将显示帖子中所有出售内容。
若发现会员采用欺骗的方法获取财富,请立刻举报,我们会对会员处以2-N倍的罚金,严重者封掉ID!
此段为出售的内容,购买后显示
2条评分金钱+51威望+5
无神论者 威望 +5 - 2015-08-21
无神论者 金钱 +51 - 2015-08-21
离线自作主张

发帖
334
金钱
2793
威望
78
贡献值
43
交易币
431
只看该作者 1楼 发表于: 2015-08-21
虽然贵,但也值得
离线wannam

发帖
2539
金钱
69500
威望
363
贡献值
169
交易币
3182
只看该作者 2楼 发表于: 2015-08-21
谢谢分享
离线mj1997

发帖
1458
金钱
6527
威望
221
贡献值
92
交易币
961
只看该作者 3楼 发表于: 2015-08-21
自抓辛苦,感谢分享
我的资源博客http://blog.sina.com.cn/u/2993163994慢慢建设
离线zxcv16

发帖
2616
金钱
4547
威望
409
贡献值
135
交易币
2808
只看该作者 4楼 发表于: 2015-08-21
感谢分享,辛苦了
离线q965488338

发帖
709
金钱
27814
威望
224
贡献值
96
交易币
1082
只看该作者 5楼 发表于: 2015-08-21
谢谢。。
离线mich008

发帖
749
金钱
4921
威望
24
贡献值
15
交易币
811
只看该作者 6楼 发表于: 2015-08-22
希望有更多 支持一个
离线耶稣

发帖
6449
金钱
180862
威望
1795
贡献值
1194
交易币
9607
只看该作者 7楼 发表于: 2015-08-23
优秀文章。。



离线marlene55555

发帖
1161
金钱
34311
威望
293
贡献值
98
交易币
1337
只看该作者 8楼 发表于: 2015-09-11
好好好 我头像
离线小李

发帖
196
金钱
148
威望
97
贡献值
6
交易币
160
只看该作者 9楼 发表于: 2015-09-11
/Ghosts (EU#1 - EPC 664615 2) - WAV整轨 ♬by幽灵
好,我就全买了你的帖子了
快速回复
限100 字节
 
上一个 下一个