论坛风格切换切换到宽版
  • 1519阅读
  • 19回复

[亲传][Single] 1997 HIStory/Ghosts (EU#1 - EPC 664615 2) - WAV整轨 ♬by幽灵 [复制链接]

上一主题 下一主题
离线mjghosts
 

发帖
8241
金钱
217202
威望
9172
贡献值
2721
交易币
4744
只看楼主 倒序阅读 楼主  发表于: 2015-08-21
— 本帖被 mjghosts 执行加亮操作(2015-08-21) —
注:独家整理,转载请注明出处!EAC无损整轨(压缩包内含CD图片) ^!8P<y  
(b,[C\RBF  
解压密码:www.mjsunny.com
BvrB:%_:  
!2UOC P  
^ci3F<?Q=  
ml|W~-6l  
NLPkh,T:  
cKb)VG^  
Exact Audio Copy V1.0 beta 6 from 9. April 2015 8}X5o]Mv  
yme^b ;a  
EAC 抓取日志文件从15. 八月 2015, 2:46 U j+j}C  
<<=WY_m}  
Michael Jackson / HIStory / Ghosts kn)t'_jC  
W^3uEm&l!)  
使用驱动器  :MATSHITADVD-RAM UJ890AS   Adapter: 1  ID: 1 !RyO\>:q  
iyj+:t/  
读取模式      : 可靠Secure w =. Fj  
使用精确流     : 是 pv^O"Bs  
清空音频缓存    : 否 3~nnCR[R  
使用 C2 指示器 : 是 atXS-bg*  
el:9wq  
读取偏移校正:               : 0 F(t=!k,4\  
读取 Lead-In 和 Lead-Out : 否 ooUk O  
用静音填充抓取中丢失偏移的采样       : 是 Sm~l:v0%  
去除首尾静音块               : 否 6252N]*  
在CRC 计算中使用了空样本       : 是 2Ry1b+\  
已用接口                  : Win NT 及 2000 本地 Win32 接口 NJNJjdD>  
271&i  
所用输出模式: : 内部 WAV 函数 3E 3HL7  
样本格式    : 44.100 Hz; 16 Bit; 立体声 JwJ7=P=c  
{'U Rz[g  
=2@B&  
已抓取 CD 的 TOC ;pnD0bH  
(&!NC[n,  
     音轨 |    起始    |    长度    |  起始扇区  |  结束扇区   @r?Uua  
    -------------------------------------------- 6C-z=s)P&  
      1 |  0:00.00 |  4:10.35 |      0 |  18784 Kw#i),M  
      2 |  4:10.35 |  4:17.42 |  18785 |  38101 / 4lvP  
      3 |  8:28.02 |  9:12.43 |  38102 |  79544 %?m$`9yU  
      4 | 17:40.45 |  4:59.47 |  79545 | 102016 EI^06q4x  
      5 | 22:40.17 |  3:03.68 | 102017 | 115809 1 CHeufQ  
      6 | 25:44.10 |  4:06.00 | 115810 | 134259 _vZ"4L+Iw+  
      7 | 29:50.10 |  3:49.57 | 134260 | 151491 0fYj4`4=n  
Yboiw y,n  
q#8 [  
范围状态及错误 VhNz8)  
z-b*D}&  
已选择范围 FD8N"p  
B|&"#Q  
     文件名 J:\12 Music*音乐\[Single] 1997 HIStory/Ghosts (EU#1 EPC 664615 2) 7 track\CDImage.wav 67VT\f  
1Y]TA3:  
     峰值电平 100.0 % ruazOmnn~  
     抓取速度 5.6 X d{E}6)1=  
     范围质量 100.0 % 6CMub0   
     复制 CRC 3375A6F0 `IY/9'vT  
     复制成功 H(&4[%;MP  
hc'-Dh  
没有错误发生 `ck$t5:6sp  
mb!9&&2 -t  
状态报告结尾
QQV~?iW{~  
Y)}Rb6qGW  
此帖售价 20 金钱,已有 16 人购买 [记录] [购买]
购买后,将显示帖子中所有出售内容。
若发现会员采用欺骗的方法获取财富,请立刻举报,我们会对会员处以2-N倍的罚金,严重者封掉ID!
此段为出售的内容,购买后显示
2条评分金钱+51威望+5
无神论者 威望 +5 - 2015-08-21
无神论者 金钱 +51 - 2015-08-21
离线自作主张

发帖
346
金钱
3051
威望
80
贡献值
43
交易币
443
只看该作者 1楼 发表于: 2015-08-21
虽然贵,但也值得
离线wannam

发帖
2702
金钱
87010
威望
382
贡献值
189
交易币
3345
只看该作者 2楼 发表于: 2015-08-21
谢谢分享
离线mj1997

发帖
1479
金钱
6187
威望
216
贡献值
92
交易币
982
只看该作者 3楼 发表于: 2015-08-21
自抓辛苦,感谢分享
我的资源博客http://blog.sina.com.cn/u/2993163994慢慢建设
离线zxcv16

发帖
2664
金钱
3796
威望
409
贡献值
135
交易币
2856
只看该作者 4楼 发表于: 2015-08-21
感谢分享,辛苦了
离线q965488338

发帖
709
金钱
28369
威望
224
贡献值
96
交易币
1082
只看该作者 5楼 发表于: 2015-08-21
谢谢。。
离线mich008

发帖
828
金钱
5717
威望
24
贡献值
15
交易币
890
只看该作者 6楼 发表于: 2015-08-22
希望有更多 支持一个
离线耶稣

发帖
7134
金钱
268414
威望
2485
贡献值
1649
交易币
11181
只看该作者 7楼 发表于: 2015-08-23
优秀文章。。





离线marlene55555

发帖
1165
金钱
34275
威望
293
贡献值
98
交易币
1341
只看该作者 8楼 发表于: 2015-09-11
好好好 我头像
离线小李

发帖
232
金钱
230
威望
99
贡献值
8
交易币
204
只看该作者 9楼 发表于: 2015-09-11
/Ghosts (EU#1 - EPC 664615 2) - WAV整轨 ♬by幽灵
好,我就全买了你的帖子了
快速回复
限100 字节
 
上一个 下一个