论坛风格切换切换到宽版
  • 884阅读
  • 18回复

[亲传][Single] 1997 HIStory/Ghosts (EU#1 - EPC 664615 2) - WAV整轨 ♬by幽灵 [复制链接]

上一主题 下一主题
离线mjghosts
 

发帖
8193
金钱
205205
威望
9035
贡献值
2641
交易币
4552
只看楼主 倒序阅读 楼主  发表于: 2015-08-21
— 本帖被 mjghosts 执行加亮操作(2015-08-21) —
注:独家整理,转载请注明出处!EAC无损整轨(压缩包内含CD图片) vA $BBXX  
,hcBiL/  
解压密码:www.mjsunny.com
'XjHB!!hU  
:O2v0Kx  
?2 O-EiWjZ  
,HjHt\!~<  
OTr!?xi  
"nS{ ;:  
Exact Audio Copy V1.0 beta 6 from 9. April 2015 ]&%X(jWyn  
:r[-7 [/  
EAC 抓取日志文件从15. 八月 2015, 2:46 JZ*?1S>  
[_z2z6  
Michael Jackson / HIStory / Ghosts ?_`P;}4#  
vmQ DcCw  
使用驱动器  :MATSHITADVD-RAM UJ890AS   Adapter: 1  ID: 1 a>e 1jM[  
[;\< 2=H  
读取模式      : 可靠Secure G;.u>92r|  
使用精确流     : 是 [ZpG+VAJ8  
清空音频缓存    : 否 P) 0=@{(  
使用 C2 指示器 : 是 5EZr"  
J*kzJ{vwy*  
读取偏移校正:               : 0 oZ>]8vw  
读取 Lead-In 和 Lead-Out : 否 CX(yrP6;  
用静音填充抓取中丢失偏移的采样       : 是 l<:)rg^,  
去除首尾静音块               : 否 Le+8s LE`Y  
在CRC 计算中使用了空样本       : 是 o]k]pNO  
已用接口                  : Win NT 及 2000 本地 Win32 接口 h3 ZL0Fi*  
[}Yci:P_ +  
所用输出模式: : 内部 WAV 函数 YRX2^v ^[  
样本格式    : 44.100 Hz; 16 Bit; 立体声 %y~]3XWik  
vG=$UUh@~  
gG|1$  
已抓取 CD 的 TOC GeR -k9  
-"b3q  
     音轨 |    起始    |    长度    |  起始扇区  |  结束扇区   rb4g<f|  
    -------------------------------------------- :BiR6>1:  
      1 |  0:00.00 |  4:10.35 |      0 |  18784 &dMSX}t  
      2 |  4:10.35 |  4:17.42 |  18785 |  38101 E<[ bgL  
      3 |  8:28.02 |  9:12.43 |  38102 |  79544 `RLrT3 4  
      4 | 17:40.45 |  4:59.47 |  79545 | 102016 JHOBg{Wg  
      5 | 22:40.17 |  3:03.68 | 102017 | 115809 V)?g4M3}  
      6 | 25:44.10 |  4:06.00 | 115810 | 134259 rm;"98~zJ?  
      7 | 29:50.10 |  3:49.57 | 134260 | 151491 }Bg<Fm  
i2c<q0u  
E^ti !4{<  
范围状态及错误 Dy'l]vN$  
V'4}9J  
已选择范围 + opN\`  
VZ!$'??  
     文件名 J:\12 Music*音乐\[Single] 1997 HIStory/Ghosts (EU#1 EPC 664615 2) 7 track\CDImage.wav _ o3}Ly}  
fXQRsL8 ]  
     峰值电平 100.0 % ml/O  
     抓取速度 5.6 X -w0>4JDs  
     范围质量 100.0 % I=-;*3g6  
     复制 CRC 3375A6F0 sM_e_e  
     复制成功 }# ^Pb M  
H2KY$;X [  
没有错误发生 q{(&:~M  
1#u w^{n  
状态报告结尾
.k(_ j.v  
`v er "s;  
此帖售价 20 金钱,已有 15 人购买 [记录] [购买]
购买后,将显示帖子中所有出售内容。
若发现会员采用欺骗的方法获取财富,请立刻举报,我们会对会员处以2-N倍的罚金,严重者封掉ID!
此段为出售的内容,购买后显示
2条评分金钱+51威望+5
无神论者 威望 +5 - 2015-08-21
无神论者 金钱 +51 - 2015-08-21
离线自作主张

发帖
335
金钱
2838
威望
78
贡献值
43
交易币
432
只看该作者 1楼 发表于: 2015-08-21
虽然贵,但也值得
离线wannam

发帖
2582
金钱
75499
威望
363
贡献值
169
交易币
3225
只看该作者 2楼 发表于: 2015-08-21
谢谢分享
离线mj1997

发帖
1459
金钱
6426
威望
221
贡献值
92
交易币
962
只看该作者 3楼 发表于: 2015-08-21
自抓辛苦,感谢分享
我的资源博客http://blog.sina.com.cn/u/2993163994慢慢建设
离线zxcv16

发帖
2617
金钱
4552
威望
409
贡献值
135
交易币
2809
只看该作者 4楼 发表于: 2015-08-21
感谢分享,辛苦了
离线q965488338

发帖
709
金钱
27822
威望
224
贡献值
96
交易币
1082
只看该作者 5楼 发表于: 2015-08-21
谢谢。。
离线mich008

发帖
755
金钱
4913
威望
24
贡献值
15
交易币
817
只看该作者 6楼 发表于: 2015-08-22
希望有更多 支持一个
在线耶稣

发帖
6478
金钱
187130
威望
1837
贡献值
1208
交易币
9692
只看该作者 7楼 发表于: 2015-08-23
优秀文章。。



离线marlene55555

发帖
1161
金钱
34311
威望
293
贡献值
98
交易币
1337
只看该作者 8楼 发表于: 2015-09-11
好好好 我头像
离线小李

发帖
200
金钱
181
威望
98
贡献值
7
交易币
168
只看该作者 9楼 发表于: 2015-09-11
/Ghosts (EU#1 - EPC 664615 2) - WAV整轨 ♬by幽灵
好,我就全买了你的帖子了
快速回复
限100 字节
 
上一个 下一个