论坛风格切换切换到宽版
  • 1232阅读
  • 19回复

[亲传][Single] 1997 HIStory/Ghosts (EU#1 - EPC 664615 2) - WAV整轨 ♬by幽灵 [复制链接]

上一主题 下一主题
离线mjghosts
 

发帖
8232
金钱
212989
威望
9167
贡献值
2716
交易币
4715
只看楼主 倒序阅读 楼主  发表于: 2015-08-21
— 本帖被 mjghosts 执行加亮操作(2015-08-21) —
注:独家整理,转载请注明出处!EAC无损整轨(压缩包内含CD图片) ?^} z  
(&o|}"kRq  
解压密码:www.mjsunny.com
u.yjk/jF  
xoe/I[P]U  
HrK7qLw7  
<lN=<9  
N2uTWT>  
AMe_D  
Exact Audio Copy V1.0 beta 6 from 9. April 2015 ` st^i$A  
} $oZZKS  
EAC 抓取日志文件从15. 八月 2015, 2:46 =<.h.n  
V8947h|&  
Michael Jackson / HIStory / Ghosts NOQSLT=  
7hAc6M$h;  
使用驱动器  :MATSHITADVD-RAM UJ890AS   Adapter: 1  ID: 1 g E$@:j  
' p!\[* e  
读取模式      : 可靠Secure ,3bAlc8D7  
使用精确流     : 是 /9<62F@zJ"  
清空音频缓存    : 否 9._Osbp3P  
使用 C2 指示器 : 是 8gXf4A(N  
N6uKFQL:{  
读取偏移校正:               : 0  &DX  
读取 Lead-In 和 Lead-Out : 否 5 u^;71  
用静音填充抓取中丢失偏移的采样       : 是 {"@E_{\  
去除首尾静音块               : 否 BV512+M  
在CRC 计算中使用了空样本       : 是 vw/X  
已用接口                  : Win NT 及 2000 本地 Win32 接口 cP &XkAQ  
MP%pEUomev  
所用输出模式: : 内部 WAV 函数 vGI?X#w3  
样本格式    : 44.100 Hz; 16 Bit; 立体声 0\Ga&Q0-(O  
zx=AT  
Sp^jC Xu  
已抓取 CD 的 TOC c&u~M=EW  
`o,D[Jd  
     音轨 |    起始    |    长度    |  起始扇区  |  结束扇区   6d# V  
    -------------------------------------------- GPVqt"TY  
      1 |  0:00.00 |  4:10.35 |      0 |  18784 }ikJ a  
      2 |  4:10.35 |  4:17.42 |  18785 |  38101 p.J+~s4G  
      3 |  8:28.02 |  9:12.43 |  38102 |  79544 \"^.>+  
      4 | 17:40.45 |  4:59.47 |  79545 | 102016 m6D]   
      5 | 22:40.17 |  3:03.68 | 102017 | 115809 k yI-nE  
      6 | 25:44.10 |  4:06.00 | 115810 | 134259 b08s610fk  
      7 | 29:50.10 |  3:49.57 | 134260 | 151491 *MBu5 +u%e  
ILQB%0!  
M((]> *g  
范围状态及错误 _Ka6! 9  
#r ;;d(  
已选择范围 [z^db0PU  
y ;$8C  
     文件名 J:\12 Music*音乐\[Single] 1997 HIStory/Ghosts (EU#1 EPC 664615 2) 7 track\CDImage.wav d\R]>  
m\}8N u  
     峰值电平 100.0 % 7HpfHqJ7  
     抓取速度 5.6 X  fn1G^a=  
     范围质量 100.0 % Qe&K  
     复制 CRC 3375A6F0 C;T:'Uws  
     复制成功 ?HP54G<{xz  
=1JS6~CTLN  
没有错误发生 d$3;o&VUNI  
p)t1] <,Of  
状态报告结尾
)JO#Z(  
Z~g I)  
此帖售价 20 金钱,已有 16 人购买 [记录] [购买]
购买后,将显示帖子中所有出售内容。
若发现会员采用欺骗的方法获取财富,请立刻举报,我们会对会员处以2-N倍的罚金,严重者封掉ID!
此段为出售的内容,购买后显示
2条评分金钱+51威望+5
无神论者 威望 +5 - 2015-08-21
无神论者 金钱 +51 - 2015-08-21
离线自作主张

发帖
341
金钱
3169
威望
80
贡献值
43
交易币
438
只看该作者 1楼 发表于: 2015-08-21
虽然贵,但也值得
离线wannam

发帖
2699
金钱
86931
威望
382
贡献值
189
交易币
3342
只看该作者 2楼 发表于: 2015-08-21
谢谢分享
离线mj1997

发帖
1479
金钱
6167
威望
216
贡献值
92
交易币
982
只看该作者 3楼 发表于: 2015-08-21
自抓辛苦,感谢分享
我的资源博客http://blog.sina.com.cn/u/2993163994慢慢建设
离线zxcv16

发帖
2657
金钱
3911
威望
409
贡献值
135
交易币
2849
只看该作者 4楼 发表于: 2015-08-21
感谢分享,辛苦了
离线q965488338

发帖
709
金钱
28138
威望
224
贡献值
96
交易币
1082
只看该作者 5楼 发表于: 2015-08-21
谢谢。。
离线mich008

发帖
813
金钱
5312
威望
24
贡献值
15
交易币
875
只看该作者 6楼 发表于: 2015-08-22
希望有更多 支持一个
在线耶稣

发帖
7086
金钱
254409
威望
2445
贡献值
1619
交易币
11053
只看该作者 7楼 发表于: 2015-08-23
优秀文章。。




离线marlene55555

发帖
1164
金钱
34253
威望
293
贡献值
98
交易币
1340
只看该作者 8楼 发表于: 2015-09-11
好好好 我头像
离线小李

发帖
226
金钱
155
威望
99
贡献值
8
交易币
198
只看该作者 9楼 发表于: 2015-09-11
/Ghosts (EU#1 - EPC 664615 2) - WAV整轨 ♬by幽灵
好,我就全买了你的帖子了
快速回复
限100 字节
 
上一个 下一个