论坛风格切换切换到宽版
  • 1000阅读
  • 18回复

[亲传][Single] 1997 HIStory/Ghosts (EU#1 - EPC 664615 2) - WAV整轨 ♬by幽灵 [复制链接]

上一主题 下一主题
离线mjghosts
 

发帖
8235
金钱
209092
威望
9162
贡献值
2713
交易币
4678
只看楼主 倒序阅读 楼主  发表于: 2015-08-21
— 本帖被 mjghosts 执行加亮操作(2015-08-21) —
注:独家整理,转载请注明出处!EAC无损整轨(压缩包内含CD图片) ps3jw*QZ{5  
JWvL  
解压密码:www.mjsunny.com
|#`qP^E  
@j=Q$k.GF  
X_2p C|C  
i5jsM\1j  
)V?:qCuY>  
'yR)z\)  
Exact Audio Copy V1.0 beta 6 from 9. April 2015 `ehcj G1nY  
#8qhl  
EAC 抓取日志文件从15. 八月 2015, 2:46 Q?]-/v  
;dZuO[4\  
Michael Jackson / HIStory / Ghosts Y2Y)|<FH  
nb_$g@ 03  
使用驱动器  :MATSHITADVD-RAM UJ890AS   Adapter: 1  ID: 1 5l4YYwd>v  
|!E: [UH  
读取模式      : 可靠Secure ~Y/o9x0  
使用精确流     : 是 AS'%Md&I  
清空音频缓存    : 否 2$s2u;  
使用 C2 指示器 : 是 ="J *v>  
JK'FJ}Z4  
读取偏移校正:               : 0 z~(3S8$  
读取 Lead-In 和 Lead-Out : 否 Z|$M 9E  
用静音填充抓取中丢失偏移的采样       : 是 )J{ .z   
去除首尾静音块               : 否 }WDzzjDR+  
在CRC 计算中使用了空样本       : 是 wGg_ vAn  
已用接口                  : Win NT 及 2000 本地 Win32 接口 3>QkO.b  
zv0bE?W9   
所用输出模式: : 内部 WAV 函数 _9:r4|S  
样本格式    : 44.100 Hz; 16 Bit; 立体声 G4](!f!Kv  
.C,D;T{  
O+OUcMa,  
已抓取 CD 的 TOC )k.}>0K |  
2"6bz^>}  
     音轨 |    起始    |    长度    |  起始扇区  |  结束扇区   Z@,[a  
    -------------------------------------------- je8 5G`{DC  
      1 |  0:00.00 |  4:10.35 |      0 |  18784 o3YW(%cYR  
      2 |  4:10.35 |  4:17.42 |  18785 |  38101 w)C5XX30;  
      3 |  8:28.02 |  9:12.43 |  38102 |  79544 \zKO5,qw  
      4 | 17:40.45 |  4:59.47 |  79545 | 102016 }`.d4mm  
      5 | 22:40.17 |  3:03.68 | 102017 | 115809 "S H=|5+  
      6 | 25:44.10 |  4:06.00 | 115810 | 134259 # /Bg5:  
      7 | 29:50.10 |  3:49.57 | 134260 | 151491 ^B:;uyG]M  
h:RP/ 0E  
nF B]#LLv  
范围状态及错误 R$X~d8o>%  
P; h8  
已选择范围 ;5DDV6  
m!5Edo-;<  
     文件名 J:\12 Music*音乐\[Single] 1997 HIStory/Ghosts (EU#1 EPC 664615 2) 7 track\CDImage.wav dci<Rz`h  
``%yVVg}  
     峰值电平 100.0 % Gk]ZP31u  
     抓取速度 5.6 X NSM7n= *nh  
     范围质量 100.0 % $<AaeyR!N  
     复制 CRC 3375A6F0 >n^780S|  
     复制成功 K)U[xS;<  
\W]gy_=D{  
没有错误发生 0<O()NMv  
.G#li(NWH  
状态报告结尾
Uo71C4ev  
6tFi\,)E  
此帖售价 20 金钱,已有 15 人购买 [记录] [购买]
购买后,将显示帖子中所有出售内容。
若发现会员采用欺骗的方法获取财富,请立刻举报,我们会对会员处以2-N倍的罚金,严重者封掉ID!
此段为出售的内容,购买后显示
2条评分金钱+51威望+5
无神论者 威望 +5 - 2015-08-21
无神论者 金钱 +51 - 2015-08-21
离线自作主张

发帖
335
金钱
2993
威望
78
贡献值
43
交易币
432
只看该作者 1楼 发表于: 2015-08-21
虽然贵,但也值得
离线wannam

发帖
2680
金钱
86768
威望
382
贡献值
189
交易币
3323
只看该作者 2楼 发表于: 2015-08-21
谢谢分享
离线mj1997

发帖
1462
金钱
6414
威望
221
贡献值
92
交易币
965
只看该作者 3楼 发表于: 2015-08-21
自抓辛苦,感谢分享
我的资源博客http://blog.sina.com.cn/u/2993163994慢慢建设
离线zxcv16

发帖
2627
金钱
4346
威望
409
贡献值
135
交易币
2819
只看该作者 4楼 发表于: 2015-08-21
感谢分享,辛苦了
离线q965488338

发帖
709
金钱
27908
威望
224
贡献值
96
交易币
1082
只看该作者 5楼 发表于: 2015-08-21
谢谢。。
离线mich008

发帖
793
金钱
4977
威望
24
贡献值
15
交易币
855
只看该作者 6楼 发表于: 2015-08-22
希望有更多 支持一个
在线耶稣

发帖
6650
金钱
211639
威望
2163
贡献值
1422
交易币
10196
只看该作者 7楼 发表于: 2015-08-23
优秀文章。。


离线marlene55555

发帖
1161
金钱
34314
威望
293
贡献值
98
交易币
1337
只看该作者 8楼 发表于: 2015-09-11
好好好 我头像
离线小李

发帖
211
金钱
177
威望
98
贡献值
7
交易币
179
只看该作者 9楼 发表于: 2015-09-11
/Ghosts (EU#1 - EPC 664615 2) - WAV整轨 ♬by幽灵
好,我就全买了你的帖子了
快速回复
限100 字节
 
上一个 下一个