论坛风格切换切换到宽版
  • 1179阅读
  • 19回复

[亲传][Album] 1991 Dangerous (US - EK 45400) - WAV整轨 ♬by幽灵 [复制链接]

上一主题 下一主题
离线mjghosts
 

发帖
8233
金钱
208923
威望
9161
贡献值
2712
交易币
4672
只看楼主 倒序阅读 楼主  发表于: 2015-08-24
— 本帖被 mjghosts 执行加亮操作(2015-08-24) —
***美国91年首版*** Ma*dIwEp  
4, *^QK  
注:独家整理,转载请注明出处!EAC无损整轨(压缩包内含CD图片) 4 HJZ^bq9|  
y T1Qep  
解压密码:www.mjsunny.com
5{d9,$%8&  
|q.:hWYFpM  
jcv1z v.  
C +?@iMh  
E][{RTs  
o"ah\"#el  
Exact Audio Copy V1.0 beta 6 from 9. April 2015 I\uB"Z{9  
,I&0#+}n  
EAC 抓取日志文件从18. 八月 2015, 22:10 k@";i4}A  
^B!?;\4IM  
Michael Jackson / Dangerous !E:Vn *k;  
LI|HET_  
使用驱动器  :MATSHITADVD-RAM UJ890AS   Adapter: 1  ID: 1 cD`O+WA2K  
aCi^^}!  
读取模式      : 可靠Secure ?! _pP|  
使用精确流     : 是 P"_}F  
清空音频缓存    : 否 P~ pbx  
使用 C2 指示器 : 是 `L*;58MA  
G{Enh<V  
读取偏移校正:               : 102 [gdPHXs  
读取 Lead-In 和 Lead-Out : 否 N&h!14]{ Z  
用静音填充抓取中丢失偏移的采样       : 是 ,wo"(E!4e  
去除首尾静音块               : 否 LhRe?U\  
在CRC 计算中使用了空样本       : 是 gK\7^95  
已用接口                  : Win NT 及 2000 本地 Win32 接口 W(4?#lA2W  
E2kRt'~N  
所用输出模式: : 内部 WAV 函数 !r0P\  
样本格式    : 44.100 Hz; 16 Bit; 立体声 w/6@R 4)p  
:q1r2&ne  
Dx'e+Bm  
已抓取 CD 的 TOC u`|fmVI  
<=M}[  
     音轨 |    起始    |    长度    |  起始扇区  |  结束扇区   E76:}(  
    -------------------------------------------- g"Bv!9*H  
      1 |  0:00.00 |  5:39.57 |      0 |  25481 W$S.?[X  
      2 |  5:39.57 |  5:24.55 |  25482 |  49836 z, [ +  
      3 | 11:04.37 |  6:32.35 |  49837 |  79271 i;Y^}2   
      4 | 17:36.72 |  3:41.73 |  79272 |  95919 @4$E.q<0  
      5 | 21:18.70 |  4:00.42 |  95920 | 113961 LKcrr;  
      6 | 25:19.37 |  5:01.70 | 113962 | 136606 *en{pR'  
      7 | 30:21.32 |  6:24.35 | 136607 | 165441 wn`budH?c8  
      8 | 36:45.67 |  4:16.05 | 165442 | 184646 ^iNR(cwgX  
      9 | 41:01.72 |  6:35.38 | 184647 | 214309 pjFgIG2=9  
     10 | 47:37.35 |  5:29.35 | 214310 | 239019 h%%'{^>~  
     11 | 53:06.70 |  7:40.57 | 239020 | 273576 X}$S|1CjO  
     12 | 60:47.52 |  5:58.08 | 273577 | 300434 RMXP)[  
     13 | 66:45.60 |  3:22.27 | 300435 | 315611 *RPI$0  
     14 | 70:08.12 |  6:59.48 | 315612 | 347084 ''G @n*  
",a fv{C  
u|e2T@t=  
范围状态及错误 pS0T>r  
_wIAr  
已选择范围 Nbr{)h  
&3rh{"^9  
     文件名 J:\12 Music*音乐\CDImage.wav  m{~r6@  
-szvO_UP  
     峰值电平 100.0 % I)clGMS,  
     抓取速度 7.1 X =uHTpHR  
     范围质量 100.0 % ;I9D>shkc  
     复制 CRC 55C944E1 N7|ctO  
     复制成功 lm$T`:c  
8$1<N  
没有错误发生 w!61k \  
<=WQs2  
}_K7}] 1  
AccurateRip 摘要  0N md*r  
`U)~fu/\2M  
音轨  1  精确地校准抓取  5)  [D20BF25A]  (AR v2) g^=p)h3  
音轨  2  精确地校准抓取  5)  [EFA029A8]  (AR v2) ?,]25q   
音轨  3  精确地校准抓取  5)  [F6F04456]  (AR v2) p;g$D=2  
音轨  4  精确地校准抓取  4)  [6310A17A]  (AR v2) f Vw+8[d0  
音轨  5  精确地校准抓取  5)  [B4050399]  (AR v2) OQA}+XO  
音轨  6  精确地校准抓取  4)  [CB933A67]  (AR v2) 1Jt5|'tl  
音轨  7  精确地校准抓取  4)  [6B7A9566]  (AR v2) ,@Xl?  
音轨  8  精确地校准抓取  5)  [F33AA5B9]  (AR v2) $)mK]57  
音轨  9  精确地校准抓取  5)  [34CB06D3]  (AR v2) uPhFBD7  
音轨 10  精确地校准抓取  5)  [6171A59B]  (AR v2) Z+x,Awq  
音轨 11  精确地校准抓取  5)  [D88D9CFE]  (AR v2) 2Gd.B/L6  
音轨 12  精确地校准抓取  4)  [4C53B9F0]  (AR v2) akoK4!z  
音轨 13  精确地校准抓取  4)  [39582DA3]  (AR v2) A!\ g!*  
音轨 14  精确地校准抓取  5)  [FF8C4FDD]  (AR v2) &'Pwz  
Iy% fg',%  
所有音轨精确校准抓取 ~PAF2  
FxeDjAP  
状态报告结尾
GG<{n$h  
/P { Zo  
此帖售价 20 金钱,已有 16 人购买 [记录] [购买]
购买后,将显示帖子中所有出售内容。
若发现会员采用欺骗的方法获取财富,请立刻举报,我们会对会员处以2-N倍的罚金,严重者封掉ID!
此段为出售的内容,购买后显示
u_ou,RF  
离线q965488338

发帖
709
金钱
27898
威望
224
贡献值
96
交易币
1082
只看该作者 1楼 发表于: 2015-08-24
感谢分享!!!
离线musickingdom

发帖
826
金钱
470
威望
108
贡献值
55
交易币
1021
只看该作者 2楼 发表于: 2015-08-24
这个最喜欢,果断收了
正在建设的土豆小站萌萌哒~http://www.tudou.com/home/_68623032/
在线耶稣

发帖
6590
金钱
202466
威望
2125
贡献值
1384
交易币
10016
只看该作者 3楼 发表于: 2015-08-24
看看能不能放手机听 B33H,e)  
G zw $M  
N sNk  



离线hcs107

发帖
207
金钱
184
威望
15
贡献值
22
交易币
296
只看该作者 4楼 发表于: 2015-08-28
verygood
离线自作主张

发帖
335
金钱
2993
威望
78
贡献值
43
交易币
432
只看该作者 5楼 发表于: 2015-08-28
这张好贵,同样支持
离线zhouquan311

发帖
734
金钱
7691
威望
136
贡献值
66
交易币
974
只看该作者 6楼 发表于: 2015-09-03
非常赞!
Forever MJ
       我要去减肥,除非冰淇淋,
  
  不再那么贵,三块二毛一,
  
  我也要人陪,除非我有米,
  
  去换红玫瑰,然后送给你,
  
离线mjf

发帖
145
金钱
7
威望
1
贡献值
0
交易币
143
只看该作者 7楼 发表于: 2015-09-07
谢谢lz分享 MtC\kTW  
离线Mr灬W

发帖
1156
金钱
12831
威望
161
贡献值
56
交易币
1281
只看该作者 8楼 发表于: 2015-09-21
回 怪盗基德 的帖子
怪盗基德:看看能不能放手机听 !Au'WJfE  
[图片]
 (2015-08-24 09:48)  Z4 y9d?g%b  
C s XV0  
哈哈,图片蛮有趣的!
Heal The World
离线lifan_npl

发帖
2086
金钱
18040
威望
787
贡献值
347
交易币
2439
只看该作者 9楼 发表于: 2015-11-21
还好我没有首版情节
我的淘宝:
http://shop63152617.taobao.com  
快速回复
限100 字节
 
上一个 下一个