论坛风格切换切换到宽版
  • 1006阅读
  • 18回复

[亲传][Album] 1991 Dangerous (US - EK 45400) - WAV整轨 ♬by幽灵 [复制链接]

上一主题 下一主题
离线mjghosts
 

发帖
8191
金钱
204337
威望
9035
贡献值
2641
交易币
4550
只看楼主 倒序阅读 楼主  发表于: 2015-08-24
— 本帖被 mjghosts 执行加亮操作(2015-08-24) —
***美国91年首版*** 7^$)VBQ/  
+t98 @  
注:独家整理,转载请注明出处!EAC无损整轨(压缩包内含CD图片) P;vxT}1  
I&Jt> O4  
解压密码:www.mjsunny.com
xjo;kx\y^  
=m7H)z)i*J  
fW?sYC'  
KOey8tB)1  
!:WW  
- v]Qhf&>  
Exact Audio Copy V1.0 beta 6 from 9. April 2015 u-JpI-8h  
~6`iY@)  
EAC 抓取日志文件从18. 八月 2015, 22:10 w{!(r  
tx"LeZZ  
Michael Jackson / Dangerous 3J~0O2  
K R,z^9  
使用驱动器  :MATSHITADVD-RAM UJ890AS   Adapter: 1  ID: 1 {tw+#}T a  
wN97_Y=`n  
读取模式      : 可靠Secure bFY~oa%C  
使用精确流     : 是 xCXQ<77  
清空音频缓存    : 否 p@~ic#X  
使用 C2 指示器 : 是 Apj;  
s$w;q\1z  
读取偏移校正:               : 102 z.36;yT/  
读取 Lead-In 和 Lead-Out : 否 (YPi&w~S  
用静音填充抓取中丢失偏移的采样       : 是 tF7hFL5f  
去除首尾静音块               : 否 rf.`h{!!  
在CRC 计算中使用了空样本       : 是 m&*JMA;^  
已用接口                  : Win NT 及 2000 本地 Win32 接口 ),(V6@Z?  
MHU74//fe  
所用输出模式: : 内部 WAV 函数 <lE?,jl  
样本格式    : 44.100 Hz; 16 Bit; 立体声 LzML%J62  
jQS 6J+F]  
QA3/   
已抓取 CD 的 TOC EON:B>2a  
i#/]KsSp  
     音轨 |    起始    |    长度    |  起始扇区  |  结束扇区   mh.+."<)F  
    -------------------------------------------- 1yQejw  
      1 |  0:00.00 |  5:39.57 |      0 |  25481 cPDQ1qre!  
      2 |  5:39.57 |  5:24.55 |  25482 |  49836 K2{aNv R)t  
      3 | 11:04.37 |  6:32.35 |  49837 |  79271 iK5_u2]Q  
      4 | 17:36.72 |  3:41.73 |  79272 |  95919 rV6/Tdy  
      5 | 21:18.70 |  4:00.42 |  95920 | 113961 oGa^/:6L  
      6 | 25:19.37 |  5:01.70 | 113962 | 136606 Wp)*Mbq@  
      7 | 30:21.32 |  6:24.35 | 136607 | 165441 #]P9b@@e  
      8 | 36:45.67 |  4:16.05 | 165442 | 184646 bi[IqU!9  
      9 | 41:01.72 |  6:35.38 | 184647 | 214309 MUnEuhXTr  
     10 | 47:37.35 |  5:29.35 | 214310 | 239019 >J9oH=S6  
     11 | 53:06.70 |  7:40.57 | 239020 | 273576 #Tw@wfaq)  
     12 | 60:47.52 |  5:58.08 | 273577 | 300434 2*w0t:Yx e  
     13 | 66:45.60 |  3:22.27 | 300435 | 315611 Zf$Np50@(  
     14 | 70:08.12 |  6:59.48 | 315612 | 347084 .*g0w`H5pU  
u .f= te  
^XbU~3(  
范围状态及错误 [AMAa]^  
AIMSX]m  
已选择范围 ~5FW [_  
Od f[*  
     文件名 J:\12 Music*音乐\CDImage.wav 7f rTTSZ  
}>)[<;M>%  
     峰值电平 100.0 % (hiyNMC  
     抓取速度 7.1 X >leU:7  
     范围质量 100.0 % x }Ad_#q  
     复制 CRC 55C944E1 Z}$TKO*u  
     复制成功 Pj}6 6.  
-py@DzK  
没有错误发生 O T.*pk+<)  
(L^]Lk x)  
i3rH'B -I.  
AccurateRip 摘要 *G* k6.9W!  
dFKM 8_jH  
音轨  1  精确地校准抓取  5)  [D20BF25A]  (AR v2) ;L']e"G  
音轨  2  精确地校准抓取  5)  [EFA029A8]  (AR v2) _/i4MtM  
音轨  3  精确地校准抓取  5)  [F6F04456]  (AR v2) v`M3eh@$A  
音轨  4  精确地校准抓取  4)  [6310A17A]  (AR v2) /~zai}  
音轨  5  精确地校准抓取  5)  [B4050399]  (AR v2) 293M\5:  
音轨  6  精确地校准抓取  4)  [CB933A67]  (AR v2) Y1]n^  
音轨  7  精确地校准抓取  4)  [6B7A9566]  (AR v2) z11O F  
音轨  8  精确地校准抓取  5)  [F33AA5B9]  (AR v2) Hy^N!rBxfO  
音轨  9  精确地校准抓取  5)  [34CB06D3]  (AR v2) gLOEh6  
音轨 10  精确地校准抓取  5)  [6171A59B]  (AR v2) w@{=nD4p  
音轨 11  精确地校准抓取  5)  [D88D9CFE]  (AR v2) x QIq^/F0  
音轨 12  精确地校准抓取  4)  [4C53B9F0]  (AR v2) _H5o'>=  
音轨 13  精确地校准抓取  4)  [39582DA3]  (AR v2) r-Pkfy(  
音轨 14  精确地校准抓取  5)  [FF8C4FDD]  (AR v2) 3f,hw5R  
B]Thn  
所有音轨精确校准抓取 ;C2K~8,  
Y\No4w ^|d  
状态报告结尾
PpAu!2lt9  
<i&_ooX  
此帖售价 20 金钱,已有 15 人购买 [记录] [购买]
购买后,将显示帖子中所有出售内容。
若发现会员采用欺骗的方法获取财富,请立刻举报,我们会对会员处以2-N倍的罚金,严重者封掉ID!
此段为出售的内容,购买后显示
d8c=L8~jt  
离线q965488338

发帖
709
金钱
27814
威望
224
贡献值
96
交易币
1082
只看该作者 1楼 发表于: 2015-08-24
感谢分享!!!
离线musickingdom

发帖
824
金钱
428
威望
103
贡献值
55
交易币
1019
只看该作者 2楼 发表于: 2015-08-24
这个最喜欢,果断收了
正在建设的土豆小站萌萌哒~http://www.tudou.com/home/_68623032/
在线耶稣

发帖
6457
金钱
181055
威望
1800
贡献值
1197
交易币
9627
只看该作者 3楼 发表于: 2015-08-24
看看能不能放手机听 x -WmMfcz&  
Yb|c\[ %  
:%t U'w  



离线hcs107

发帖
207
金钱
184
威望
15
贡献值
22
交易币
296
只看该作者 4楼 发表于: 2015-08-28
verygood
离线自作主张

发帖
334
金钱
2793
威望
78
贡献值
43
交易币
431
只看该作者 5楼 发表于: 2015-08-28
这张好贵,同样支持
离线zhouquan311

发帖
734
金钱
7683
威望
136
贡献值
66
交易币
974
只看该作者 6楼 发表于: 2015-09-03
非常赞!
Forever MJ
       我要去减肥,除非冰淇淋,
  
  不再那么贵,三块二毛一,
  
  我也要人陪,除非我有米,
  
  去换红玫瑰,然后送给你,
  
离线mjf

发帖
145
金钱
7
威望
1
贡献值
0
交易币
143
只看该作者 7楼 发表于: 2015-09-07
谢谢lz分享 D.r<QO~6B  
离线Mr灬W

发帖
1146
金钱
13022
威望
152
贡献值
46
交易币
1271
只看该作者 8楼 发表于: 2015-09-21
回 怪盗基德 的帖子
怪盗基德:看看能不能放手机听 ^Xz@`_I  
[图片]
 (2015-08-24 09:48)  [Hx0`Nc K  
<'}YyU=  
哈哈,图片蛮有趣的!
Heal The World
离线lifan_npl

发帖
2058
金钱
18220
威望
777
贡献值
337
交易币
2411
只看该作者 9楼 发表于: 2015-11-21
还好我没有首版情节
我的淘宝:
http://shop63152617.taobao.com  
快速回复
限100 字节
 
上一个 下一个