论坛风格切换切换到宽版
  • 1040阅读
  • 19回复

[亲传][Album] 1991 Dangerous (US - EK 45400) - WAV整轨 ♬by幽灵 [复制链接]

上一主题 下一主题
离线mjghosts
 

发帖
8193
金钱
205205
威望
9035
贡献值
2641
交易币
4552
只看楼主 倒序阅读 楼主  发表于: 2015-08-24
— 本帖被 mjghosts 执行加亮操作(2015-08-24) —
***美国91年首版*** ov 'g'1}  
{Mv$~T|e7  
注:独家整理,转载请注明出处!EAC无损整轨(压缩包内含CD图片) ML!>tCT  
r%uka5@  
解压密码:www.mjsunny.com
{W' 9k  
ev4f9Fhu  
H %bXx-  
Hob n{E  
W#bOx0  
PAy/"R9DT-  
Exact Audio Copy V1.0 beta 6 from 9. April 2015 SZVAf|]Yg  
KW@][*\uC  
EAC 抓取日志文件从18. 八月 2015, 22:10 H/^t]bg,  
/D>G4PP<  
Michael Jackson / Dangerous =K;M\_k%y  
<hBd #J  
使用驱动器  :MATSHITADVD-RAM UJ890AS   Adapter: 1  ID: 1 ra|Ku!  
4> NmJrh  
读取模式      : 可靠Secure >mW*K _~  
使用精确流     : 是 \Gm\sy  
清空音频缓存    : 否 #JYH5:*  
使用 C2 指示器 : 是 O!k C  
oU/{<gs  
读取偏移校正:               : 102 z5 g4+y,  
读取 Lead-In 和 Lead-Out : 否 j2`%sBo  
用静音填充抓取中丢失偏移的采样       : 是 H{,qw%.|KA  
去除首尾静音块               : 否 oC~+K@S  
在CRC 计算中使用了空样本       : 是 mIW/x/I  
已用接口                  : Win NT 及 2000 本地 Win32 接口 ZkqZO#nq C  
ZkmY pi[  
所用输出模式: : 内部 WAV 函数 y41~  
样本格式    : 44.100 Hz; 16 Bit; 立体声 #By~gcN  
t8f:?  
x0||'0I0  
已抓取 CD 的 TOC =3EE-%eF!  
i'3)5  
     音轨 |    起始    |    长度    |  起始扇区  |  结束扇区   B4eV$~<  
    -------------------------------------------- @y/!`Ziw  
      1 |  0:00.00 |  5:39.57 |      0 |  25481 34I;DUdcE  
      2 |  5:39.57 |  5:24.55 |  25482 |  49836 Vtv1{/@+c  
      3 | 11:04.37 |  6:32.35 |  49837 |  79271 }t0JI3  
      4 | 17:36.72 |  3:41.73 |  79272 |  95919 [mFgo il  
      5 | 21:18.70 |  4:00.42 |  95920 | 113961 ]VoJ7LoCZ'  
      6 | 25:19.37 |  5:01.70 | 113962 | 136606 jP\5bg-}  
      7 | 30:21.32 |  6:24.35 | 136607 | 165441 J]5ZWo%  
      8 | 36:45.67 |  4:16.05 | 165442 | 184646 "%ZAL\x  
      9 | 41:01.72 |  6:35.38 | 184647 | 214309 I_is3y0  
     10 | 47:37.35 |  5:29.35 | 214310 | 239019 oC}2 Z{  
     11 | 53:06.70 |  7:40.57 | 239020 | 273576 >">grDX  
     12 | 60:47.52 |  5:58.08 | 273577 | 300434 E&;;2  
     13 | 66:45.60 |  3:22.27 | 300435 | 315611 D22A)0+_  
     14 | 70:08.12 |  6:59.48 | 315612 | 347084 gR${S|Z#u4  
=kb/4eRg  
"4L_BJZ  
范围状态及错误 wPvYnhr|G-  
bO+ e?&vQ%  
已选择范围 -/R?D1kOq  
X nB-1{a1  
     文件名 J:\12 Music*音乐\CDImage.wav #:=*n(GT  
?:3rVfO  
     峰值电平 100.0 % \{54mM~  
     抓取速度 7.1 X m0N{%Mf-  
     范围质量 100.0 % [Uw3.CVh  
     复制 CRC 55C944E1 J+=?taZ  
     复制成功 7)*QX,4C  
(H-kWT  
没有错误发生 $1n\jN  
:Fi$-g  
3aFD*S  
AccurateRip 摘要 5UvqE_  
R(IYb%L  
音轨  1  精确地校准抓取  5)  [D20BF25A]  (AR v2) V1\Rj0#G  
音轨  2  精确地校准抓取  5)  [EFA029A8]  (AR v2)  k<  
音轨  3  精确地校准抓取  5)  [F6F04456]  (AR v2) i!+0''i{#  
音轨  4  精确地校准抓取  4)  [6310A17A]  (AR v2) [E0.4FLT!  
音轨  5  精确地校准抓取  5)  [B4050399]  (AR v2) Jm-bE 8b  
音轨  6  精确地校准抓取  4)  [CB933A67]  (AR v2) I[P_j`aE  
音轨  7  精确地校准抓取  4)  [6B7A9566]  (AR v2) c"pu"t@/Z  
音轨  8  精确地校准抓取  5)  [F33AA5B9]  (AR v2) vOU9[n N[  
音轨  9  精确地校准抓取  5)  [34CB06D3]  (AR v2) j`%a2  
音轨 10  精确地校准抓取  5)  [6171A59B]  (AR v2) .QB)Y* z  
音轨 11  精确地校准抓取  5)  [D88D9CFE]  (AR v2) $j"BHpN  
音轨 12  精确地校准抓取  4)  [4C53B9F0]  (AR v2) [#;CBs5o  
音轨 13  精确地校准抓取  4)  [39582DA3]  (AR v2) ]\*_}  
音轨 14  精确地校准抓取  5)  [FF8C4FDD]  (AR v2) \`-a'u=S  
c.}#.-b8  
所有音轨精确校准抓取 n7L|XkaQ  
F_~A8y  
状态报告结尾
0HDL;XY6  
z,(.` %h  
此帖售价 20 金钱,已有 16 人购买 [记录] [购买]
购买后,将显示帖子中所有出售内容。
若发现会员采用欺骗的方法获取财富,请立刻举报,我们会对会员处以2-N倍的罚金,严重者封掉ID!
此段为出售的内容,购买后显示
;-8]  
离线q965488338

发帖
709
金钱
27822
威望
224
贡献值
96
交易币
1082
只看该作者 1楼 发表于: 2015-08-24
感谢分享!!!
离线musickingdom

发帖
825
金钱
463
威望
108
贡献值
55
交易币
1020
只看该作者 2楼 发表于: 2015-08-24
这个最喜欢,果断收了
正在建设的土豆小站萌萌哒~http://www.tudou.com/home/_68623032/
离线耶稣

发帖
6478
金钱
187180
威望
1842
贡献值
1208
交易币
9692
只看该作者 3楼 发表于: 2015-08-24
看看能不能放手机听 DlQ*'PX7  
'S 6JpWG1  
Q'0:k{G  



离线hcs107

发帖
207
金钱
184
威望
15
贡献值
22
交易币
296
只看该作者 4楼 发表于: 2015-08-28
verygood
离线自作主张

发帖
335
金钱
2833
威望
78
贡献值
43
交易币
432
只看该作者 5楼 发表于: 2015-08-28
这张好贵,同样支持
离线zhouquan311

发帖
734
金钱
7683
威望
136
贡献值
66
交易币
974
只看该作者 6楼 发表于: 2015-09-03
非常赞!
Forever MJ
       我要去减肥,除非冰淇淋,
  
  不再那么贵,三块二毛一,
  
  我也要人陪,除非我有米,
  
  去换红玫瑰,然后送给你,
  
离线mjf

发帖
145
金钱
7
威望
1
贡献值
0
交易币
143
只看该作者 7楼 发表于: 2015-09-07
谢谢lz分享 ?tf<AZ=+^L  
离线Mr灬W

发帖
1147
金钱
12923
威望
151
贡献值
46
交易币
1272
只看该作者 8楼 发表于: 2015-09-21
回 怪盗基德 的帖子
怪盗基德:看看能不能放手机听 Xsv^GmP+  
[图片]
 (2015-08-24 09:48)   hPgDK.R'  
9$e6?<`(Y  
哈哈,图片蛮有趣的!
Heal The World
离线lifan_npl

发帖
2062
金钱
18203
威望
777
贡献值
337
交易币
2415
只看该作者 9楼 发表于: 2015-11-21
还好我没有首版情节
我的淘宝:
http://shop63152617.taobao.com  
快速回复
限100 字节
 
上一个 下一个