论坛风格切换切换到宽版
  • 1718阅读
  • 21回复

[亲传][Album] 1991 Dangerous (US - EK 45400) - WAV整轨 ♬by幽灵 [复制链接]

上一主题 下一主题
离线mjghosts
 

发帖
8240
金钱
216247
威望
9172
贡献值
2721
交易币
4743
只看楼主 倒序阅读 楼主  发表于: 2015-08-24
— 本帖被 mjghosts 执行加亮操作(2015-08-24) —
***美国91年首版*** -L6YLe%w  
# ^q87y  
注:独家整理,转载请注明出处!EAC无损整轨(压缩包内含CD图片) E/:mO~1< c  
q,% lG$0v  
解压密码:www.mjsunny.com
5BAGIO<w  
DPg\y".4Y&  
- xE%`X  
(`cXS5R  
^/M-*U8ab  
, #nYHD  
Exact Audio Copy V1.0 beta 6 from 9. April 2015 /t|Lu@&:Xo  
s,|"s|P  
EAC 抓取日志文件从18. 八月 2015, 22:10 {^*K@c  
kdW$>Jqb  
Michael Jackson / Dangerous es!>u{8)  
^hRx{A  
使用驱动器  :MATSHITADVD-RAM UJ890AS   Adapter: 1  ID: 1 4r tNvf5`  
 \<u  
读取模式      : 可靠Secure E@/* eJ  
使用精确流     : 是 }'WEqNuE  
清空音频缓存    : 否 A/TCJ#>l  
使用 C2 指示器 : 是 21sXCmYR,t  
l}_6 _g>6  
读取偏移校正:               : 102 w`_"R6  
读取 Lead-In 和 Lead-Out : 否 !X4m6gRaP  
用静音填充抓取中丢失偏移的采样       : 是 trz &]v=:  
去除首尾静音块               : 否 ")Qhg-l  
在CRC 计算中使用了空样本       : 是 D}~uxw;[^  
已用接口                  : Win NT 及 2000 本地 Win32 接口 _c>8y  
PW+B&7{  
所用输出模式: : 内部 WAV 函数 w>wzV=R  
样本格式    : 44.100 Hz; 16 Bit; 立体声 rUg|5EN^)d  
nL+y"O  
K(#O@Wmjq  
已抓取 CD 的 TOC 5Z`f .}^w  
)]C(NTfxg  
     音轨 |    起始    |    长度    |  起始扇区  |  结束扇区   v8K`cijSS  
    -------------------------------------------- N(%(B  
      1 |  0:00.00 |  5:39.57 |      0 |  25481 RZ|M;c  
      2 |  5:39.57 |  5:24.55 |  25482 |  49836 06z+xxCo  
      3 | 11:04.37 |  6:32.35 |  49837 |  79271 -""(>$b 2  
      4 | 17:36.72 |  3:41.73 |  79272 |  95919 J,J6bfR/  
      5 | 21:18.70 |  4:00.42 |  95920 | 113961 xnHB <xrE}  
      6 | 25:19.37 |  5:01.70 | 113962 | 136606 _*E j3=u  
      7 | 30:21.32 |  6:24.35 | 136607 | 165441  dZX;k0  
      8 | 36:45.67 |  4:16.05 | 165442 | 184646 c Qe3  
      9 | 41:01.72 |  6:35.38 | 184647 | 214309 }X. Fm'`  
     10 | 47:37.35 |  5:29.35 | 214310 | 239019 n6G&c4g<"  
     11 | 53:06.70 |  7:40.57 | 239020 | 273576 USaa#s4'  
     12 | 60:47.52 |  5:58.08 | 273577 | 300434 w|Ry) [  
     13 | 66:45.60 |  3:22.27 | 300435 | 315611 Uq~b4X$  
     14 | 70:08.12 |  6:59.48 | 315612 | 347084 {+GR/l\!#  
/;{L~f=et)  
sPVE_n  
范围状态及错误 oo BBg@  
f( Dtv  
已选择范围 }!?RB v'W  
,7k-LAA  
     文件名 J:\12 Music*音乐\CDImage.wav qj `C6_?  
/h{Rf,H  
     峰值电平 100.0 % %n GjP^  
     抓取速度 7.1 X IF-y/]  
     范围质量 100.0 % rZcSG(d`53  
     复制 CRC 55C944E1 8UXRM :Z"  
     复制成功 <P'FqQ]  
^Il*`&+?P  
没有错误发生 Kd5 8'$  
#^Pab^Y3r-  
?@;)2B|q  
AccurateRip 摘要 tq3Rc}  
Hh*?[-&r~  
音轨  1  精确地校准抓取  5)  [D20BF25A]  (AR v2) noL9@It0  
音轨  2  精确地校准抓取  5)  [EFA029A8]  (AR v2) 2 \}J*0  
音轨  3  精确地校准抓取  5)  [F6F04456]  (AR v2) fByf~iv,  
音轨  4  精确地校准抓取  4)  [6310A17A]  (AR v2) y%; o  
音轨  5  精确地校准抓取  5)  [B4050399]  (AR v2) 5Gy#$'kdf  
音轨  6  精确地校准抓取  4)  [CB933A67]  (AR v2) ^bfZd  
音轨  7  精确地校准抓取  4)  [6B7A9566]  (AR v2) (IVhj^dQm  
音轨  8  精确地校准抓取  5)  [F33AA5B9]  (AR v2) u;-fG9xs  
音轨  9  精确地校准抓取  5)  [34CB06D3]  (AR v2) FA$32*v  
音轨 10  精确地校准抓取  5)  [6171A59B]  (AR v2) S#y[_C?H  
音轨 11  精确地校准抓取  5)  [D88D9CFE]  (AR v2) 7<;oz30G!L  
音轨 12  精确地校准抓取  4)  [4C53B9F0]  (AR v2) 4,c6VCw3+  
音轨 13  精确地校准抓取  4)  [39582DA3]  (AR v2) !=,Y=5M,  
音轨 14  精确地校准抓取  5)  [FF8C4FDD]  (AR v2) )j>U4a  
!LwHKCj  
所有音轨精确校准抓取 DI{*E  
 Q}L?o  
状态报告结尾
_<F)G,=  
IUFc_uL@\  
此帖售价 20 金钱,已有 18 人购买 [记录] [购买]
购买后,将显示帖子中所有出售内容。
若发现会员采用欺骗的方法获取财富,请立刻举报,我们会对会员处以2-N倍的罚金,严重者封掉ID!
此段为出售的内容,购买后显示
TjEXR$:<  
离线q965488338

发帖
709
金钱
28283
威望
224
贡献值
96
交易币
1082
只看该作者 1楼 发表于: 2015-08-24
感谢分享!!!
离线musickingdom

发帖
835
金钱
495
威望
109
贡献值
56
交易币
1034
只看该作者 2楼 发表于: 2015-08-24
这个最喜欢,果断收了
正在建设的土豆小站萌萌哒~http://www.tudou.com/home/_68623032/
离线耶稣

发帖
7121
金钱
265628
威望
2471
贡献值
1638
交易币
11152
只看该作者 3楼 发表于: 2015-08-24
看看能不能放手机听 |[`YGA4  
;EBKzB  
(OiV IH  


离线hcs107

发帖
207
金钱
187
威望
15
贡献值
22
交易币
296
只看该作者 4楼 发表于: 2015-08-28
verygood
离线自作主张

发帖
344
金钱
3054
威望
80
贡献值
43
交易币
441
只看该作者 5楼 发表于: 2015-08-28
这张好贵,同样支持
离线zhouquan311

发帖
734
金钱
7771
威望
136
贡献值
66
交易币
974
只看该作者 6楼 发表于: 2015-09-03
非常赞!
Forever MJ
       我要去减肥,除非冰淇淋,
  
  不再那么贵,三块二毛一,
  
  我也要人陪,除非我有米,
  
  去换红玫瑰,然后送给你,
  
离线mjf

发帖
145
金钱
7
威望
1
贡献值
0
交易币
143
只看该作者 7楼 发表于: 2015-09-07
谢谢lz分享 rI6+St  
离线Mr灬W

发帖
1129
金钱
12950
威望
161
贡献值
56
交易币
1282
只看该作者 8楼 发表于: 2015-09-21
回 怪盗基德 的帖子
怪盗基德:看看能不能放手机听 (EY@{'.&  
[图片]
 (2015-08-24 09:48)  4oiE@y&{4  
m1Ya  
哈哈,图片蛮有趣的!
Heal The World
离线lifan_npl

发帖
2173
金钱
16819
威望
782
贡献值
347
交易币
2526
只看该作者 9楼 发表于: 2015-11-21
还好我没有首版情节
我的淘宝:
http://shop63152617.taobao.com  
快速回复
限100 字节
 
上一个 下一个