论坛风格切换切换到宽版
  • 1317阅读
  • 19回复

[亲传][Album] 1991 Dangerous (US - EK 45400) - WAV整轨 ♬by幽灵 [复制链接]

上一主题 下一主题
离线mjghosts
 

发帖
8247
金钱
210503
威望
9164
贡献值
2715
交易币
4698
只看楼主 倒序阅读 楼主  发表于: 2015-08-24
— 本帖被 mjghosts 执行加亮操作(2015-08-24) —
***美国91年首版*** h9SS o0]F  
\s+ <w3  
注:独家整理,转载请注明出处!EAC无损整轨(压缩包内含CD图片) E)>6}0P  
&bA;>Lu#|o  
解压密码:www.mjsunny.com
$6ITa}o  
!4-NbtT  
*>Om3[D  
.8fOc.h8h  
pOw4H67  
)e]:T4*vo  
Exact Audio Copy V1.0 beta 6 from 9. April 2015 BOfO$J}  
o3}12i S  
EAC 抓取日志文件从18. 八月 2015, 22:10 ;2%3~L8?V  
E39:}_IV  
Michael Jackson / Dangerous 7|65;jm+  
^W#[6]S  
使用驱动器  :MATSHITADVD-RAM UJ890AS   Adapter: 1  ID: 1 1NJ*EzJ~?  
G|Q}.v  
读取模式      : 可靠Secure o)1wF X  
使用精确流     : 是 tk_y~-xz  
清空音频缓存    : 否 ~V5k  
使用 C2 指示器 : 是 SHz& o[u  
9n@jK%m  
读取偏移校正:               : 102 'fK_J}+P  
读取 Lead-In 和 Lead-Out : 否 kv`x  
用静音填充抓取中丢失偏移的采样       : 是 ,9W0fm \t  
去除首尾静音块               : 否 ?&/9b)cS  
在CRC 计算中使用了空样本       : 是 =X% D;2  
已用接口                  : Win NT 及 2000 本地 Win32 接口 ;5y!,OF6  
rZ0@GA  
所用输出模式: : 内部 WAV 函数 ]G|@F :  
样本格式    : 44.100 Hz; 16 Bit; 立体声 S"N@.n[  
+8 6\&y)  
Zvr(c|Q  
已抓取 CD 的 TOC _Zb_9&  
P#Eqe O  
     音轨 |    起始    |    长度    |  起始扇区  |  结束扇区   $dwv1@M2  
    -------------------------------------------- 4H\O&pSS  
      1 |  0:00.00 |  5:39.57 |      0 |  25481 o8Bo%OjE  
      2 |  5:39.57 |  5:24.55 |  25482 |  49836 zb;2xTH+  
      3 | 11:04.37 |  6:32.35 |  49837 |  79271 2<B+ID3qv  
      4 | 17:36.72 |  3:41.73 |  79272 |  95919 75^-93  
      5 | 21:18.70 |  4:00.42 |  95920 | 113961 0udE\/4!^  
      6 | 25:19.37 |  5:01.70 | 113962 | 136606 ]8H;LgM2  
      7 | 30:21.32 |  6:24.35 | 136607 | 165441 Nwu#,f=X  
      8 | 36:45.67 |  4:16.05 | 165442 | 184646 HP?e?3.T  
      9 | 41:01.72 |  6:35.38 | 184647 | 214309 N%Lh_2EzqV  
     10 | 47:37.35 |  5:29.35 | 214310 | 239019 F.@yNr"  
     11 | 53:06.70 |  7:40.57 | 239020 | 273576 5Impv3qaZ  
     12 | 60:47.52 |  5:58.08 | 273577 | 300434 _ROe!w  1  
     13 | 66:45.60 |  3:22.27 | 300435 | 315611 1F$a My?  
     14 | 70:08.12 |  6:59.48 | 315612 | 347084 $'&`k,a3|P  
NghQ#c  
8`^I. tD  
范围状态及错误 N>gv!z[E  
kvo741RO6  
已选择范围 9@:&E  
^@tn+'.  
     文件名 J:\12 Music*音乐\CDImage.wav al" 1T-  
[#)$BXG~y  
     峰值电平 100.0 % >~ne(n4qy  
     抓取速度 7.1 X Q <78< #I  
     范围质量 100.0 % wRLkO/Fw  
     复制 CRC 55C944E1 Oys.8%+ P  
     复制成功 .Yh-m  
(*hA0&n  
没有错误发生 iRPd=)  
A #ZaXu/:X  
hJaqW'S  
AccurateRip 摘要 ~1}NQa(  
,`H=%#  
音轨  1  精确地校准抓取  5)  [D20BF25A]  (AR v2) W.H_G.C%  
音轨  2  精确地校准抓取  5)  [EFA029A8]  (AR v2) %L~X\M:Qk  
音轨  3  精确地校准抓取  5)  [F6F04456]  (AR v2) @tp/0E?  
音轨  4  精确地校准抓取  4)  [6310A17A]  (AR v2) pk"JcUzR  
音轨  5  精确地校准抓取  5)  [B4050399]  (AR v2) eW\_9E)cY  
音轨  6  精确地校准抓取  4)  [CB933A67]  (AR v2) 2X6y^f';\  
音轨  7  精确地校准抓取  4)  [6B7A9566]  (AR v2) :B"'49Q`  
音轨  8  精确地校准抓取  5)  [F33AA5B9]  (AR v2) vy-{BH  
音轨  9  精确地校准抓取  5)  [34CB06D3]  (AR v2) =U@*adgw  
音轨 10  精确地校准抓取  5)  [6171A59B]  (AR v2) TTqOAo[-Z  
音轨 11  精确地校准抓取  5)  [D88D9CFE]  (AR v2) sW=@G'}3  
音轨 12  精确地校准抓取  4)  [4C53B9F0]  (AR v2) So!1l7b  
音轨 13  精确地校准抓取  4)  [39582DA3]  (AR v2) 2RM1-j ($  
音轨 14  精确地校准抓取  5)  [FF8C4FDD]  (AR v2) hefV0)4K  
Ha 3XH_  
所有音轨精确校准抓取 u1<xt1K  
kfmIhHlYQ  
状态报告结尾
"@ox=  
@MN>ye'T  
此帖售价 20 金钱,已有 16 人购买 [记录] [购买]
购买后,将显示帖子中所有出售内容。
若发现会员采用欺骗的方法获取财富,请立刻举报,我们会对会员处以2-N倍的罚金,严重者封掉ID!
此段为出售的内容,购买后显示
B8IfE`  
离线q965488338

发帖
709
金钱
27918
威望
224
贡献值
96
交易币
1082
只看该作者 1楼 发表于: 2015-08-24
感谢分享!!!
离线musickingdom

发帖
831
金钱
512
威望
109
贡献值
56
交易币
1030
只看该作者 2楼 发表于: 2015-08-24
这个最喜欢,果断收了
正在建设的土豆小站萌萌哒~http://www.tudou.com/home/_68623032/
离线耶稣

发帖
6834
金钱
227057
威望
2274
贡献值
1485
交易币
10529
只看该作者 3楼 发表于: 2015-08-24
看看能不能放手机听 2 8>  
>L4q>S^v  
9 696EQ,I  


离线hcs107

发帖
207
金钱
184
威望
15
贡献值
22
交易币
296
只看该作者 4楼 发表于: 2015-08-28
verygood
离线自作主张

发帖
338
金钱
2961
威望
78
贡献值
43
交易币
435
只看该作者 5楼 发表于: 2015-08-28
这张好贵,同样支持
离线zhouquan311

发帖
734
金钱
7691
威望
136
贡献值
66
交易币
974
只看该作者 6楼 发表于: 2015-09-03
非常赞!
Forever MJ
       我要去减肥,除非冰淇淋,
  
  不再那么贵,三块二毛一,
  
  我也要人陪,除非我有米,
  
  去换红玫瑰,然后送给你,
  
离线mjf

发帖
145
金钱
7
威望
1
贡献值
0
交易币
143
只看该作者 7楼 发表于: 2015-09-07
谢谢lz分享 0N.B =j|  
离线Mr灬W

发帖
1156
金钱
12819
威望
161
贡献值
56
交易币
1281
只看该作者 8楼 发表于: 2015-09-21
回 怪盗基德 的帖子
怪盗基德:看看能不能放手机听 ],~H3u=s3  
[图片]
 (2015-08-24 09:48)  X \BxRgl},  
7'!DK;=TD6  
哈哈,图片蛮有趣的!
Heal The World
离线lifan_npl

发帖
2117
金钱
17682
威望
787
贡献值
347
交易币
2470
只看该作者 9楼 发表于: 2015-11-21
还好我没有首版情节
我的淘宝:
http://shop63152617.taobao.com  
快速回复
限100 字节
 
上一个 下一个