论坛风格切换切换到宽版
  • 1435阅读
  • 19回复

[亲传][Album] 1991 Dangerous (US - EK 45400) - WAV整轨 ♬by幽灵 [复制链接]

上一主题 下一主题
离线mjghosts
 

发帖
8258
金钱
212473
威望
9166
贡献值
2715
交易币
4709
只看楼主 倒序阅读 楼主  发表于: 2015-08-24
— 本帖被 mjghosts 执行加亮操作(2015-08-24) —
***美国91年首版*** !DjvsG1x  
U5Erm6U:  
注:独家整理,转载请注明出处!EAC无损整轨(压缩包内含CD图片) fkfZ>D^1  
ZZ/cq:3$P  
解压密码:www.mjsunny.com
> 1L=,M  
Q^}%c U0  
Zr$d20M2A;  
-y) ,Y |  
<Pqv;WI|R  
*#>F.#9  
Exact Audio Copy V1.0 beta 6 from 9. April 2015 A)n W  
X[C3&NX#_  
EAC 抓取日志文件从18. 八月 2015, 22:10 Q.-*7h8  
L6:h.1 U$  
Michael Jackson / Dangerous 'aJgLws*w  
?dy~ mob  
使用驱动器  :MATSHITADVD-RAM UJ890AS   Adapter: 1  ID: 1 >.9eBz@  
+}7fg82)  
读取模式      : 可靠Secure %Tcf6cK"  
使用精确流     : 是 N$aZ== $5  
清空音频缓存    : 否 `_AM` >_  
使用 C2 指示器 : 是 {XY3Xo  
E{^^^"z P  
读取偏移校正:               : 102 - V) R<  
读取 Lead-In 和 Lead-Out : 否 *K!++k!Ixa  
用静音填充抓取中丢失偏移的采样       : 是 tB6k|cPC  
去除首尾静音块               : 否 Ek .3  
在CRC 计算中使用了空样本       : 是 Q7Ij4  
已用接口                  : Win NT 及 2000 本地 Win32 接口 ZlR!s!vv  
P#tvm,  
所用输出模式: : 内部 WAV 函数 H?:Jq\Ba0  
样本格式    : 44.100 Hz; 16 Bit; 立体声 Fj=NiZ=  
1D1b"o  
M\UWWb&%\  
已抓取 CD 的 TOC ?0J0Ij,  
|~NeB"l{  
     音轨 |    起始    |    长度    |  起始扇区  |  结束扇区   ;BTJ%F.  
    -------------------------------------------- !#.vyBK#  
      1 |  0:00.00 |  5:39.57 |      0 |  25481 SJ(9rhB5*.  
      2 |  5:39.57 |  5:24.55 |  25482 |  49836 \X opU"  
      3 | 11:04.37 |  6:32.35 |  49837 |  79271 LW?2}`+  
      4 | 17:36.72 |  3:41.73 |  79272 |  95919 AI fk"2  
      5 | 21:18.70 |  4:00.42 |  95920 | 113961 j?J=w=.Nx  
      6 | 25:19.37 |  5:01.70 | 113962 | 136606 ~[;{   
      7 | 30:21.32 |  6:24.35 | 136607 | 165441 9jjL9f_3  
      8 | 36:45.67 |  4:16.05 | 165442 | 184646 qq>44k\|)  
      9 | 41:01.72 |  6:35.38 | 184647 | 214309 [r~~=b7*[  
     10 | 47:37.35 |  5:29.35 | 214310 | 239019 Nuo<` 6mV@  
     11 | 53:06.70 |  7:40.57 | 239020 | 273576 T/3;NXe6E  
     12 | 60:47.52 |  5:58.08 | 273577 | 300434 W.sD2f  
     13 | 66:45.60 |  3:22.27 | 300435 | 315611 3g+ \? L-c  
     14 | 70:08.12 |  6:59.48 | 315612 | 347084 w7[0  
5vl2yN  
r]Z.`}Kkm  
范围状态及错误 f61]`@Bk  
LIc*tsl  
已选择范围 9 ?[4i'  
Gu<W:n[  
     文件名 J:\12 Music*音乐\CDImage.wav &7JEb]1C  
DB!uv[c  
     峰值电平 100.0 % #zh6=.,7  
     抓取速度 7.1 X &*h`b{]  
     范围质量 100.0 % GA}hp%  
     复制 CRC 55C944E1 :"h Pg]'  
     复制成功 _CYmG"mY  
c9>8IW  
没有错误发生 )4VL m  
D~t"9Z\  
6= aBD_2@  
AccurateRip 摘要 0|qx/xo|-  
>8.v.;`  
音轨  1  精确地校准抓取  5)  [D20BF25A]  (AR v2) (PE8H~d  
音轨  2  精确地校准抓取  5)  [EFA029A8]  (AR v2) HT1dvC$COo  
音轨  3  精确地校准抓取  5)  [F6F04456]  (AR v2) Oujlm|  
音轨  4  精确地校准抓取  4)  [6310A17A]  (AR v2) !EyGJa[ i  
音轨  5  精确地校准抓取  5)  [B4050399]  (AR v2) R)DNFc:  
音轨  6  精确地校准抓取  4)  [CB933A67]  (AR v2) N4JqW  
音轨  7  精确地校准抓取  4)  [6B7A9566]  (AR v2)  6@Z'fT4  
音轨  8  精确地校准抓取  5)  [F33AA5B9]  (AR v2) ]oWZ{#r2  
音轨  9  精确地校准抓取  5)  [34CB06D3]  (AR v2) TG%hy"k  
音轨 10  精确地校准抓取  5)  [6171A59B]  (AR v2) *~lgU4  
音轨 11  精确地校准抓取  5)  [D88D9CFE]  (AR v2)  F>oxnhp6  
音轨 12  精确地校准抓取  4)  [4C53B9F0]  (AR v2) K1wN9D{t'  
音轨 13  精确地校准抓取  4)  [39582DA3]  (AR v2) ]OCJ~Zw  
音轨 14  精确地校准抓取  5)  [FF8C4FDD]  (AR v2) _*?"[TYfX  
i,b7Ft:F&  
所有音轨精确校准抓取 Sph"w08  
V<7K!<g)b  
状态报告结尾
Jc#)T;# 6  
Y l3[~S  
此帖售价 20 金钱,已有 16 人购买 [记录] [购买]
购买后,将显示帖子中所有出售内容。
若发现会员采用欺骗的方法获取财富,请立刻举报,我们会对会员处以2-N倍的罚金,严重者封掉ID!
此段为出售的内容,购买后显示
A =[f>8  
离线q965488338

发帖
709
金钱
28138
威望
224
贡献值
96
交易币
1082
只看该作者 1楼 发表于: 2015-08-24
感谢分享!!!
离线musickingdom

发帖
831
金钱
518
威望
109
贡献值
56
交易币
1030
只看该作者 2楼 发表于: 2015-08-24
这个最喜欢,果断收了
正在建设的土豆小站萌萌哒~http://www.tudou.com/home/_68623032/
离线耶稣

发帖
7064
金钱
246450
威望
2438
贡献值
1612
交易币
11003
只看该作者 3楼 发表于: 2015-08-24
看看能不能放手机听 H$;\TG@,  
HG^8&uh]  
bUBuJ  




离线hcs107

发帖
207
金钱
184
威望
15
贡献值
22
交易币
296
只看该作者 4楼 发表于: 2015-08-28
verygood
离线自作主张

发帖
340
金钱
3144
威望
80
贡献值
43
交易币
437
只看该作者 5楼 发表于: 2015-08-28
这张好贵,同样支持
离线zhouquan311

发帖
734
金钱
7721
威望
136
贡献值
66
交易币
974
只看该作者 6楼 发表于: 2015-09-03
非常赞!
Forever MJ
       我要去减肥,除非冰淇淋,
  
  不再那么贵,三块二毛一,
  
  我也要人陪,除非我有米,
  
  去换红玫瑰,然后送给你,
  
离线mjf

发帖
145
金钱
7
威望
1
贡献值
0
交易币
143
只看该作者 7楼 发表于: 2015-09-07
谢谢lz分享 QsI$4:yl  
离线Mr灬W

发帖
1129
金钱
12894
威望
161
贡献值
56
交易币
1282
只看该作者 8楼 发表于: 2015-09-21
回 怪盗基德 的帖子
怪盗基德:看看能不能放手机听 ]V.9jlXF  
[图片]
 (2015-08-24 09:48)  V!FzVl=G  
$8_*LR$  
哈哈,图片蛮有趣的!
Heal The World
离线lifan_npl

发帖
2156
金钱
17106
威望
782
贡献值
347
交易币
2509
只看该作者 9楼 发表于: 2015-11-21
还好我没有首版情节
我的淘宝:
http://shop63152617.taobao.com  
快速回复
限100 字节
 
上一个 下一个