论坛风格切换切换到宽版
  • 1102阅读
  • 19回复

[亲传][Album] 1991 Dangerous (US - EK 45400) - WAV整轨 ♬by幽灵 [复制链接]

上一主题 下一主题
离线mjghosts
 

发帖
8195
金钱
205476
威望
9035
贡献值
2641
交易币
4554
只看楼主 倒序阅读 楼主  发表于: 2015-08-24
— 本帖被 mjghosts 执行加亮操作(2015-08-24) —
***美国91年首版*** NV)!7~r}:  
ST2.:v;lb  
注:独家整理,转载请注明出处!EAC无损整轨(压缩包内含CD图片) )i~cr2Hk  
\,7f6:  
解压密码:www.mjsunny.com
G %N $C  
pwO>h>ik  
\qR7mI/*  
/+8JCp   
ZZWD8 AX  
,%n\=  
Exact Audio Copy V1.0 beta 6 from 9. April 2015 ML:Q5 ^`  
(>F%UY  
EAC 抓取日志文件从18. 八月 2015, 22:10 z|=}1; (.  
7Ok;Lt!x  
Michael Jackson / Dangerous T~QWRBO  
T^:UBjK6t{  
使用驱动器  :MATSHITADVD-RAM UJ890AS   Adapter: 1  ID: 1 ^m?KRm2  
;epV<{e$q4  
读取模式      : 可靠Secure -cZDG t  
使用精确流     : 是 HOw -]JSP2  
清空音频缓存    : 否 cU ? 0(z7  
使用 C2 指示器 : 是 0|2%vh>J  
Uu!f,L;ty  
读取偏移校正:               : 102 :/:.Kb  
读取 Lead-In 和 Lead-Out : 否 /DQc&.jK  
用静音填充抓取中丢失偏移的采样       : 是 4Fp0ZVT  
去除首尾静音块               : 否 (WK&^,zQn  
在CRC 计算中使用了空样本       : 是 5O~HWBX.  
已用接口                  : Win NT 及 2000 本地 Win32 接口 M@4UGM`J  
c7tfRq n+  
所用输出模式: : 内部 WAV 函数 Gp4A.\7  
样本格式    : 44.100 Hz; 16 Bit; 立体声 c6nflk.l  
WcHgBbNe  
2zVJvn7  
已抓取 CD 的 TOC ?T>'j mmV=  
Q3|T':l4  
     音轨 |    起始    |    长度    |  起始扇区  |  结束扇区   {e+-vl  
    -------------------------------------------- Si_%Rr&jW  
      1 |  0:00.00 |  5:39.57 |      0 |  25481 F)+{AQL  
      2 |  5:39.57 |  5:24.55 |  25482 |  49836  .&9 i  
      3 | 11:04.37 |  6:32.35 |  49837 |  79271 3G uH857ov  
      4 | 17:36.72 |  3:41.73 |  79272 |  95919 ,Z{d.[$  
      5 | 21:18.70 |  4:00.42 |  95920 | 113961 rAs,X  
      6 | 25:19.37 |  5:01.70 | 113962 | 136606 /v/C<]  
      7 | 30:21.32 |  6:24.35 | 136607 | 165441 d3W0-INL  
      8 | 36:45.67 |  4:16.05 | 165442 | 184646 $Bj;D=d@V  
      9 | 41:01.72 |  6:35.38 | 184647 | 214309 zoDH` h_  
     10 | 47:37.35 |  5:29.35 | 214310 | 239019 ^)?d6nI  
     11 | 53:06.70 |  7:40.57 | 239020 | 273576 <JV"@H=  
     12 | 60:47.52 |  5:58.08 | 273577 | 300434 _>=L>*  
     13 | 66:45.60 |  3:22.27 | 300435 | 315611 {q<03d~9|G  
     14 | 70:08.12 |  6:59.48 | 315612 | 347084 rz"txN  
u(OW gbA3  
@x eAc0.^  
范围状态及错误 F  q!fWl  
Y3h/~bM%  
已选择范围 *26334B.R  
w=|GJ 0  
     文件名 J:\12 Music*音乐\CDImage.wav gPu2G/Y  
oQv3GpO  
     峰值电平 100.0 % lpRR&  
     抓取速度 7.1 X '+ xu#R  
     范围质量 100.0 % QI]Ih  
     复制 CRC 55C944E1 EZ.!rh~+  
     复制成功 0aoHKeP  
IScRsxFb  
没有错误发生 M0| 'f'  
)2DQ>cm  
y fSM  
AccurateRip 摘要 T@%m7|P  
CzV(cSS9-  
音轨  1  精确地校准抓取  5)  [D20BF25A]  (AR v2) ?3Ij*}_O2  
音轨  2  精确地校准抓取  5)  [EFA029A8]  (AR v2) o5\b'hR*#  
音轨  3  精确地校准抓取  5)  [F6F04456]  (AR v2) h{ lDxOH*  
音轨  4  精确地校准抓取  4)  [6310A17A]  (AR v2) zH=!*[d8  
音轨  5  精确地校准抓取  5)  [B4050399]  (AR v2) ,jy*1Hjd  
音轨  6  精确地校准抓取  4)  [CB933A67]  (AR v2) v&g0ta@  
音轨  7  精确地校准抓取  4)  [6B7A9566]  (AR v2) O`cu_  
音轨  8  精确地校准抓取  5)  [F33AA5B9]  (AR v2) 8_uzpeRhJc  
音轨  9  精确地校准抓取  5)  [34CB06D3]  (AR v2) =He. fEy  
音轨 10  精确地校准抓取  5)  [6171A59B]  (AR v2) ^T4Ay=~{  
音轨 11  精确地校准抓取  5)  [D88D9CFE]  (AR v2) kvsA]tK.  
音轨 12  精确地校准抓取  4)  [4C53B9F0]  (AR v2) v4*rPGv  
音轨 13  精确地校准抓取  4)  [39582DA3]  (AR v2) ARh6V&Hi-  
音轨 14  精确地校准抓取  5)  [FF8C4FDD]  (AR v2) 0? bA$y  
O>DNC-m)i{  
所有音轨精确校准抓取 00vBpsZj2;  
NVIWWX9?  
状态报告结尾
>kYp%r6  
fu\s`W6f&  
此帖售价 20 金钱,已有 16 人购买 [记录] [购买]
购买后,将显示帖子中所有出售内容。
若发现会员采用欺骗的方法获取财富,请立刻举报,我们会对会员处以2-N倍的罚金,严重者封掉ID!
此段为出售的内容,购买后显示
HD# r0)  
离线q965488338

发帖
709
金钱
27830
威望
224
贡献值
96
交易币
1082
只看该作者 1楼 发表于: 2015-08-24
感谢分享!!!
离线musickingdom

发帖
825
金钱
463
威望
108
贡献值
55
交易币
1020
只看该作者 2楼 发表于: 2015-08-24
这个最喜欢,果断收了
正在建设的土豆小站萌萌哒~http://www.tudou.com/home/_68623032/
离线耶稣

发帖
6497
金钱
192865
威望
1879
贡献值
1223
交易币
9771
只看该作者 3楼 发表于: 2015-08-24
看看能不能放手机听 3V8j>&  
dxae2 t V  
%Pt[3>  



离线hcs107

发帖
207
金钱
184
威望
15
贡献值
22
交易币
296
只看该作者 4楼 发表于: 2015-08-28
verygood
离线自作主张

发帖
335
金钱
2932
威望
78
贡献值
43
交易币
432
只看该作者 5楼 发表于: 2015-08-28
这张好贵,同样支持
离线zhouquan311

发帖
734
金钱
7691
威望
136
贡献值
66
交易币
974
只看该作者 6楼 发表于: 2015-09-03
非常赞!
Forever MJ
       我要去减肥,除非冰淇淋,
  
  不再那么贵,三块二毛一,
  
  我也要人陪,除非我有米,
  
  去换红玫瑰,然后送给你,
  
离线mjf

发帖
145
金钱
7
威望
1
贡献值
0
交易币
143
只看该作者 7楼 发表于: 2015-09-07
谢谢lz分享 slaYr`u  
离线Mr灬W

发帖
1148
金钱
12944
威望
151
贡献值
46
交易币
1273
只看该作者 8楼 发表于: 2015-09-21
回 怪盗基德 的帖子
怪盗基德:看看能不能放手机听 5?Ukf$)x  
[图片]
 (2015-08-24 09:48)  Q?V+ 0J  
Cg(&WJw(ep  
哈哈,图片蛮有趣的!
Heal The World
离线lifan_npl

发帖
2063
金钱
18206
威望
777
贡献值
337
交易币
2416
只看该作者 9楼 发表于: 2015-11-21
还好我没有首版情节
我的淘宝:
http://shop63152617.taobao.com  
快速回复
限100 字节
 
上一个 下一个