论坛风格切换切换到宽版
  • 986阅读
  • 16回复

[亲传][Comp] 2003 Number Ones (US - EK 88998) - WAV整轨 ♬by幽灵 [复制链接]

上一主题 下一主题
离线mjghosts
 

发帖
8233
金钱
208923
威望
9161
贡献值
2712
交易币
4672
只看楼主 倒序阅读 楼主  发表于: 2015-08-25
— 本帖被 mjghosts 执行加亮操作(2015-08-25) —
相关链接:[Comp] 2003 Number Ones (EU - EPC 513800 2) - WAV整轨 ♬by幽灵 <EKDP>,~  
lAuI?/E  
*03年发行的精选,此为美版。曲目排序也与欧版、日版等常规版不同,比其他版本多一首珍贵的81年凯旋巡演《Ben》现场版,而常规版替补的歌曲是《Human Nature》。* Dn;6O  
f6n'g:&.W  
注:独家整理,转载请注明出处!EAC无损整轨(压缩包内含CD图片) KMZ:$H  
3]Rb2$p[=  
解压密码:www.mjsunny.com
 mD`v>L  
1+6)0 OH{  
j8kax/*[  
'B&gr}@4O=  
$w{!}U2+-  
(izGF;N+  
Exact Audio Copy V1.0 beta 6 from 9. April 2015 K cI'P(  
$S{B{FK  
EAC 抓取日志文件从16. 八月 2015, 23:23 W8hf  Qpw  
J+oK:tzt8  
Michael Jackson / Number Ones [US] @64PdM!L  
,CACQhrng  
使用驱动器  :MATSHITADVD-RAM UJ890AS   Adapter: 1  ID: 1 Lo"w,p`n@  
(.6~t<DRv  
读取模式      : 可靠Secure f0UB? |  
使用精确流     : 是 JBY`Y ]V3  
清空音频缓存    : 否 !V|%n(O"  
使用 C2 指示器 : 是 01bBZWX  
f+*wDH  
读取偏移校正:               : 0 v]`}T/n  
读取 Lead-In 和 Lead-Out : 否 \_H-TbU8  
用静音填充抓取中丢失偏移的采样       : 是 cM9z b6m  
去除首尾静音块               : 否 #9HQW:On  
在CRC 计算中使用了空样本       : 是 :`FL95  
已用接口                  : Win NT 及 2000 本地 Win32 接口  ;'^5$q  
d[h2Y/AR  
所用输出模式: : 内部 WAV 函数 K|"97{*|2  
样本格式    : 44.100 Hz; 16 Bit; 立体声 +4[L_  
desrKnY  
>Ln/)j  
已抓取 CD 的 TOC +9 Uo<6}  
1M%'Xe7  
     音轨 |    起始    |    长度    |  起始扇区  |  结束扇区   r9),F.6,  
    -------------------------------------------- !/1aot^(  
      1 |  0:00.00 |  3:56.17 |      0 |  17716 Ek0zFnb[Gx  
      2 |  3:56.17 |  3:40.67 |  17717 |  34283 |sQC:y>  
      3 |  7:37.09 |  4:53.41 |  34284 |  56299 Ch3{q/-g  
      4 | 12:30.50 |  4:18.33 |  56300 |  75682 3^ct;gz  
      5 | 16:49.08 |  5:12.02 |  75683 |  99084 @O&<_&  
      6 | 22:01.10 |  4:11.73 |  99085 | 117982 pzkl;"gK  
      7 | 26:13.08 |  4:06.54 | 117983 | 136486 0|1)cO}Dy  
      8 | 30:19.62 |  4:17.31 | 136487 | 155792 j. @CB`  
      9 | 34:37.18 |  4:57.70 | 155793 | 178137 {8!\aYI  
     10 | 39:35.13 |  5:04.24 | 178138 | 200961 |)"`v'8>  
     11 | 44:39.37 |  4:41.09 | 200962 | 222045 Yy,i,c`r  
     12 | 49:20.46 |  3:19.11 | 222046 | 236981 5_|Sm=  
     13 | 52:39.57 |  4:34.29 | 236982 | 257560 ;9WS#>o  
     14 | 57:14.11 |  5:01.10 | 257561 | 280145 <)f1skJsP  
     15 | 62:15.21 |  4:26.52 | 280146 | 300147 JO|%Vpco  
     16 | 66:41.73 |  5:29.60 | 300148 | 324882 p!b_tyJ  
     17 | 72:11.58 |  3:49.15 | 324883 | 342072 _LYI#D  
     18 | 76:00.73 |  2:58.51 | 342073 | 355473 ##_`)/t,  
GL S`1!  
%^zGM^PD  
范围状态及错误 .%\lYk]  
OYbgt4  
已选择范围 cBGR%w\t%  
;7 F'xz"  
     文件名 J:\12 Music*音乐\CDImage.wav K:<0!C!  
/XeCJxo8  
     峰值电平 98.8 % ;oT!\$Mu  
     抓取速度 7.1 X xO` `X<  
     范围质量 100.0 % C8oAl3d+h  
     复制 CRC 5FA3ED1B '|jN!y^ 2p  
     复制成功 V']{n7a-  
=eB^( !M  
没有错误发生 2 yY.rs  
4^>FN"Ve`B  
状态报告结尾
X v2u7T\  
p>#QFd"m  
此帖售价 20 金钱,已有 12 人购买 [记录] [购买]
购买后,将显示帖子中所有出售内容。
若发现会员采用欺骗的方法获取财富,请立刻举报,我们会对会员处以2-N倍的罚金,严重者封掉ID!
此段为出售的内容,购买后显示
离线耶稣

发帖
6590
金钱
202451
威望
2125
贡献值
1384
交易币
10016
只看该作者 1楼 发表于: 2015-08-25
帅了。。



离线mjghosts

发帖
8233
金钱
208923
威望
9161
贡献值
2712
交易币
4672
只看该作者 2楼 发表于: 2015-08-25
回 怪盗基德 的帖子
怪盗基德:帅了。。 (2015-08-25 21:28)  $Ur-Q d  
9r5<A!1#L  
够快,再发个你喜欢的。
离线wannam

发帖
2680
金钱
86709
威望
382
贡献值
189
交易币
3323
只看该作者 3楼 发表于: 2015-08-25
喜欢这张精选集的封面
离线自作主张

发帖
335
金钱
2993
威望
78
贡献值
43
交易币
432
只看该作者 4楼 发表于: 2015-08-29
读取偏移校正是 0 啊啊啊
离线mjghosts

发帖
8233
金钱
208923
威望
9161
贡献值
2712
交易币
4672
只看该作者 5楼 发表于: 2015-08-29
回 自作主张 的帖子
自作主张:读取偏移校正是 0 啊啊啊 (2015-08-29 08:59)  %}jwuNGA  
]jiM  
不影响,我这盘面非常好。
离线自作主张

发帖
335
金钱
2993
威望
78
贡献值
43
交易币
432
只看该作者 6楼 发表于: 2015-08-30
希望更多好的专辑
离线zhouquan311

发帖
734
金钱
7691
威望
136
贡献值
66
交易币
974
只看该作者 7楼 发表于: 2015-09-02
非常支持。
Forever MJ
       我要去减肥,除非冰淇淋,
  
  不再那么贵,三块二毛一,
  
  我也要人陪,除非我有米,
  
  去换红玫瑰,然后送给你,
  
离线marlene55555

发帖
1161
金钱
34314
威望
293
贡献值
98
交易币
1337
只看该作者 8楼 发表于: 2015-09-11
好版本
离线Mr灬W

发帖
1156
金钱
12831
威望
161
贡献值
56
交易币
1281
只看该作者 9楼 发表于: 2015-09-21
感谢分享! |8|_^`  
Heal The World
快速回复
限100 字节
 
上一个 下一个