论坛风格切换切换到宽版
  • 1176阅读
  • 17回复

[亲传][Comp] 2003 Number Ones (US - EK 88998) - WAV整轨 ♬by幽灵 [复制链接]

上一主题 下一主题
在线mjghosts
 

发帖
8258
金钱
212473
威望
9166
贡献值
2715
交易币
4709
只看楼主 倒序阅读 楼主  发表于: 2015-08-25
— 本帖被 mjghosts 执行加亮操作(2015-08-25) —
相关链接:[Comp] 2003 Number Ones (EU - EPC 513800 2) - WAV整轨 ♬by幽灵 kX`m( N$  
oF]]Pl{W  
*03年发行的精选,此为美版。曲目排序也与欧版、日版等常规版不同,比其他版本多一首珍贵的81年凯旋巡演《Ben》现场版,而常规版替补的歌曲是《Human Nature》。* 9QB,%K_:4  
WQ8 "Jj?k6  
注:独家整理,转载请注明出处!EAC无损整轨(压缩包内含CD图片) rC!"<  
H25Qx;(dTk  
解压密码:www.mjsunny.com
|[mmEYc  
sR83e|4I  
}2e s"  
5p}j{f  
4ytdcb   
1P1h);*Z  
Exact Audio Copy V1.0 beta 6 from 9. April 2015 73 .+0x  
]1>R8  
EAC 抓取日志文件从16. 八月 2015, 23:23 yhbU;qEG9  
XMkRYI1~  
Michael Jackson / Number Ones [US] na~ FT[3 C  
S2E z}*plp  
使用驱动器  :MATSHITADVD-RAM UJ890AS   Adapter: 1  ID: 1 #|(>UM\  
G rU`;M"  
读取模式      : 可靠Secure `o }+2Cb  
使用精确流     : 是 ,"gPd!HD (  
清空音频缓存    : 否 siCm)B  
使用 C2 指示器 : 是 )fIG4#%\  
]>Z9K@  
读取偏移校正:               : 0 sU*?H`U3d  
读取 Lead-In 和 Lead-Out : 否 *w _o8!3-  
用静音填充抓取中丢失偏移的采样       : 是 C,eP!_O  
去除首尾静音块               : 否 u<fZ.1  
在CRC 计算中使用了空样本       : 是 j[A(@ w"  
已用接口                  : Win NT 及 2000 本地 Win32 接口 f"j9C% '*  
^zO{Aks  
所用输出模式: : 内部 WAV 函数 T!y 9v5  
样本格式    : 44.100 Hz; 16 Bit; 立体声 V-go?b`  
j xkQ #Y  
$<2d|;7r  
已抓取 CD 的 TOC %} zkmEY.e  
<W8 %eRfU  
     音轨 |    起始    |    长度    |  起始扇区  |  结束扇区   5rck]L'  
    -------------------------------------------- 0%L:jq{5  
      1 |  0:00.00 |  3:56.17 |      0 |  17716 DMch88W  
      2 |  3:56.17 |  3:40.67 |  17717 |  34283 G]k[A=dg  
      3 |  7:37.09 |  4:53.41 |  34284 |  56299 e_|<tYx><  
      4 | 12:30.50 |  4:18.33 |  56300 |  75682 "xTVu57Z[  
      5 | 16:49.08 |  5:12.02 |  75683 |  99084 >I~Q[  
      6 | 22:01.10 |  4:11.73 |  99085 | 117982 71AYDO  
      7 | 26:13.08 |  4:06.54 | 117983 | 136486 d@{12 hq  
      8 | 30:19.62 |  4:17.31 | 136487 | 155792 BRY/[QRqZ  
      9 | 34:37.18 |  4:57.70 | 155793 | 178137 D- C]0Jf3  
     10 | 39:35.13 |  5:04.24 | 178138 | 200961 /LWk>[Z;  
     11 | 44:39.37 |  4:41.09 | 200962 | 222045 0<@['W}G  
     12 | 49:20.46 |  3:19.11 | 222046 | 236981 965x _ %  
     13 | 52:39.57 |  4:34.29 | 236982 | 257560 [DeDU:  
     14 | 57:14.11 |  5:01.10 | 257561 | 280145 @#W4?L*D  
     15 | 62:15.21 |  4:26.52 | 280146 | 300147 &XcPHZy'  
     16 | 66:41.73 |  5:29.60 | 300148 | 324882 H#YI7l2  
     17 | 72:11.58 |  3:49.15 | 324883 | 342072 Y(1?uVYW\d  
     18 | 76:00.73 |  2:58.51 | 342073 | 355473 psIo[.$rTk  
C|Gk}  
ue7D' UZL>  
范围状态及错误 'JdK0w#  
iVeH\a  
已选择范围 )ej1)RU"  
= )3\B  
     文件名 J:\12 Music*音乐\CDImage.wav PD S( /x&  
mpk+]n@  
     峰值电平 98.8 % 3D@3jyo:  
     抓取速度 7.1 X jf;n*  
     范围质量 100.0 % )XSHKPTQ1  
     复制 CRC 5FA3ED1B 1CZO+MB&"$  
     复制成功 .3_u5N|[=W  
]CcRI|g}  
没有错误发生 > fV "bj.  
*mj=kJ7(  
状态报告结尾
5o4KV?"  
"S'Yn-  
此帖售价 20 金钱,已有 13 人购买 [记录] [购买]
购买后,将显示帖子中所有出售内容。
若发现会员采用欺骗的方法获取财富,请立刻举报,我们会对会员处以2-N倍的罚金,严重者封掉ID!
此段为出售的内容,购买后显示
离线耶稣

发帖
7063
金钱
246016
威望
2431
贡献值
1612
交易币
11002
只看该作者 1楼 发表于: 2015-08-25
帅了。。




在线mjghosts

发帖
8258
金钱
212473
威望
9166
贡献值
2715
交易币
4709
只看该作者 2楼 发表于: 2015-08-25
回 怪盗基德 的帖子
怪盗基德:帅了。。 (2015-08-25 21:28)  7\nXJ381  
gzW{h0iRr  
够快,再发个你喜欢的。
离线wannam

发帖
2698
金钱
86901
威望
382
贡献值
189
交易币
3341
只看该作者 3楼 发表于: 2015-08-25
喜欢这张精选集的封面
离线自作主张

发帖
340
金钱
3144
威望
80
贡献值
43
交易币
437
只看该作者 4楼 发表于: 2015-08-29
读取偏移校正是 0 啊啊啊
在线mjghosts

发帖
8258
金钱
212473
威望
9166
贡献值
2715
交易币
4709
只看该作者 5楼 发表于: 2015-08-29
回 自作主张 的帖子
自作主张:读取偏移校正是 0 啊啊啊 (2015-08-29 08:59)  Kn5C  
DGCvH)Q  
不影响,我这盘面非常好。
离线自作主张

发帖
340
金钱
3144
威望
80
贡献值
43
交易币
437
只看该作者 6楼 发表于: 2015-08-30
希望更多好的专辑
离线zhouquan311

发帖
734
金钱
7721
威望
136
贡献值
66
交易币
974
只看该作者 7楼 发表于: 2015-09-02
非常支持。
Forever MJ
       我要去减肥,除非冰淇淋,
  
  不再那么贵,三块二毛一,
  
  我也要人陪,除非我有米,
  
  去换红玫瑰,然后送给你,
  
离线marlene55555

发帖
1162
金钱
34284
威望
293
贡献值
98
交易币
1338
只看该作者 8楼 发表于: 2015-09-11
好版本
离线Mr灬W

发帖
1129
金钱
12894
威望
161
贡献值
56
交易币
1282
只看该作者 9楼 发表于: 2015-09-21
感谢分享! #Y;_W;#  
Heal The World
快速回复
限100 字节
 
上一个 下一个