论坛风格切换切换到宽版
  • 828阅读
  • 14回复

[亲传][Comp] 2003 Number Ones (US - EK 88998) - WAV整轨 ♬by幽灵 [复制链接]

上一主题 下一主题
离线mjghosts
 

发帖
8191
金钱
204337
威望
9035
贡献值
2641
交易币
4550
只看楼主 倒序阅读 楼主  发表于: 2015-08-25
— 本帖被 mjghosts 执行加亮操作(2015-08-25) —
相关链接:[Comp] 2003 Number Ones (EU - EPC 513800 2) - WAV整轨 ♬by幽灵 > V@,K z1  
Le,+jm  
*03年发行的精选,此为美版。曲目排序也与欧版、日版等常规版不同,比其他版本多一首珍贵的81年凯旋巡演《Ben》现场版,而常规版替补的歌曲是《Human Nature》。* RH;Kbu  
Y= ^o {C6  
注:独家整理,转载请注明出处!EAC无损整轨(压缩包内含CD图片) |bjLmGb  
s;:quM  
解压密码:www.mjsunny.com
#EO],!JM  
liVDBbS_A?  
q<A,S8'm  
GoG_4:^#h  
/Pa<I^-#  
avH3{V  
Exact Audio Copy V1.0 beta 6 from 9. April 2015 Q37zBC 0  
Redxg.P  
EAC 抓取日志文件从16. 八月 2015, 23:23 A*3R@G*h  
axd9b,  
Michael Jackson / Number Ones [US] Re'Ek  
n/GJ&qLi:g  
使用驱动器  :MATSHITADVD-RAM UJ890AS   Adapter: 1  ID: 1 XBHv V05mv  
| b)N;t  
读取模式      : 可靠Secure =|bW >y  
使用精确流     : 是 ~uu~NTz  
清空音频缓存    : 否 F84?Mi{r2  
使用 C2 指示器 : 是 ^->vUf7PX  
}@w Xm  
读取偏移校正:               : 0 ? 8)$N  
读取 Lead-In 和 Lead-Out : 否 %q,^A+=  
用静音填充抓取中丢失偏移的采样       : 是 U>_#,j  
去除首尾静音块               : 否 =6+j Po{F  
在CRC 计算中使用了空样本       : 是 1oIu~f{`  
已用接口                  : Win NT 及 2000 本地 Win32 接口 %uhhQ<zs%  
8rsv8OO  
所用输出模式: : 内部 WAV 函数 L\UM12  
样本格式    : 44.100 Hz; 16 Bit; 立体声 S~ 3|  
<0I=XsE1iX  
Li\BRlebR{  
已抓取 CD 的 TOC .:#6dG\0z  
A)q,VSR8  
     音轨 |    起始    |    长度    |  起始扇区  |  结束扇区   },LW@Z}  
    -------------------------------------------- n;Etn!4M  
      1 |  0:00.00 |  3:56.17 |      0 |  17716 m =2e1wc  
      2 |  3:56.17 |  3:40.67 |  17717 |  34283 8?7:sfc  
      3 |  7:37.09 |  4:53.41 |  34284 |  56299 h8_~ OX  
      4 | 12:30.50 |  4:18.33 |  56300 |  75682 i<Be)Y-'  
      5 | 16:49.08 |  5:12.02 |  75683 |  99084 :j2_Jn4UP  
      6 | 22:01.10 |  4:11.73 |  99085 | 117982 .U !;fJ9  
      7 | 26:13.08 |  4:06.54 | 117983 | 136486 0Ti>PR5M  
      8 | 30:19.62 |  4:17.31 | 136487 | 155792 VCvqiHn  
      9 | 34:37.18 |  4:57.70 | 155793 | 178137 [0G>=h@u  
     10 | 39:35.13 |  5:04.24 | 178138 | 200961 4hv'OEl  
     11 | 44:39.37 |  4:41.09 | 200962 | 222045 5&r2a}K  
     12 | 49:20.46 |  3:19.11 | 222046 | 236981 Kv:ih=?  
     13 | 52:39.57 |  4:34.29 | 236982 | 257560 $0zH2W  
     14 | 57:14.11 |  5:01.10 | 257561 | 280145  Dk fw*Oo  
     15 | 62:15.21 |  4:26.52 | 280146 | 300147 G{ $Zg  
     16 | 66:41.73 |  5:29.60 | 300148 | 324882 -h8!O+7 .  
     17 | 72:11.58 |  3:49.15 | 324883 | 342072 }f6x>  
     18 | 76:00.73 |  2:58.51 | 342073 | 355473 YtrMJ"  
rkl/5z??  
FB PT@`~v  
范围状态及错误 !2N#H~{  
Om0S^4y]x  
已选择范围 ~I>B5^3  
@]HV:7<q  
     文件名 J:\12 Music*音乐\CDImage.wav \?fl%r2  
XI,F^K  
     峰值电平 98.8 % ^dP@QMly6  
     抓取速度 7.1 X o=_4v ^  
     范围质量 100.0 % GKPqBi[rO  
     复制 CRC 5FA3ED1B 0r=Lilu{q  
     复制成功 r/L3j0  
zT~ GBC-IX  
没有错误发生 (vjQF$Hp  
W^&t8d2  
状态报告结尾
cVn7jxf  
Y@u{73H  
此帖售价 20 金钱,已有 10 人购买 [记录] [购买]
购买后,将显示帖子中所有出售内容。
若发现会员采用欺骗的方法获取财富,请立刻举报,我们会对会员处以2-N倍的罚金,严重者封掉ID!
此段为出售的内容,购买后显示
离线耶稣

发帖
6456
金钱
181004
威望
1800
贡献值
1197
交易币
9626
只看该作者 1楼 发表于: 2015-08-25
帅了。。



离线mjghosts

发帖
8191
金钱
204337
威望
9035
贡献值
2641
交易币
4550
只看该作者 2楼 发表于: 2015-08-25
回 怪盗基德 的帖子
怪盗基德:帅了。。 (2015-08-25 21:28)  j{;3+LCo*  
VUnEI oKM  
够快,再发个你喜欢的。
离线wannam

发帖
2539
金钱
69500
威望
363
贡献值
169
交易币
3182
只看该作者 3楼 发表于: 2015-08-25
喜欢这张精选集的封面
离线自作主张

发帖
334
金钱
2793
威望
78
贡献值
43
交易币
431
只看该作者 4楼 发表于: 2015-08-29
读取偏移校正是 0 啊啊啊
离线mjghosts

发帖
8191
金钱
204337
威望
9035
贡献值
2641
交易币
4550
只看该作者 5楼 发表于: 2015-08-29
回 自作主张 的帖子
自作主张:读取偏移校正是 0 啊啊啊 (2015-08-29 08:59)  yo'9x s  
G02ox5X  
不影响,我这盘面非常好。
离线自作主张

发帖
334
金钱
2793
威望
78
贡献值
43
交易币
431
只看该作者 6楼 发表于: 2015-08-30
希望更多好的专辑
离线zhouquan311

发帖
734
金钱
7683
威望
136
贡献值
66
交易币
974
只看该作者 7楼 发表于: 2015-09-02
非常支持。
Forever MJ
       我要去减肥,除非冰淇淋,
  
  不再那么贵,三块二毛一,
  
  我也要人陪,除非我有米,
  
  去换红玫瑰,然后送给你,
  
离线marlene55555

发帖
1161
金钱
34311
威望
293
贡献值
98
交易币
1337
只看该作者 8楼 发表于: 2015-09-11
好版本
离线Mr灬W

发帖
1146
金钱
13022
威望
152
贡献值
46
交易币
1271
只看该作者 9楼 发表于: 2015-09-21
感谢分享! F^"_TV0va  
Heal The World
快速回复
限100 字节
 
上一个 下一个