论坛风格切换切换到宽版
  • 919阅读
  • 16回复

[亲传][Comp] 2003 Number Ones (US - EK 88998) - WAV整轨 ♬by幽灵 [复制链接]

上一主题 下一主题
离线mjghosts
 

发帖
8195
金钱
205476
威望
9035
贡献值
2641
交易币
4554
只看楼主 倒序阅读 楼主  发表于: 2015-08-25
— 本帖被 mjghosts 执行加亮操作(2015-08-25) —
相关链接:[Comp] 2003 Number Ones (EU - EPC 513800 2) - WAV整轨 ♬by幽灵 /pvR-Id|6  
n 4:Yc@,  
*03年发行的精选,此为美版。曲目排序也与欧版、日版等常规版不同,比其他版本多一首珍贵的81年凯旋巡演《Ben》现场版,而常规版替补的歌曲是《Human Nature》。* >900O4  
xe;1D'(   
注:独家整理,转载请注明出处!EAC无损整轨(压缩包内含CD图片) X#$mBRK7  
`Tx1?]  
解压密码:www.mjsunny.com
6e6~82t8/  
+SGM3tY  
$= /.oh  
-v*wT*I1  
tl|Qw";I  
 hfpSxL  
Exact Audio Copy V1.0 beta 6 from 9. April 2015 0p\cDrB ?  
DGMvYNKTj  
EAC 抓取日志文件从16. 八月 2015, 23:23 9*gD;)!  
-,NiSh}A  
Michael Jackson / Number Ones [US] |tC`rzo  
%xE\IRlR  
使用驱动器  :MATSHITADVD-RAM UJ890AS   Adapter: 1  ID: 1 IP'gN-#i  
l?:!G7ie  
读取模式      : 可靠Secure KD9Y  
使用精确流     : 是 ZSj^\JU  
清空音频缓存    : 否 X(F 2 5  
使用 C2 指示器 : 是 m\~{l=jIS  
vzVXRX  
读取偏移校正:               : 0 s u]x  
读取 Lead-In 和 Lead-Out : 否 F.i%o2P3  
用静音填充抓取中丢失偏移的采样       : 是 T/Q#V)Tp  
去除首尾静音块               : 否 Y#Pl)sRr  
在CRC 计算中使用了空样本       : 是 Q C?*O?~#  
已用接口                  : Win NT 及 2000 本地 Win32 接口 U  JO  
,zmGKn#n2  
所用输出模式: : 内部 WAV 函数 >, 22@4  
样本格式    : 44.100 Hz; 16 Bit; 立体声 6@_Vg~=S  
@&!HMl  
GrWzgO  
已抓取 CD 的 TOC "Xq.b"N{*  
#SiOx/  
     音轨 |    起始    |    长度    |  起始扇区  |  结束扇区   Zr`pOUk!4  
    -------------------------------------------- 7I>@PV N  
      1 |  0:00.00 |  3:56.17 |      0 |  17716 Cf#[E~24  
      2 |  3:56.17 |  3:40.67 |  17717 |  34283 f"emH  
      3 |  7:37.09 |  4:53.41 |  34284 |  56299 9Yg=4>#$  
      4 | 12:30.50 |  4:18.33 |  56300 |  75682 XD>(M{~  
      5 | 16:49.08 |  5:12.02 |  75683 |  99084 :sD/IM",},  
      6 | 22:01.10 |  4:11.73 |  99085 | 117982 ^(5Up=.EA  
      7 | 26:13.08 |  4:06.54 | 117983 | 136486 WJ)( *1  
      8 | 30:19.62 |  4:17.31 | 136487 | 155792 FM\yf ]'  
      9 | 34:37.18 |  4:57.70 | 155793 | 178137 i@7b  
     10 | 39:35.13 |  5:04.24 | 178138 | 200961 Z]H`s{3  
     11 | 44:39.37 |  4:41.09 | 200962 | 222045 ROZOX$XM  
     12 | 49:20.46 |  3:19.11 | 222046 | 236981 G,+-}~$_  
     13 | 52:39.57 |  4:34.29 | 236982 | 257560 1k&**!S]%  
     14 | 57:14.11 |  5:01.10 | 257561 | 280145 lCmTm  
     15 | 62:15.21 |  4:26.52 | 280146 | 300147 PGTi-o}  
     16 | 66:41.73 |  5:29.60 | 300148 | 324882 )TNAgTmqK  
     17 | 72:11.58 |  3:49.15 | 324883 | 342072 :by EXe;3  
     18 | 76:00.73 |  2:58.51 | 342073 | 355473 "AH1)skB:  
5X2&hG*  
83rtQ ;L  
范围状态及错误 >lZ9Y{Y4v  
AF-4b*oB  
已选择范围 >]DnEF&  
JA .J~3  
     文件名 J:\12 Music*音乐\CDImage.wav 51:NL[[6  
/uXEh61$8  
     峰值电平 98.8 % M oIq)5/  
     抓取速度 7.1 X B?;!j)FUtt  
     范围质量 100.0 % <,r(^Ntz  
     复制 CRC 5FA3ED1B W<W5ih,#  
     复制成功 KW1 7CJ@  
P, (#' W  
没有错误发生 VeLuL:4I  
I2U/ \  
状态报告结尾
H<hFA(M  
85QVj] nr  
此帖售价 20 金钱,已有 12 人购买 [记录] [购买]
购买后,将显示帖子中所有出售内容。
若发现会员采用欺骗的方法获取财富,请立刻举报,我们会对会员处以2-N倍的罚金,严重者封掉ID!
此段为出售的内容,购买后显示
离线耶稣

发帖
6499
金钱
193102
威望
1880
贡献值
1224
交易币
9777
只看该作者 1楼 发表于: 2015-08-25
帅了。。



离线mjghosts

发帖
8195
金钱
205476
威望
9035
贡献值
2641
交易币
4554
只看该作者 2楼 发表于: 2015-08-25
回 怪盗基德 的帖子
怪盗基德:帅了。。 (2015-08-25 21:28)  :)GtPTD  
*@'\4OO  
够快,再发个你喜欢的。
离线wannam

发帖
2607
金钱
80608
威望
363
贡献值
169
交易币
3250
只看该作者 3楼 发表于: 2015-08-25
喜欢这张精选集的封面
离线自作主张

发帖
335
金钱
2932
威望
78
贡献值
43
交易币
432
只看该作者 4楼 发表于: 2015-08-29
读取偏移校正是 0 啊啊啊
离线mjghosts

发帖
8195
金钱
205476
威望
9035
贡献值
2641
交易币
4554
只看该作者 5楼 发表于: 2015-08-29
回 自作主张 的帖子
自作主张:读取偏移校正是 0 啊啊啊 (2015-08-29 08:59)  ru@#s2  
,eBC]4)B6  
不影响,我这盘面非常好。
离线自作主张

发帖
335
金钱
2932
威望
78
贡献值
43
交易币
432
只看该作者 6楼 发表于: 2015-08-30
希望更多好的专辑
离线zhouquan311

发帖
734
金钱
7691
威望
136
贡献值
66
交易币
974
只看该作者 7楼 发表于: 2015-09-02
非常支持。
Forever MJ
       我要去减肥,除非冰淇淋,
  
  不再那么贵,三块二毛一,
  
  我也要人陪,除非我有米,
  
  去换红玫瑰,然后送给你,
  
离线marlene55555

发帖
1161
金钱
34311
威望
293
贡献值
98
交易币
1337
只看该作者 8楼 发表于: 2015-09-11
好版本
离线Mr灬W

发帖
1148
金钱
12944
威望
151
贡献值
46
交易币
1273
只看该作者 9楼 发表于: 2015-09-21
感谢分享! _2*Ryz  
Heal The World
快速回复
限100 字节
 
上一个 下一个