论坛风格切换切换到宽版
  • 1426阅读
  • 19回复

[亲传][Comp] 2003 Number Ones (US - EK 88998) - WAV整轨 ♬by幽灵 [复制链接]

上一主题 下一主题
离线mjghosts
 

发帖
8240
金钱
216247
威望
9172
贡献值
2721
交易币
4743
只看楼主 倒序阅读 楼主  发表于: 2015-08-25
— 本帖被 mjghosts 执行加亮操作(2015-08-25) —
相关链接:[Comp] 2003 Number Ones (EU - EPC 513800 2) - WAV整轨 ♬by幽灵 < i"U%Ds(  
S*Scf~Qp  
*03年发行的精选,此为美版。曲目排序也与欧版、日版等常规版不同,比其他版本多一首珍贵的81年凯旋巡演《Ben》现场版,而常规版替补的歌曲是《Human Nature》。* ~"!F&  
!OekN,6  
注:独家整理,转载请注明出处!EAC无损整轨(压缩包内含CD图片) 23@e?A=C  
"AP'' XNi  
解压密码:www.mjsunny.com
/=>z|?z3  
A>(m}P  
+b1(sk=4z  
55MsF}p  
db`xlvrCY  
R<{bb'  
Exact Audio Copy V1.0 beta 6 from 9. April 2015 87c7p=/0`  
.x5Y fe  
EAC 抓取日志文件从16. 八月 2015, 23:23 %&5 !vK  
DZ5%-  
Michael Jackson / Number Ones [US] ,$EM3   
f9u^/QVS&  
使用驱动器  :MATSHITADVD-RAM UJ890AS   Adapter: 1  ID: 1 ]+;1)  
S.rlF1`  
读取模式      : 可靠Secure p0~=   
使用精确流     : 是 0gO<]]M?  
清空音频缓存    : 否 IXNcn@tN  
使用 C2 指示器 : 是 &M(=#pq9  
%7%7 W*0d  
读取偏移校正:               : 0 ?nJ7lLQA  
读取 Lead-In 和 Lead-Out : 否 YYU Di@K  
用静音填充抓取中丢失偏移的采样       : 是 )j(13faW|  
去除首尾静音块               : 否 Ug02G  
在CRC 计算中使用了空样本       : 是 rOQhS]TP*  
已用接口                  : Win NT 及 2000 本地 Win32 接口 \~!9T5/*  
!]1X0wo\  
所用输出模式: : 内部 WAV 函数 Gc2sY 0  
样本格式    : 44.100 Hz; 16 Bit; 立体声 j~,7JJ (y  
4]9+   
dA >=#/"  
已抓取 CD 的 TOC bK;I:JK3  
Awl4*J~  
     音轨 |    起始    |    长度    |  起始扇区  |  结束扇区   ?8[,0l:|  
    -------------------------------------------- 3 EH/6  
      1 |  0:00.00 |  3:56.17 |      0 |  17716 "j BrPCB 8  
      2 |  3:56.17 |  3:40.67 |  17717 |  34283 [of{~  
      3 |  7:37.09 |  4:53.41 |  34284 |  56299 Yqz(@( %  
      4 | 12:30.50 |  4:18.33 |  56300 |  75682 x95[*[  
      5 | 16:49.08 |  5:12.02 |  75683 |  99084 =au7'i|6  
      6 | 22:01.10 |  4:11.73 |  99085 | 117982 WE\@ArY>  
      7 | 26:13.08 |  4:06.54 | 117983 | 136486 tDj~+lmdN  
      8 | 30:19.62 |  4:17.31 | 136487 | 155792 S9kagiFX\  
      9 | 34:37.18 |  4:57.70 | 155793 | 178137 0>hV?A  
     10 | 39:35.13 |  5:04.24 | 178138 | 200961 bOR1V\Jr$q  
     11 | 44:39.37 |  4:41.09 | 200962 | 222045 0<f\bY02  
     12 | 49:20.46 |  3:19.11 | 222046 | 236981 o.Ld.I)  
     13 | 52:39.57 |  4:34.29 | 236982 | 257560 !ceT>i90h  
     14 | 57:14.11 |  5:01.10 | 257561 | 280145 <vS J< WY  
     15 | 62:15.21 |  4:26.52 | 280146 | 300147 xXG-yh  
     16 | 66:41.73 |  5:29.60 | 300148 | 324882 cRYnQ{$'  
     17 | 72:11.58 |  3:49.15 | 324883 | 342072 y bWb'+x  
     18 | 76:00.73 |  2:58.51 | 342073 | 355473 ho*44=j  
:N!Fe7H,  
{}F?eI  
范围状态及错误 o$dnp`E  
J:s^F n  
已选择范围 }T<[JXh=J  
dWR0tS6vR`  
     文件名 J:\12 Music*音乐\CDImage.wav N}ur0 'J0  
?6h65GO{  
     峰值电平 98.8 % =,Y i" E  
     抓取速度 7.1 X A`E7V}~  
     范围质量 100.0 % 3#)I7FG  
     复制 CRC 5FA3ED1B A?l.(qG C_  
     复制成功 >)g`;iO  
1mT3$Z  
没有错误发生 r^3QDoy  
HWe?vz$4"  
状态报告结尾
S1 22. I  
 $$E!u}  
此帖售价 20 金钱,已有 15 人购买 [记录] [购买]
购买后,将显示帖子中所有出售内容。
若发现会员采用欺骗的方法获取财富,请立刻举报,我们会对会员处以2-N倍的罚金,严重者封掉ID!
此段为出售的内容,购买后显示
离线耶稣

发帖
7121
金钱
265628
威望
2471
贡献值
1638
交易币
11152
只看该作者 1楼 发表于: 2015-08-25
帅了。。


离线mjghosts

发帖
8240
金钱
216247
威望
9172
贡献值
2721
交易币
4743
只看该作者 2楼 发表于: 2015-08-25
回 怪盗基德 的帖子
怪盗基德:帅了。。 (2015-08-25 21:28)  ~ "IjT'W3  
S1`;2mAf*  
够快,再发个你喜欢的。
离线wannam

发帖
2701
金钱
86995
威望
382
贡献值
189
交易币
3344
只看该作者 3楼 发表于: 2015-08-25
喜欢这张精选集的封面
离线自作主张

发帖
344
金钱
3054
威望
80
贡献值
43
交易币
441
只看该作者 4楼 发表于: 2015-08-29
读取偏移校正是 0 啊啊啊
离线mjghosts

发帖
8240
金钱
216247
威望
9172
贡献值
2721
交易币
4743
只看该作者 5楼 发表于: 2015-08-29
回 自作主张 的帖子
自作主张:读取偏移校正是 0 啊啊啊 (2015-08-29 08:59)  gzK"'4`  
'oZ/fUl|7  
不影响,我这盘面非常好。
离线自作主张

发帖
344
金钱
3054
威望
80
贡献值
43
交易币
441
只看该作者 6楼 发表于: 2015-08-30
希望更多好的专辑
离线zhouquan311

发帖
734
金钱
7771
威望
136
贡献值
66
交易币
974
只看该作者 7楼 发表于: 2015-09-02
非常支持。
Forever MJ
       我要去减肥,除非冰淇淋,
  
  不再那么贵,三块二毛一,
  
  我也要人陪,除非我有米,
  
  去换红玫瑰,然后送给你,
  
离线marlene55555

发帖
1165
金钱
34275
威望
293
贡献值
98
交易币
1341
只看该作者 8楼 发表于: 2015-09-11
好版本
离线Mr灬W

发帖
1129
金钱
12950
威望
161
贡献值
56
交易币
1282
只看该作者 9楼 发表于: 2015-09-21
感谢分享! =.]{OT  
Heal The World
快速回复
限100 字节
 
上一个 下一个