论坛风格切换切换到宽版
  • 1075阅读
  • 16回复

[亲传][Comp] 2003 Number Ones (US - EK 88998) - WAV整轨 ♬by幽灵 [复制链接]

上一主题 下一主题
离线mjghosts
 

发帖
8247
金钱
210471
威望
9164
贡献值
2715
交易币
4698
只看楼主 倒序阅读 楼主  发表于: 2015-08-25
— 本帖被 mjghosts 执行加亮操作(2015-08-25) —
相关链接:[Comp] 2003 Number Ones (EU - EPC 513800 2) - WAV整轨 ♬by幽灵 4IY|<  
SQ+r'g  
*03年发行的精选,此为美版。曲目排序也与欧版、日版等常规版不同,比其他版本多一首珍贵的81年凯旋巡演《Ben》现场版,而常规版替补的歌曲是《Human Nature》。* >e-0A  
z"QtP[_m  
注:独家整理,转载请注明出处!EAC无损整轨(压缩包内含CD图片) (igB'S5wf  
bJ6C7-w:wa  
解压密码:www.mjsunny.com
v}AjW%rB  
#^aa&*<D_  
sy4Nm0m  
c`S+>:  
>X iT[Ru  
^liW*F"UY  
Exact Audio Copy V1.0 beta 6 from 9. April 2015 ./'d^9{  
/S~ =qodS  
EAC 抓取日志文件从16. 八月 2015, 23:23 lt2MB#  
q j9q   
Michael Jackson / Number Ones [US] 0sme0"Sl  
M ]O4  
使用驱动器  :MATSHITADVD-RAM UJ890AS   Adapter: 1  ID: 1 w2('75$J  
vW?/:  
读取模式      : 可靠Secure Hfo<EB2Y9N  
使用精确流     : 是 oEFo7X`t  
清空音频缓存    : 否 w&J_c8S  
使用 C2 指示器 : 是 Zt=P 0  
5tLb o  
读取偏移校正:               : 0 8.I3%u  
读取 Lead-In 和 Lead-Out : 否 u!F\`Gfm_  
用静音填充抓取中丢失偏移的采样       : 是 } _^ vvu  
去除首尾静音块               : 否 9$C?)XKXB  
在CRC 计算中使用了空样本       : 是 KtH^k&z.f  
已用接口                  : Win NT 及 2000 本地 Win32 接口 s@y;b0$gk  
_G'A]O/BZD  
所用输出模式: : 内部 WAV 函数 6%>'n?  
样本格式    : 44.100 Hz; 16 Bit; 立体声 k_zn>aR$F  
eMmNQRmH  
MuP>#Vk  
已抓取 CD 的 TOC 8~s0%%{,M  
B, H9EX  
     音轨 |    起始    |    长度    |  起始扇区  |  结束扇区   m6$&yKQ-=h  
    -------------------------------------------- L=EkY O%\"  
      1 |  0:00.00 |  3:56.17 |      0 |  17716 5$HG#2"Kb#  
      2 |  3:56.17 |  3:40.67 |  17717 |  34283 3!fR'L/i  
      3 |  7:37.09 |  4:53.41 |  34284 |  56299 J@E]Fl  
      4 | 12:30.50 |  4:18.33 |  56300 |  75682 ^v cnDi  
      5 | 16:49.08 |  5:12.02 |  75683 |  99084 ,Ww}xmq1H  
      6 | 22:01.10 |  4:11.73 |  99085 | 117982 vN],9 q  
      7 | 26:13.08 |  4:06.54 | 117983 | 136486 ;nW;M 4{  
      8 | 30:19.62 |  4:17.31 | 136487 | 155792 'l~7u({u  
      9 | 34:37.18 |  4:57.70 | 155793 | 178137 yx-"&K=`  
     10 | 39:35.13 |  5:04.24 | 178138 | 200961 p.g>+7  
     11 | 44:39.37 |  4:41.09 | 200962 | 222045 R(^Sse  
     12 | 49:20.46 |  3:19.11 | 222046 | 236981 [9Rh"H;h  
     13 | 52:39.57 |  4:34.29 | 236982 | 257560 y< dBF[  
     14 | 57:14.11 |  5:01.10 | 257561 | 280145 h'h8Mm  
     15 | 62:15.21 |  4:26.52 | 280146 | 300147 ZZ^A&%E(a  
     16 | 66:41.73 |  5:29.60 | 300148 | 324882 2'M5+[8y8  
     17 | 72:11.58 |  3:49.15 | 324883 | 342072 F3!@|/<w  
     18 | 76:00.73 |  2:58.51 | 342073 | 355473 @Nh}^D >j  
wAi7jCY%OY  
WQVU 82b*  
范围状态及错误 !0zcS7&P  
;5\'PrE  
已选择范围 Sb2_&5  
ShV_8F z  
     文件名 J:\12 Music*音乐\CDImage.wav Oz(=%oS  
5GJkvZtFY  
     峰值电平 98.8 % 8|i<4>  
     抓取速度 7.1 X a[zVC)N0  
     范围质量 100.0 % xgNV0;g,  
     复制 CRC 5FA3ED1B GYf{~J  
     复制成功 Bo ywgL|  
YT[=o}jS  
没有错误发生 J]S6%omp>  
/: \27n  
状态报告结尾
(C`nBiL<  
(A}c22qe  
此帖售价 20 金钱,已有 12 人购买 [记录] [购买]
购买后,将显示帖子中所有出售内容。
若发现会员采用欺骗的方法获取财富,请立刻举报,我们会对会员处以2-N倍的罚金,严重者封掉ID!
此段为出售的内容,购买后显示
离线耶稣

发帖
6832
金钱
227041
威望
2274
贡献值
1485
交易币
10527
只看该作者 1楼 发表于: 2015-08-25
帅了。。


离线mjghosts

发帖
8247
金钱
210471
威望
9164
贡献值
2715
交易币
4698
只看该作者 2楼 发表于: 2015-08-25
回 怪盗基德 的帖子
怪盗基德:帅了。。 (2015-08-25 21:28)  xu _:  
1 \_S1ZS  
够快,再发个你喜欢的。
离线wannam

发帖
2697
金钱
86875
威望
382
贡献值
189
交易币
3340
只看该作者 3楼 发表于: 2015-08-25
喜欢这张精选集的封面
离线自作主张

发帖
338
金钱
2961
威望
78
贡献值
43
交易币
435
只看该作者 4楼 发表于: 2015-08-29
读取偏移校正是 0 啊啊啊
离线mjghosts

发帖
8247
金钱
210471
威望
9164
贡献值
2715
交易币
4698
只看该作者 5楼 发表于: 2015-08-29
回 自作主张 的帖子
自作主张:读取偏移校正是 0 啊啊啊 (2015-08-29 08:59)  <!\J([NM8  
A$RN7#  
不影响,我这盘面非常好。
离线自作主张

发帖
338
金钱
2961
威望
78
贡献值
43
交易币
435
只看该作者 6楼 发表于: 2015-08-30
希望更多好的专辑
离线zhouquan311

发帖
734
金钱
7691
威望
136
贡献值
66
交易币
974
只看该作者 7楼 发表于: 2015-09-02
非常支持。
Forever MJ
       我要去减肥,除非冰淇淋,
  
  不再那么贵,三块二毛一,
  
  我也要人陪,除非我有米,
  
  去换红玫瑰,然后送给你,
  
离线marlene55555

发帖
1161
金钱
34314
威望
293
贡献值
98
交易币
1337
只看该作者 8楼 发表于: 2015-09-11
好版本
离线Mr灬W

发帖
1156
金钱
12819
威望
161
贡献值
56
交易币
1281
只看该作者 9楼 发表于: 2015-09-21
感谢分享! KW;xlJz(j  
Heal The World
快速回复
限100 字节
 
上一个 下一个