论坛风格切换切换到宽版
  • 1536阅读
  • 16回复

[亲传][Single] 1996 They Don't Care About Us (EU#2 - EPC 662950 8) - WAV整轨 ♬by幽灵 [复制链接]

上一主题 下一主题
离线mjghosts
 

发帖
8241
金钱
217202
威望
9172
贡献值
2721
交易币
4744
只看楼主 倒序阅读 楼主  发表于: 2015-08-25
— 本帖被 mjghosts 执行加亮操作(2015-08-25) —
*欧版#2,蓝色字体封面4曲。* 0s n$QmW:  
0h-NT\m  
注:独家整理,转载请注明出处!EAC无损整轨(压缩包内含CD图片)  \XDiw~0  
#2=l\y-#  
解压密码:www.mjsunny.com
Th_@'UDa  
FSuC)Xg  
N"9^A^w8k  
T{prCM  
C  eEhe  
3MQHoxX  
Exact Audio Copy V1.0 beta 6 from 9. April 2015 g0f4>m  
(-<hx~  
EAC 抓取日志文件从15. 八月 2015, 3:08 fhi}x(  
kTjn%Sn,  
Michael Jackson / They Don't Care About Us 5,xPB5pK  
jd]L}%ax  
使用驱动器  :MATSHITADVD-RAM UJ890AS   Adapter: 1  ID: 1 ,wf_o%'eW  
f (C:J[;Z  
读取模式      : 可靠Secure 'oz$uvX  
使用精确流     : 是 8K^#$,.."  
清空音频缓存    : 否 ke@OG! M/  
使用 C2 指示器 : 是 5%wA"_  
iTevl>p!  
读取偏移校正:               : 0 *56j'FX  
读取 Lead-In 和 Lead-Out : 否 Lww&[|k.  
用静音填充抓取中丢失偏移的采样       : 是 dJzaP  
去除首尾静音块               : 否 alxIc.[  
在CRC 计算中使用了空样本       : 是 &'neOf/~  
已用接口                  : Win NT 及 2000 本地 Win32 接口 DZ`,QWuA  
UQI!/6F  
所用输出模式: : 内部 WAV 函数 q-1vtbn  
样本格式    : 44.100 Hz; 16 Bit; 立体声 X+;#^A3  
PMiu "  
'[[IalQ?  
已抓取 CD 的 TOC C9Cl$yZ  
eHHU2^I,  
     音轨 |    起始    |    长度    |  起始扇区  |  结束扇区   FIJ]`  
    -------------------------------------------- 8M4GforP  
      1 |  0:00.00 |  4:47.02 |      0 |  21526 *EU1`q*  
      2 |  4:47.02 |  4:09.15 |  21527 |  40216 7&dF=/:X@  
      3 |  8:56.17 |  4:59.56 |  40217 |  62697 meD83,L~N  
      4 | 13:55.73 |  6:11.25 |  62698 |  90547 khP Ub,  
      5 | 22:39.23 | 11:40.63 | 101948 | 154510 &61h*s  
_k)EqPYu@  
U@".XIDQ  
范围状态及错误 [WR*u\FF  
?KFj=Yo  
已选择范围 K!tM "`a  
@(m?j1!M  
     文件名 J:\12 Music*音乐\[Single] 1996 They Don't Care About Us (EU#2 - EPC 662950 8) 4 track\CDImage.wav n?NUnFA  
j-/F *P  
     峰值电平 100.0 % 97^)B4  
     抓取速度 5.0 X )#Id=c  
     范围质量 100.0 % ;/(<yu48  
     复制 CRC B504CE32 0PJ7o#}_{@  
     复制成功 #D Oui]  
F t;[>o  
没有错误发生 0' II6,:  
FrQRHbp3  
状态报告结尾
V?-OI>  
hdy N   
此帖售价 20 金钱,已有 12 人购买 [记录] [购买]
购买后,将显示帖子中所有出售内容。
若发现会员采用欺骗的方法获取财富,请立刻举报,我们会对会员处以2-N倍的罚金,严重者封掉ID!
此段为出售的内容,购买后显示
离线耶稣

发帖
7134
金钱
268414
威望
2485
贡献值
1649
交易币
11181
只看该作者 1楼 发表于: 2015-08-25
谢谢!





离线耶稣

发帖
7134
金钱
268414
威望
2485
贡献值
1649
交易币
11181
只看该作者 2楼 发表于: 2015-08-25
呃⊙_⊙ RpivO,   
打开连接显示不存在? [H}> 2Q  
m)Plv+R}  





离线mjghosts

发帖
8241
金钱
217202
威望
9172
贡献值
2721
交易币
4744
只看该作者 3楼 发表于: 2015-08-25
回 怪盗基德 的帖子
怪盗基德:呃⊙_⊙ 7@c!4hmrU  
打开连接显示不存在? WDc[+Xyw  
[图片] s$fM,l:!  
 (2015-08-25 21:52)  /d&m#%9Up]  
7-S?RU]g  
现在试试看可以吗
离线耶稣

发帖
7134
金钱
268414
威望
2485
贡献值
1649
交易币
11181
只看该作者 4楼 发表于: 2015-08-25
ok了ok了^_^ +xuv+mo  
谢谢!





离线mjghosts

发帖
8241
金钱
217202
威望
9172
贡献值
2721
交易币
4744
只看该作者 5楼 发表于: 2015-08-25
回 怪盗基德 的帖子
怪盗基德:ok了ok了^_^ [_ uT+q3  
谢谢! (2015-08-25 22:01)  mBB"e"o  
5zZQt +Ip  
抹了一把汗。。 hhWy-fP#  
8 .K; 2  
之前也考虑过文件名要不要这么赤果果的,就是怕被吞。以后注意。
离线marlene55555

发帖
1165
金钱
34275
威望
293
贡献值
98
交易币
1341
只看该作者 6楼 发表于: 2015-09-11
谢谢了
离线小李

发帖
232
金钱
230
威望
99
贡献值
8
交易币
204
只看该作者 7楼 发表于: 2015-09-11
(EU#2 - EPC 662950 8) - WAV整轨 ♬by幽灵
谢谢,我听听,相爱了跟你楼主不是你
离线Mr灬W

发帖
1129
金钱
12950
威望
161
贡献值
56
交易币
1282
只看该作者 8楼 发表于: 2015-09-21
这个版本好,感谢分享
Heal The World
离线lifan_npl

发帖
2180
金钱
16659
威望
783
贡献值
348
交易币
2537
只看该作者 9楼 发表于: 2015-11-21
下载看看  收藏了
我的淘宝:
http://shop63152617.taobao.com  
快速回复
限100 字节
 
上一个 下一个