论坛风格切换切换到宽版
  • 1032阅读
  • 16回复

[亲传][Single] 1996 They Don't Care About Us (EU#2 - EPC 662950 8) - WAV整轨 ♬by幽灵 [复制链接]

上一主题 下一主题
离线mjghosts
 

发帖
8256
金钱
212030
威望
9166
贡献值
2715
交易币
4707
只看楼主 倒序阅读 楼主  发表于: 2015-08-25
— 本帖被 mjghosts 执行加亮操作(2015-08-25) —
*欧版#2,蓝色字体封面4曲。* @Be:+01z  
"#k(V=y  
注:独家整理,转载请注明出处!EAC无损整轨(压缩包内含CD图片) KR(ftG'  
B@vH1T  
解压密码:www.mjsunny.com
;1k0o.3  
 +5mkMZ  
kj=2+)!E7  
'|?r&-5 h  
s? #lhI  
]LOtwY  
Exact Audio Copy V1.0 beta 6 from 9. April 2015 R_&z2I  
/n7,B}  
EAC 抓取日志文件从15. 八月 2015, 3:08 .. TjEBp  
5c7a\J9>  
Michael Jackson / They Don't Care About Us NmF2E+'  
r=aQ S5  
使用驱动器  :MATSHITADVD-RAM UJ890AS   Adapter: 1  ID: 1 $?{zV$r1  
9Wrcl ai  
读取模式      : 可靠Secure qJj5J;k  
使用精确流     : 是 0eP~F2<bC  
清空音频缓存    : 否 N *>; '  
使用 C2 指示器 : 是 1Tr=*b %f  
r |/9Dn%  
读取偏移校正:               : 0 e?WR={  
读取 Lead-In 和 Lead-Out : 否 N>Y3[G+  
用静音填充抓取中丢失偏移的采样       : 是 8w' 8n  
去除首尾静音块               : 否 BW 7[JD  
在CRC 计算中使用了空样本       : 是 oR)7 \;g  
已用接口                  : Win NT 及 2000 本地 Win32 接口 r_m&Jl@4  
]\lw^.%  
所用输出模式: : 内部 WAV 函数 NYeg,{q  
样本格式    : 44.100 Hz; 16 Bit; 立体声 )FLpWE"e-  
l-rnDl  
iVcBD0 q)  
已抓取 CD 的 TOC plq\D.C  
;D:v@I$I  
     音轨 |    起始    |    长度    |  起始扇区  |  结束扇区   gNeCnf#Xa  
    -------------------------------------------- NO1PGen  
      1 |  0:00.00 |  4:47.02 |      0 |  21526 .+<K-'&=  
      2 |  4:47.02 |  4:09.15 |  21527 |  40216 w'!gLta  
      3 |  8:56.17 |  4:59.56 |  40217 |  62697 Evc 9k  
      4 | 13:55.73 |  6:11.25 |  62698 |  90547 *K;~V  
      5 | 22:39.23 | 11:40.63 | 101948 | 154510 ?S_S.Bd  
])`F$S  
&}]Wbk4:  
范围状态及错误 'BC-'Ot  
| 8AH_Fk  
已选择范围 G*QQpSp  
h3:k$`_  
     文件名 J:\12 Music*音乐\[Single] 1996 They Don't Care About Us (EU#2 - EPC 662950 8) 4 track\CDImage.wav u^ T2  
%>f:m!.  
     峰值电平 100.0 % ?0.+DB $  
     抓取速度 5.0 X 8Vq,J:+  
     范围质量 100.0 % AIE)q]'Q  
     复制 CRC B504CE32 ?Z;knX\?J  
     复制成功 f[.]JC+,  
mFvw s  
没有错误发生 t?/#:J*_7  
VQX#P<  
状态报告结尾
Jx 'p\*  
4Jw0m#UN1  
此帖售价 20 金钱,已有 12 人购买 [记录] [购买]
购买后,将显示帖子中所有出售内容。
若发现会员采用欺骗的方法获取财富,请立刻举报,我们会对会员处以2-N倍的罚金,严重者封掉ID!
此段为出售的内容,购买后显示
在线耶稣

发帖
6918
金钱
228887
威望
2362
贡献值
1570
交易币
10701
只看该作者 1楼 发表于: 2015-08-25
谢谢!


在线耶稣

发帖
6918
金钱
228887
威望
2362
贡献值
1570
交易币
10701
只看该作者 2楼 发表于: 2015-08-25
呃⊙_⊙ RrLQM!~  
打开连接显示不存在? -9-%_=6  
4cJ^L <  


离线mjghosts

发帖
8256
金钱
212030
威望
9166
贡献值
2715
交易币
4707
只看该作者 3楼 发表于: 2015-08-25
回 怪盗基德 的帖子
怪盗基德:呃⊙_⊙ p( Qm\g<  
打开连接显示不存在? G3?8GTH  
[图片] t[an,3  
 (2015-08-25 21:52)  %?RX}37K  
T+2?u.{I  
现在试试看可以吗
在线耶稣

发帖
6918
金钱
228887
威望
2362
贡献值
1570
交易币
10701
只看该作者 4楼 发表于: 2015-08-25
ok了ok了^_^ @];Xbbw+c  
谢谢!


离线mjghosts

发帖
8256
金钱
212030
威望
9166
贡献值
2715
交易币
4707
只看该作者 5楼 发表于: 2015-08-25
回 怪盗基德 的帖子
怪盗基德:ok了ok了^_^ :C>slxY  
谢谢! (2015-08-25 22:01)  A"i40 @+  
|a/"7B|?\  
抹了一把汗。。 oTT/;~I  
{3@/@jO?  
之前也考虑过文件名要不要这么赤果果的,就是怕被吞。以后注意。
离线marlene55555

发帖
1162
金钱
34284
威望
293
贡献值
98
交易币
1338
只看该作者 6楼 发表于: 2015-09-11
谢谢了
离线小李

发帖
219
金钱
137
威望
98
贡献值
7
交易币
187
只看该作者 7楼 发表于: 2015-09-11
(EU#2 - EPC 662950 8) - WAV整轨 ♬by幽灵
谢谢,我听听,相爱了跟你楼主不是你
离线Mr灬W

发帖
1128
金钱
12839
威望
161
贡献值
56
交易币
1281
只看该作者 8楼 发表于: 2015-09-21
这个版本好,感谢分享
Heal The World
离线lifan_npl

发帖
2132
金钱
17379
威望
787
贡献值
347
交易币
2485
只看该作者 9楼 发表于: 2015-11-21
下载看看  收藏了
我的淘宝:
http://shop63152617.taobao.com  
快速回复
限100 字节
 
上一个 下一个