论坛风格切换切换到宽版
  • 1177阅读
  • 16回复

[亲传][Single] 1996 They Don't Care About Us (EU#2 - EPC 662950 8) - WAV整轨 ♬by幽灵 [复制链接]

上一主题 下一主题
离线mjghosts
 

发帖
8232
金钱
212989
威望
9167
贡献值
2716
交易币
4715
只看楼主 倒序阅读 楼主  发表于: 2015-08-25
— 本帖被 mjghosts 执行加亮操作(2015-08-25) —
*欧版#2,蓝色字体封面4曲。* /G{3p&9  
WI 4_4  
注:独家整理,转载请注明出处!EAC无损整轨(压缩包内含CD图片) !9cPNIi  
^[z\KmUqt  
解压密码:www.mjsunny.com
so&3A&4cL  
9JeGjkG,  
1L9 <1  
1:V/['|*g)  
|EU08b]P29  
cv&hT.1  
Exact Audio Copy V1.0 beta 6 from 9. April 2015 D^4V"rq  
R'_[RHFC  
EAC 抓取日志文件从15. 八月 2015, 3:08 .- o,_eg1f  
NIGFu{S  
Michael Jackson / They Don't Care About Us GH!#"Sl8Z  
'L7.a'  
使用驱动器  :MATSHITADVD-RAM UJ890AS   Adapter: 1  ID: 1 6I<`N  
D[_2:8  
读取模式      : 可靠Secure 01b0;|  
使用精确流     : 是 `CBTZG09  
清空音频缓存    : 否 x1Uj4*Au  
使用 C2 指示器 : 是 H Zc;.jJ  
p("do1:  
读取偏移校正:               : 0 dx|j,1e  
读取 Lead-In 和 Lead-Out : 否 Rb?6N  
用静音填充抓取中丢失偏移的采样       : 是 #49,7OBU  
去除首尾静音块               : 否 K^> +"  
在CRC 计算中使用了空样本       : 是 w\!aKeP'  
已用接口                  : Win NT 及 2000 本地 Win32 接口 @uApm~}  
Z$"E|nRN  
所用输出模式: : 内部 WAV 函数 yL{X}:;}  
样本格式    : 44.100 Hz; 16 Bit; 立体声 ;W 16Hr Z  
&V"9[0  
w8~B@}%  
已抓取 CD 的 TOC 4}&$s  
:$ qa  
     音轨 |    起始    |    长度    |  起始扇区  |  结束扇区   Ynxzkm S  
    -------------------------------------------- 7^bde<0  
      1 |  0:00.00 |  4:47.02 |      0 |  21526 o%j[]P@4G  
      2 |  4:47.02 |  4:09.15 |  21527 |  40216 rP%B#%;S"  
      3 |  8:56.17 |  4:59.56 |  40217 |  62697 E!rgR5Bd  
      4 | 13:55.73 |  6:11.25 |  62698 |  90547 P&kjtl68 Y  
      5 | 22:39.23 | 11:40.63 | 101948 | 154510 (^lw<$N  
t^')ST  
OL0W'C9oA  
范围状态及错误 i pi^sCYp  
EmFL %++V  
已选择范围 WJ[ybzVj  
fC<pCdsg  
     文件名 J:\12 Music*音乐\[Single] 1996 They Don't Care About Us (EU#2 - EPC 662950 8) 4 track\CDImage.wav KP*cb6vA  
yR'%UpaE  
     峰值电平 100.0 % )/mBq#ZS  
     抓取速度 5.0 X K Ml>~r  
     范围质量 100.0 % "xxt_  
     复制 CRC B504CE32 RIV + _}R  
     复制成功 /]>8V'e\  
0/TP`3$X#"  
没有错误发生 PW QRy  
|y.^F3PE  
状态报告结尾
,*m{Q  
32z2c:G  
此帖售价 20 金钱,已有 12 人购买 [记录] [购买]
购买后,将显示帖子中所有出售内容。
若发现会员采用欺骗的方法获取财富,请立刻举报,我们会对会员处以2-N倍的罚金,严重者封掉ID!
此段为出售的内容,购买后显示
在线耶稣

发帖
7086
金钱
254409
威望
2445
贡献值
1619
交易币
11053
只看该作者 1楼 发表于: 2015-08-25
谢谢!




在线耶稣

发帖
7086
金钱
254409
威望
2445
贡献值
1619
交易币
11053
只看该作者 2楼 发表于: 2015-08-25
呃⊙_⊙ [E/8E h<  
打开连接显示不存在? Q?W}]RW  
W>`#`u  




离线mjghosts

发帖
8232
金钱
212989
威望
9167
贡献值
2716
交易币
4715
只看该作者 3楼 发表于: 2015-08-25
回 怪盗基德 的帖子
怪盗基德:呃⊙_⊙ w$XqxI/&  
打开连接显示不存在? 'n>v}__&|  
[图片] 0r=KY@D  
 (2015-08-25 21:52)  ~7G@S&<PK(  
;8~tt I  
现在试试看可以吗
在线耶稣

发帖
7086
金钱
254409
威望
2445
贡献值
1619
交易币
11053
只看该作者 4楼 发表于: 2015-08-25
ok了ok了^_^ _fmOTz G  
谢谢!




离线mjghosts

发帖
8232
金钱
212989
威望
9167
贡献值
2716
交易币
4715
只看该作者 5楼 发表于: 2015-08-25
回 怪盗基德 的帖子
怪盗基德:ok了ok了^_^ !sWKi)1  
谢谢! (2015-08-25 22:01)  '4-J0S<<_  
B:Y"X:Y  
抹了一把汗。。 {k BHZ$/  
UnTnc6Bo7W  
之前也考虑过文件名要不要这么赤果果的,就是怕被吞。以后注意。
离线marlene55555

发帖
1164
金钱
34253
威望
293
贡献值
98
交易币
1340
只看该作者 6楼 发表于: 2015-09-11
谢谢了
离线小李

发帖
226
金钱
155
威望
99
贡献值
8
交易币
198
只看该作者 7楼 发表于: 2015-09-11
(EU#2 - EPC 662950 8) - WAV整轨 ♬by幽灵
谢谢,我听听,相爱了跟你楼主不是你
离线Mr灬W

发帖
1129
金钱
12894
威望
161
贡献值
56
交易币
1282
只看该作者 8楼 发表于: 2015-09-21
这个版本好,感谢分享
Heal The World
离线lifan_npl

发帖
2165
金钱
16930
威望
782
贡献值
347
交易币
2518
只看该作者 9楼 发表于: 2015-11-21
下载看看  收藏了
我的淘宝:
http://shop63152617.taobao.com  
快速回复
限100 字节
 
上一个 下一个