论坛风格切换切换到宽版
  • 772阅读
  • 15回复

[亲传][Single] 1996 They Don't Care About Us (EU#2 - EPC 662950 8) - WAV整轨 ♬by幽灵 [复制链接]

上一主题 下一主题
离线mjghosts
 

发帖
8191
金钱
204337
威望
9035
贡献值
2641
交易币
4550
只看楼主 倒序阅读 楼主  发表于: 2015-08-25
— 本帖被 mjghosts 执行加亮操作(2015-08-25) —
*欧版#2,蓝色字体封面4曲。* @zW]2 c  
P^ ~yzI  
注:独家整理,转载请注明出处!EAC无损整轨(压缩包内含CD图片) 99e.n0  
8Z8gRcv{p  
解压密码:www.mjsunny.com
C!<Ou6}!b  
r= `Jn6@  
|.: q  
v!~fs)cdE|  
&AeX   
{#vgtgBB  
Exact Audio Copy V1.0 beta 6 from 9. April 2015 NZ:,ph  
o q Xg  
EAC 抓取日志文件从15. 八月 2015, 3:08 EHJ.T~X  
#jvtUS\  
Michael Jackson / They Don't Care About Us iHM%iUV  
JX;<F~{.  
使用驱动器  :MATSHITADVD-RAM UJ890AS   Adapter: 1  ID: 1 /l ~p=PK  
lfow1WRF  
读取模式      : 可靠Secure Z"xvh81P  
使用精确流     : 是 ,]F,Uu_H7  
清空音频缓存    : 否 03X1d-  
使用 C2 指示器 : 是 Naf0)3q>!  
-=Q*Ml#I  
读取偏移校正:               : 0 >1Ibc=}g  
读取 Lead-In 和 Lead-Out : 否 D%pF;XY  
用静音填充抓取中丢失偏移的采样       : 是 l ukB8  
去除首尾静音块               : 否 x=P\qjSa  
在CRC 计算中使用了空样本       : 是 cKI9#t_  
已用接口                  : Win NT 及 2000 本地 Win32 接口 zR:L! S  
<)H9V-5aZ  
所用输出模式: : 内部 WAV 函数 -uG +BraI  
样本格式    : 44.100 Hz; 16 Bit; 立体声 PJ%C N(0  
*w\W/Y  
B~ GbF*j  
已抓取 CD 的 TOC *i%.;Z"  
Xl#ggub?  
     音轨 |    起始    |    长度    |  起始扇区  |  结束扇区   r),kDia  
    -------------------------------------------- .t!x<B  
      1 |  0:00.00 |  4:47.02 |      0 |  21526 2HA:"v8  
      2 |  4:47.02 |  4:09.15 |  21527 |  40216 ^jZbo {  
      3 |  8:56.17 |  4:59.56 |  40217 |  62697 FTUv IbT  
      4 | 13:55.73 |  6:11.25 |  62698 |  90547 oD .Cs'  
      5 | 22:39.23 | 11:40.63 | 101948 | 154510 +a+Om73B2  
dUZ ,m9u  
z Rr*7G  
范围状态及错误 ]{@-HTt  
K w ]=  
已选择范围 Wh*uaad7  
@I?=<Riu  
     文件名 J:\12 Music*音乐\[Single] 1996 They Don't Care About Us (EU#2 - EPC 662950 8) 4 track\CDImage.wav n{mfn *r.  
m;QMQeGz  
     峰值电平 100.0 % E ~<JC"]  
     抓取速度 5.0 X '5$b-x6F  
     范围质量 100.0 % ukyZes8o K  
     复制 CRC B504CE32 x s|FE3:a  
     复制成功 /a4{?? #e  
8{sGNCvU  
没有错误发生 0\P1; ak%  
DB}eA N/  
状态报告结尾
Rima;9.Y0  
h2d(?vOT  
此帖售价 20 金钱,已有 11 人购买 [记录] [购买]
购买后,将显示帖子中所有出售内容。
若发现会员采用欺骗的方法获取财富,请立刻举报,我们会对会员处以2-N倍的罚金,严重者封掉ID!
此段为出售的内容,购买后显示
在线耶稣

发帖
6458
金钱
181072
威望
1800
贡献值
1197
交易币
9628
只看该作者 1楼 发表于: 2015-08-25
谢谢!



在线耶稣

发帖
6458
金钱
181072
威望
1800
贡献值
1197
交易币
9628
只看该作者 2楼 发表于: 2015-08-25
呃⊙_⊙ l;V173W=&  
打开连接显示不存在? NEF# }s2=  
92-I~ !d  



离线mjghosts

发帖
8191
金钱
204337
威望
9035
贡献值
2641
交易币
4550
只看该作者 3楼 发表于: 2015-08-25
回 怪盗基德 的帖子
怪盗基德:呃⊙_⊙ abEmRJTmW  
打开连接显示不存在? '%`:+]!  
[图片] ,?XCyHSgWW  
 (2015-08-25 21:52)  'P}0FktP`  
3yXY.>'  
现在试试看可以吗
在线耶稣

发帖
6458
金钱
181072
威望
1800
贡献值
1197
交易币
9628
只看该作者 4楼 发表于: 2015-08-25
ok了ok了^_^ 8&aq/4:q0  
谢谢!



离线mjghosts

发帖
8191
金钱
204337
威望
9035
贡献值
2641
交易币
4550
只看该作者 5楼 发表于: 2015-08-25
回 怪盗基德 的帖子
怪盗基德:ok了ok了^_^ pD#rnp>WWt  
谢谢! (2015-08-25 22:01)  ;x@~A^<el  
}d}Ke_Q0  
抹了一把汗。。 7Da`   
k{SAvKx=  
之前也考虑过文件名要不要这么赤果果的,就是怕被吞。以后注意。
离线marlene55555

发帖
1161
金钱
34311
威望
293
贡献值
98
交易币
1337
只看该作者 6楼 发表于: 2015-09-11
谢谢了
离线小李

发帖
197
金钱
153
威望
97
贡献值
6
交易币
161
只看该作者 7楼 发表于: 2015-09-11
(EU#2 - EPC 662950 8) - WAV整轨 ♬by幽灵
谢谢,我听听,相爱了跟你楼主不是你
离线Mr灬W

发帖
1146
金钱
13022
威望
152
贡献值
46
交易币
1271
只看该作者 8楼 发表于: 2015-09-21
这个版本好,感谢分享
Heal The World
离线lifan_npl

发帖
2058
金钱
18220
威望
777
贡献值
337
交易币
2411
只看该作者 9楼 发表于: 2015-11-21
下载看看  收藏了
我的淘宝:
http://shop63152617.taobao.com  
快速回复
限100 字节
 
上一个 下一个