论坛风格切换切换到宽版
  • 1412阅读
  • 16回复

[亲传][Single] 1996 They Don't Care About Us (EU#2 - EPC 662950 8) - WAV整轨 ♬by幽灵 [复制链接]

上一主题 下一主题
离线mjghosts
 

发帖
8240
金钱
216247
威望
9172
贡献值
2721
交易币
4743
只看楼主 倒序阅读 楼主  发表于: 2015-08-25
— 本帖被 mjghosts 执行加亮操作(2015-08-25) —
*欧版#2,蓝色字体封面4曲。* !BOY@$Y  
A^y|J ` k|  
注:独家整理,转载请注明出处!EAC无损整轨(压缩包内含CD图片) ~;#Y9>7\\'  
s#)5h0t#du  
解压密码:www.mjsunny.com
cM$P`{QrM  
'~&9D:(  
A.EbXo/  
.MJofE;Jn  
}DK7'K  
F=a<~EpZ  
Exact Audio Copy V1.0 beta 6 from 9. April 2015 N =QfP  
h9Y%{v  
EAC 抓取日志文件从15. 八月 2015, 3:08 viMzR(JU  
JaL%qco  
Michael Jackson / They Don't Care About Us 5yiK+-iTs  
_oUHJ~&,  
使用驱动器  :MATSHITADVD-RAM UJ890AS   Adapter: 1  ID: 1 2U:H545]]  
OI0;BBZ  
读取模式      : 可靠Secure .NvQm]N0.  
使用精确流     : 是 eL\;Nf+Zp  
清空音频缓存    : 否 },>pDeX^P  
使用 C2 指示器 : 是 elG<k%/2  
2GWMlI  
读取偏移校正:               : 0 u#V5?i  
读取 Lead-In 和 Lead-Out : 否 kWe{r5C7  
用静音填充抓取中丢失偏移的采样       : 是 D!.+Y-+Xzu  
去除首尾静音块               : 否 ;3kj2}  
在CRC 计算中使用了空样本       : 是 "ajjJ"x A  
已用接口                  : Win NT 及 2000 本地 Win32 接口 59%tXiO  
1xbK'i:-S  
所用输出模式: : 内部 WAV 函数 :^fcC[$K  
样本格式    : 44.100 Hz; 16 Bit; 立体声 Oer^Rk  
H.W E6  
MUA%^)#u4Q  
已抓取 CD 的 TOC TD9;kN1`  
3` #6ACF  
     音轨 |    起始    |    长度    |  起始扇区  |  结束扇区   <N`J`J-[  
    -------------------------------------------- r 3M1e+'fc  
      1 |  0:00.00 |  4:47.02 |      0 |  21526 c(/VYMJZ&  
      2 |  4:47.02 |  4:09.15 |  21527 |  40216 I"t(%2*q  
      3 |  8:56.17 |  4:59.56 |  40217 |  62697 xEltwuDd?  
      4 | 13:55.73 |  6:11.25 |  62698 |  90547 1Fe^Qb5G  
      5 | 22:39.23 | 11:40.63 | 101948 | 154510 mC z,2K|^~  
YxGcFjJ  
Z Dhx5SL&  
范围状态及错误 '>k{tPi.  
&W6^6=E{g  
已选择范围 m7%C#+67  
%>WbmpIyc  
     文件名 J:\12 Music*音乐\[Single] 1996 They Don't Care About Us (EU#2 - EPC 662950 8) 4 track\CDImage.wav 6S.~s6o,  
=C f(B<u  
     峰值电平 100.0 % m= b~i^@  
     抓取速度 5.0 X x7RdZC  
     范围质量 100.0 % l[/q%Ca'>  
     复制 CRC B504CE32 3D)b*fPc  
     复制成功 K@@9:T$  
4w{-'M.B  
没有错误发生 Isovwd  
9NWloK6bT  
状态报告结尾
7Qh_8M  
<*Y O~S(R  
此帖售价 20 金钱,已有 12 人购买 [记录] [购买]
购买后,将显示帖子中所有出售内容。
若发现会员采用欺骗的方法获取财富,请立刻举报,我们会对会员处以2-N倍的罚金,严重者封掉ID!
此段为出售的内容,购买后显示
离线耶稣

发帖
7120
金钱
265586
威望
2471
贡献值
1638
交易币
11151
只看该作者 1楼 发表于: 2015-08-25
谢谢!


离线耶稣

发帖
7120
金钱
265586
威望
2471
贡献值
1638
交易币
11151
只看该作者 2楼 发表于: 2015-08-25
呃⊙_⊙ 'nt,+`.y6  
打开连接显示不存在? z n8ig/C  
VCRv(Ek  


离线mjghosts

发帖
8240
金钱
216247
威望
9172
贡献值
2721
交易币
4743
只看该作者 3楼 发表于: 2015-08-25
回 怪盗基德 的帖子
怪盗基德:呃⊙_⊙ ~ lS3+H  
打开连接显示不存在? 3e"G.0vJ  
[图片] Y,9("'bo  
 (2015-08-25 21:52)  ?tOzhrv  
5p750`n  
现在试试看可以吗
离线耶稣

发帖
7120
金钱
265586
威望
2471
贡献值
1638
交易币
11151
只看该作者 4楼 发表于: 2015-08-25
ok了ok了^_^ ,qyH B2v  
谢谢!


离线mjghosts

发帖
8240
金钱
216247
威望
9172
贡献值
2721
交易币
4743
只看该作者 5楼 发表于: 2015-08-25
回 怪盗基德 的帖子
怪盗基德:ok了ok了^_^ H"v3?g`S%  
谢谢! (2015-08-25 22:01)  GS),rNBur  
8NY $Iw  
抹了一把汗。。 u$T`Bn  
dQhh,}  
之前也考虑过文件名要不要这么赤果果的,就是怕被吞。以后注意。
离线marlene55555

发帖
1165
金钱
34275
威望
293
贡献值
98
交易币
1341
只看该作者 6楼 发表于: 2015-09-11
谢谢了
离线小李

发帖
232
金钱
230
威望
99
贡献值
8
交易币
204
只看该作者 7楼 发表于: 2015-09-11
(EU#2 - EPC 662950 8) - WAV整轨 ♬by幽灵
谢谢,我听听,相爱了跟你楼主不是你
离线Mr灬W

发帖
1129
金钱
12950
威望
161
贡献值
56
交易币
1282
只看该作者 8楼 发表于: 2015-09-21
这个版本好,感谢分享
Heal The World
离线lifan_npl

发帖
2173
金钱
16819
威望
782
贡献值
347
交易币
2526
只看该作者 9楼 发表于: 2015-11-21
下载看看  收藏了
我的淘宝:
http://shop63152617.taobao.com  
快速回复
限100 字节
 
上一个 下一个