论坛风格切换切换到宽版
  • 817阅读
  • 15回复

[亲传][Single] 1996 They Don't Care About Us (EU#2 - EPC 662950 8) - WAV整轨 ♬by幽灵 [复制链接]

上一主题 下一主题
离线mjghosts
 

发帖
8194
金钱
205215
威望
9035
贡献值
2641
交易币
4553
只看楼主 倒序阅读 楼主  发表于: 2015-08-25
— 本帖被 mjghosts 执行加亮操作(2015-08-25) —
*欧版#2,蓝色字体封面4曲。* $@ #G+QQ_  
0a;F X0S&  
注:独家整理,转载请注明出处!EAC无损整轨(压缩包内含CD图片) c=c.p i"s  
u/{_0-+P  
解压密码:www.mjsunny.com
0O 9 Lg}  
'&L   
Z( clw  
j?` D\LZhf  
|Z)/  
(h(ZL9!  
Exact Audio Copy V1.0 beta 6 from 9. April 2015 %L,,  
7!d<>_oH  
EAC 抓取日志文件从15. 八月 2015, 3:08 <zWQ[^  
%4g4 C#  
Michael Jackson / They Don't Care About Us ;]ZHD$g  
G}OrpPP  
使用驱动器  :MATSHITADVD-RAM UJ890AS   Adapter: 1  ID: 1 Dl!'_u  
D2mAyU -  
读取模式      : 可靠Secure tbt9V2U:"n  
使用精确流     : 是 a\.?{/  
清空音频缓存    : 否 y"n~ET}e7  
使用 C2 指示器 : 是 (Y?yGq/  
2FtEt+A+'  
读取偏移校正:               : 0 D}=i tu  
读取 Lead-In 和 Lead-Out : 否 cF6@.)  
用静音填充抓取中丢失偏移的采样       : 是 l@2`f#y1~<  
去除首尾静音块               : 否 &]A1 _dy  
在CRC 计算中使用了空样本       : 是 +mel0ZStS  
已用接口                  : Win NT 及 2000 本地 Win32 接口 LA(JA  
5_T>HHR 6  
所用输出模式: : 内部 WAV 函数 j7%%/%$o[  
样本格式    : 44.100 Hz; 16 Bit; 立体声 V'#u_`x"D)  
9d|7#)a;  
-&^(T  
已抓取 CD 的 TOC  Z~:lfCK`  
Hw3 ES  
     音轨 |    起始    |    长度    |  起始扇区  |  结束扇区   w9}IM149  
    -------------------------------------------- Ji:@z%osr  
      1 |  0:00.00 |  4:47.02 |      0 |  21526 YS6az0ie  
      2 |  4:47.02 |  4:09.15 |  21527 |  40216 ;^SgV   
      3 |  8:56.17 |  4:59.56 |  40217 |  62697 0To 5|r  
      4 | 13:55.73 |  6:11.25 |  62698 |  90547 bpCe&*\6K  
      5 | 22:39.23 | 11:40.63 | 101948 | 154510 .=<pU k 3G  
u01^ABn  
N>iCb:_ T;  
范围状态及错误 ago t (  
uZI:Kt#  
已选择范围 +OP'/  
O  
     文件名 J:\12 Music*音乐\[Single] 1996 They Don't Care About Us (EU#2 - EPC 662950 8) 4 track\CDImage.wav oMf h|B  
zL}DLfy>R  
     峰值电平 100.0 % &~i &~AJ  
     抓取速度 5.0 X U}TQXYAg  
     范围质量 100.0 % J~6*d,Ry`  
     复制 CRC B504CE32 msJn;(Pn  
     复制成功 G*V 7*KC  
*]u/,wCB  
没有错误发生 SpQ6A]M gm  
lsf?R'1  
状态报告结尾
o*8 pM`uw  
6 d6SP)|j  
此帖售价 20 金钱,已有 11 人购买 [记录] [购买]
购买后,将显示帖子中所有出售内容。
若发现会员采用欺骗的方法获取财富,请立刻举报,我们会对会员处以2-N倍的罚金,严重者封掉ID!
此段为出售的内容,购买后显示
离线耶稣

发帖
6478
金钱
187264
威望
1847
贡献值
1208
交易币
9692
只看该作者 1楼 发表于: 2015-08-25
谢谢!



离线耶稣

发帖
6478
金钱
187264
威望
1847
贡献值
1208
交易币
9692
只看该作者 2楼 发表于: 2015-08-25
呃⊙_⊙ ~ ^K[pA ?  
打开连接显示不存在? mF "ctxE  
-G{}8GM  



离线mjghosts

发帖
8194
金钱
205215
威望
9035
贡献值
2641
交易币
4553
只看该作者 3楼 发表于: 2015-08-25
回 怪盗基德 的帖子
怪盗基德:呃⊙_⊙ uS3J^=>@(a  
打开连接显示不存在? {R\"x|  
[图片] &vo]l~.  
 (2015-08-25 21:52)  dnH?@ K  
a>6!?:Rj  
现在试试看可以吗
离线耶稣

发帖
6478
金钱
187264
威望
1847
贡献值
1208
交易币
9692
只看该作者 4楼 发表于: 2015-08-25
ok了ok了^_^ M5CFW >T  
谢谢!



离线mjghosts

发帖
8194
金钱
205215
威望
9035
贡献值
2641
交易币
4553
只看该作者 5楼 发表于: 2015-08-25
回 怪盗基德 的帖子
怪盗基德:ok了ok了^_^ x1VBO.t=*  
谢谢! (2015-08-25 22:01)  P:,'   
bFD vCF  
抹了一把汗。。 Ta8;   
ek\8u`GC  
之前也考虑过文件名要不要这么赤果果的,就是怕被吞。以后注意。
离线marlene55555

发帖
1161
金钱
34311
威望
293
贡献值
98
交易币
1337
只看该作者 6楼 发表于: 2015-09-11
谢谢了
离线小李

发帖
200
金钱
176
威望
98
贡献值
7
交易币
168
只看该作者 7楼 发表于: 2015-09-11
(EU#2 - EPC 662950 8) - WAV整轨 ♬by幽灵
谢谢,我听听,相爱了跟你楼主不是你
离线Mr灬W

发帖
1147
金钱
12923
威望
151
贡献值
46
交易币
1272
只看该作者 8楼 发表于: 2015-09-21
这个版本好,感谢分享
Heal The World
离线lifan_npl

发帖
2062
金钱
18203
威望
777
贡献值
337
交易币
2415
只看该作者 9楼 发表于: 2015-11-21
下载看看  收藏了
我的淘宝:
http://shop63152617.taobao.com  
快速回复
限100 字节
 
上一个 下一个