论坛风格切换切换到宽版
  • 875阅读
  • 15回复

[亲传][Single] 1996 They Don't Care About Us (EU#2 - EPC 662950 8) - WAV整轨 ♬by幽灵 [复制链接]

上一主题 下一主题
离线mjghosts
 

发帖
8228
金钱
208462
威望
9161
贡献值
2712
交易币
4667
只看楼主 倒序阅读 楼主  发表于: 2015-08-25
— 本帖被 mjghosts 执行加亮操作(2015-08-25) —
*欧版#2,蓝色字体封面4曲。* ?x"<0k1g  
[GX5jD#  
注:独家整理,转载请注明出处!EAC无损整轨(压缩包内含CD图片) `[w:l[i  
(u+3{Eb  
解压密码:www.mjsunny.com
g>A*kY  
M3c-/7  
V)72]p  
$n\{6Rwb  
]1h W/!  
E1IT>_  
Exact Audio Copy V1.0 beta 6 from 9. April 2015 \H^DiF%f9  
m/@ ;N,K  
EAC 抓取日志文件从15. 八月 2015, 3:08 [qbZp1s|(  
D1hy:KkAv]  
Michael Jackson / They Don't Care About Us 1T&NU  
T_iX1blrgh  
使用驱动器  :MATSHITADVD-RAM UJ890AS   Adapter: 1  ID: 1 O0^m_  
6mp8v`b  
读取模式      : 可靠Secure BoJpf8e'-e  
使用精确流     : 是 <pA%|]  
清空音频缓存    : 否 N+lhztYQ?  
使用 C2 指示器 : 是 -gn!8G1  
\/XU v(  
读取偏移校正:               : 0 K<wg-JgA  
读取 Lead-In 和 Lead-Out : 否 ,#Pp_f<  
用静音填充抓取中丢失偏移的采样       : 是 N)X 3pWC8  
去除首尾静音块               : 否 *""iXi[  
在CRC 计算中使用了空样本       : 是 w`GjQIA  
已用接口                  : Win NT 及 2000 本地 Win32 接口 k1'd';gQ  
~%eZQgqA*  
所用输出模式: : 内部 WAV 函数 bg\9Lbjr  
样本格式    : 44.100 Hz; 16 Bit; 立体声 h e=A%s  
3qQ}U}-;|  
5d;(D i5z  
已抓取 CD 的 TOC %!7A" >ai  
N(e>]ui  
     音轨 |    起始    |    长度    |  起始扇区  |  结束扇区   gj7'4 3 ?W  
    -------------------------------------------- 2K^xN]]rG  
      1 |  0:00.00 |  4:47.02 |      0 |  21526 =)#<u9 qqL  
      2 |  4:47.02 |  4:09.15 |  21527 |  40216 wHZ(=z/q  
      3 |  8:56.17 |  4:59.56 |  40217 |  62697 2q UX"a4  
      4 | 13:55.73 |  6:11.25 |  62698 |  90547 j*FpQiBoT  
      5 | 22:39.23 | 11:40.63 | 101948 | 154510 i)/#u+Y1P  
NA YwuE-`  
*l@T 9L[M'  
范围状态及错误 S/yBr`  
ug/P>0  
已选择范围 3!Mb<W.3  
SwO8d;e  
     文件名 J:\12 Music*音乐\[Single] 1996 They Don't Care About Us (EU#2 - EPC 662950 8) 4 track\CDImage.wav S,s") )A1  
h  m(  
     峰值电平 100.0 % V'AZs;  
     抓取速度 5.0 X ?`B6I!S0[  
     范围质量 100.0 % kCKCJ }N  
     复制 CRC B504CE32 /j:-GJb*!u  
     复制成功 Bs-MoT!  
,oj)`?Vh  
没有错误发生 !?m8UE  
iu'rc/=V  
状态报告结尾
d\rs/ee  
D?cE$P  
此帖售价 20 金钱,已有 11 人购买 [记录] [购买]
购买后,将显示帖子中所有出售内容。
若发现会员采用欺骗的方法获取财富,请立刻举报,我们会对会员处以2-N倍的罚金,严重者封掉ID!
此段为出售的内容,购买后显示
在线耶稣

发帖
6548
金钱
196862
威望
2072
贡献值
1356
交易币
9882
只看该作者 1楼 发表于: 2015-08-25
谢谢!



在线耶稣

发帖
6548
金钱
196862
威望
2072
贡献值
1356
交易币
9882
只看该作者 2楼 发表于: 2015-08-25
呃⊙_⊙ d5>&, {o7N  
打开连接显示不存在? GC7WRA  
zG<<MR/<  



离线mjghosts

发帖
8228
金钱
208462
威望
9161
贡献值
2712
交易币
4667
只看该作者 3楼 发表于: 2015-08-25
回 怪盗基德 的帖子
怪盗基德:呃⊙_⊙ ^Pn|Q'{/p  
打开连接显示不存在? \3 SY2g8+  
[图片] @YI{E*?S  
 (2015-08-25 21:52)  ;>J!$B?,  
7Q .Su  
现在试试看可以吗
在线耶稣

发帖
6548
金钱
196862
威望
2072
贡献值
1356
交易币
9882
只看该作者 4楼 发表于: 2015-08-25
ok了ok了^_^ {wS i?;[Gq  
谢谢!



离线mjghosts

发帖
8228
金钱
208462
威望
9161
贡献值
2712
交易币
4667
只看该作者 5楼 发表于: 2015-08-25
回 怪盗基德 的帖子
怪盗基德:ok了ok了^_^ lDBAei3iB  
谢谢! (2015-08-25 22:01)  uPho|hDp  
#6~KO7}  
抹了一把汗。。 |WUM=g7PC  
XD8Cf!  
之前也考虑过文件名要不要这么赤果果的,就是怕被吞。以后注意。
离线marlene55555

发帖
1161
金钱
34311
威望
293
贡献值
98
交易币
1337
只看该作者 6楼 发表于: 2015-09-11
谢谢了
离线小李

发帖
207
金钱
182
威望
98
贡献值
7
交易币
175
只看该作者 7楼 发表于: 2015-09-11
(EU#2 - EPC 662950 8) - WAV整轨 ♬by幽灵
谢谢,我听听,相爱了跟你楼主不是你
离线Mr灬W

发帖
1156
金钱
12831
威望
161
贡献值
56
交易币
1281
只看该作者 8楼 发表于: 2015-09-21
这个版本好,感谢分享
Heal The World
离线lifan_npl

发帖
2076
金钱
18269
威望
787
贡献值
347
交易币
2429
只看该作者 9楼 发表于: 2015-11-21
下载看看  收藏了
我的淘宝:
http://shop63152617.taobao.com  
快速回复
限100 字节
 
上一个 下一个