论坛风格切换切换到宽版
  • 935阅读
  • 15回复

[亲传][Single] 1996 They Don't Care About Us (EU#2 - EPC 662950 8) - WAV整轨 ♬by幽灵 [复制链接]

上一主题 下一主题
离线mjghosts
 

发帖
8235
金钱
209092
威望
9162
贡献值
2713
交易币
4678
只看楼主 倒序阅读 楼主  发表于: 2015-08-25
— 本帖被 mjghosts 执行加亮操作(2015-08-25) —
*欧版#2,蓝色字体封面4曲。* Q=dy<kg']  
K~ EmD9  
注:独家整理,转载请注明出处!EAC无损整轨(压缩包内含CD图片) SZCze"`[  
'}#9)}x!  
解压密码:www.mjsunny.com
< FAheE+  
9-m=*|p  
l}M!8:UzU  
_GPl gp:  
zp?`N;  
MnW+25=N  
Exact Audio Copy V1.0 beta 6 from 9. April 2015 +x}<IS8  
`~q<N  
EAC 抓取日志文件从15. 八月 2015, 3:08 P{^6v=8)  
B4 }bVjs  
Michael Jackson / They Don't Care About Us jmW7)jT8:  
FHI ;)wn=  
使用驱动器  :MATSHITADVD-RAM UJ890AS   Adapter: 1  ID: 1 -d:Jta!}{  
|#N&akC  
读取模式      : 可靠Secure 8, >P  
使用精确流     : 是 <1M-Ro?5k  
清空音频缓存    : 否 9=2$8JN=(l  
使用 C2 指示器 : 是 uY'HT|@:{  
]e@Oiq  
读取偏移校正:               : 0 K@hw.Xq"  
读取 Lead-In 和 Lead-Out : 否 $PHvA6D  
用静音填充抓取中丢失偏移的采样       : 是 hY8reQp1  
去除首尾静音块               : 否 )53y AyP  
在CRC 计算中使用了空样本       : 是 8)I^ t81  
已用接口                  : Win NT 及 2000 本地 Win32 接口 Yg1  X  
6)Lk-D  
所用输出模式: : 内部 WAV 函数 W5MTD]J   
样本格式    : 44.100 Hz; 16 Bit; 立体声 ]OzUGXxo~  
icK/],  
PwLZkr@4^  
已抓取 CD 的 TOC Z?QC!bWb  
Ph> %7M%  
     音轨 |    起始    |    长度    |  起始扇区  |  结束扇区   L;I]OC^J  
    -------------------------------------------- ~/P[J  
      1 |  0:00.00 |  4:47.02 |      0 |  21526 }pu27F)&  
      2 |  4:47.02 |  4:09.15 |  21527 |  40216 g}',(tPMZ  
      3 |  8:56.17 |  4:59.56 |  40217 |  62697 ixD)VcD-f  
      4 | 13:55.73 |  6:11.25 |  62698 |  90547 @s2y~0}#  
      5 | 22:39.23 | 11:40.63 | 101948 | 154510 B`J~^+`[*  
Jg| XH L)  
?.;c$'  
范围状态及错误 [u*5z.^  
k+pr \d~  
已选择范围 ]GQG~ H^  
y_lU=(%Jd  
     文件名 J:\12 Music*音乐\[Single] 1996 They Don't Care About Us (EU#2 - EPC 662950 8) 4 track\CDImage.wav rh}J3S5vp  
AkQ ~k0i}b  
     峰值电平 100.0 % '(|ofJe!  
     抓取速度 5.0 X wDe& 1(T^  
     范围质量 100.0 % q5)O%l!  
     复制 CRC B504CE32 X_\otV h(D  
     复制成功 fS78>*K  
DN57p!z  
没有错误发生 %M|hA#04vZ  
u5f9Jw}  
状态报告结尾
UrEs4R1#  
E#N|w q  
此帖售价 20 金钱,已有 11 人购买 [记录] [购买]
购买后,将显示帖子中所有出售内容。
若发现会员采用欺骗的方法获取财富,请立刻举报,我们会对会员处以2-N倍的罚金,严重者封掉ID!
此段为出售的内容,购买后显示
在线耶稣

发帖
6650
金钱
211639
威望
2163
贡献值
1422
交易币
10196
只看该作者 1楼 发表于: 2015-08-25
谢谢!


在线耶稣

发帖
6650
金钱
211639
威望
2163
贡献值
1422
交易币
10196
只看该作者 2楼 发表于: 2015-08-25
呃⊙_⊙ gD-d29pQ  
打开连接显示不存在? &&5aM  
OZb-:!m*  


离线mjghosts

发帖
8235
金钱
209092
威望
9162
贡献值
2713
交易币
4678
只看该作者 3楼 发表于: 2015-08-25
回 怪盗基德 的帖子
怪盗基德:呃⊙_⊙ ]|#+zx|/D  
打开连接显示不存在? UklUw  
[图片] D2 #ZpFp"h  
 (2015-08-25 21:52)  g%o(+d  
y4yhF8E>;U  
现在试试看可以吗
在线耶稣

发帖
6650
金钱
211639
威望
2163
贡献值
1422
交易币
10196
只看该作者 4楼 发表于: 2015-08-25
ok了ok了^_^ ME$[=?7XX  
谢谢!


离线mjghosts

发帖
8235
金钱
209092
威望
9162
贡献值
2713
交易币
4678
只看该作者 5楼 发表于: 2015-08-25
回 怪盗基德 的帖子
怪盗基德:ok了ok了^_^ LrfVh-}|:Y  
谢谢! (2015-08-25 22:01)  4KAZ ':  
]EbM9Fo-U  
抹了一把汗。。 SGRp3,1\4%  
b6M[q_   
之前也考虑过文件名要不要这么赤果果的,就是怕被吞。以后注意。
离线marlene55555

发帖
1161
金钱
34314
威望
293
贡献值
98
交易币
1337
只看该作者 6楼 发表于: 2015-09-11
谢谢了
离线小李

发帖
211
金钱
177
威望
98
贡献值
7
交易币
179
只看该作者 7楼 发表于: 2015-09-11
(EU#2 - EPC 662950 8) - WAV整轨 ♬by幽灵
谢谢,我听听,相爱了跟你楼主不是你
离线Mr灬W

发帖
1156
金钱
12831
威望
161
贡献值
56
交易币
1281
只看该作者 8楼 发表于: 2015-09-21
这个版本好,感谢分享
Heal The World
离线lifan_npl

发帖
2098
金钱
17955
威望
787
贡献值
347
交易币
2451
只看该作者 9楼 发表于: 2015-11-21
下载看看  收藏了
我的淘宝:
http://shop63152617.taobao.com  
快速回复
限100 字节
 
上一个 下一个