论坛风格切换切换到宽版
  • 2089阅读
  • 29回复

[亲传][Comp] 2003 Number Ones (EU - EPC 513800 2) - WAV整轨 ♬by幽灵 [复制链接]

上一主题 下一主题
离线mjghosts
 

发帖
8240
金钱
216247
威望
9172
贡献值
2721
交易币
4743
只看楼主 倒序阅读 楼主  发表于: 2015-09-22
— 本帖被 mjghosts 执行加亮操作(2015-09-22) —
相关链接:[Comp] 2003 Number Ones (US - EK 88998) - WAV整轨 ♬by幽灵 nJ`JF5tI  
!'No5  
*03年发行的精选,此为抓取的是欧洲首版。且曲目与上回发布的美版有所不同(参照相关链接),完美精确校准抓轨!* U<**Est  
ki#O ^vl  
注:独家整理,转载请注明出处!EAC无损整轨(压缩包内含CD图片) HPAd@5d(  
CE>RAerY  
解压密码:www.mjsunny.com
%Ysu613mz  
(u-i{<   
.}6 YKKqS  
XB-pOtVm  
|<\L B  
o(w1!spA  
Exact Audio Copy V1.0 beta 6 from 9. April 2015 YMwMaU)K,  
59 O;`y0  
EAC 抓取日志文件从22. 九月 2015, 1:30 A0yRA+  
UXoaUW L  
Michael Jackson / Number Ones <wxI>T}b  
a_m P$4T  
使用驱动器  :MATSHITADVD-RAM UJ890AS   Adapter: 1  ID: 1 q"'^W<i  
p-UACMN& c  
读取模式      : 可靠Secure \y{Bnp5h  
使用精确流     : 是 ?C//UN;  
清空音频缓存    : 否 \f1r/e(G|  
使用 C2 指示器 : 是 <)n1Z[4  
c~b[_J)  
读取偏移校正:               : 102 x"K<@mR5G  
读取 Lead-In 和 Lead-Out : 否 SJ^.#^)  
用静音填充抓取中丢失偏移的采样       : 是 !m^;Apuy  
去除首尾静音块               : 否 /$'tO3  
在CRC 计算中使用了空样本       : 是 G$}\~dD  
已用接口                  : Win NT 及 2000 本地 Win32 接口 *4Y1((1k  
{=PO`1H  
所用输出模式: : 内部 WAV 函数 Yw"o_  
样本格式    : 44.100 Hz; 16 Bit; 立体声 Bab`wfUve  
/T]2ZX>  
w&hgJ  
已抓取 CD 的 TOC v{Al>v}}n  
ST5L O#5  
     音轨 |    起始    |    长度    |  起始扇区  |  结束扇区   ^=.R#zrc  
    -------------------------------------------- U<gM gA  
      1 |  0:00.00 |  3:56.17 |      0 |  17716 1PpZ*YK3z  
      2 |  3:56.17 |  3:40.66 |  17717 |  34282 &a5UQ>  
      3 |  7:37.08 |  4:53.40 |  34283 |  56297 |tIr?nXSW3  
      4 | 12:30.48 |  4:18.32 |  56298 |  75679 k\BJs@-  
      5 | 16:49.05 |  5:11.55 |  75680 |  99059 `-fWNHs  
      6 | 22:00.60 |  4:06.31 |  99060 | 117540 m0QE S  
      7 | 26:07.16 |  4:11.72 | 117541 | 136437 "5 ;fuM1  
      8 | 30:19.13 |  4:06.30 | 136438 | 154917 d-c<dS+R  
      9 | 34:25.43 |  4:56.74 | 154918 | 177191 3}aKok"k  
     10 | 39:22.42 |  4:41.09 | 177192 | 198275 'yxN1JF  
     11 | 44:03.51 |  4:17.45 | 198276 | 217595 W*S}^6ZT`  
     12 | 48:21.21 |  3:19.03 | 217596 | 232523 5.ibH  
     13 | 51:40.24 |  4:34.23 | 232524 | 253096 R!i\-C1 S  
     14 | 56:14.47 |  5:01.40 | 253097 | 275711 ]%M&pc3U  
     15 | 61:16.12 |  4:11.65 | 275712 | 294601 i>z_6Gax*[  
     16 | 65:28.02 |  4:26.44 | 294602 | 314595 &!P' M  
     17 | 69:54.46 |  5:29.52 | 314596 | 339322 {zX]4 1T  
     18 | 75:24.23 |  3:49.38 | 339323 | 356535 e!W U  
Emy=q5ryl  
|d$4Fu(M~  
范围状态及错误 vA3wn><  
xX f,j#`"  
已选择范围 :KmnwYm  
6Hbu7r*tm  
     文件名 J:\12 Music*音乐\CDImage.wav X+1Mv  
#M%K82"  
     峰值电平 98.8 % t"zi'9$t  
     抓取速度 7.0 X MyZVx|7 E  
     范围质量 100.0 % SJ91(K  
     复制 CRC CC30F23A (\D E1q  
     复制成功 eT Fep^[  
$*VZa3B\  
没有错误发生 &r.M~k >  
DF_wMv:>^  
Pz34a@%"  
AccurateRip 摘要 n\)1Bz  
'da 'WZG  
音轨  1  精确地校准抓取  192)  [D49D6A36]  (AR v2) e@qH!.g)  
音轨  2  精确地校准抓取  192)  [732B42CD]  (AR v2) 3rB0H   
音轨  3  精确地校准抓取  192)  [1EE2356C]  (AR v2) 5L:-Xr{  
音轨  4  精确地校准抓取  193)  [C58B6848]  (AR v2) b~}$Ch3ymW  
音轨  5  精确地校准抓取  191)  [9498121A]  (AR v2) xI1{Wo*2C}  
音轨  6  精确地校准抓取  193)  [2AFC34D7]  (AR v2) tH)j EY9  
音轨  7  精确地校准抓取  193)  [C878B32F]  (AR v2) Qw:!Rw,x  
音轨  8  精确地校准抓取  192)  [AA214481]  (AR v2) B Z|A&;  
音轨  9  精确地校准抓取  190)  [0B3D1653]  (AR v2) Ac|\~w[\  
音轨 10  精确地校准抓取  190)  [1A92FC6A]  (AR v2) Nw'03Jzx_  
音轨 11  精确地校准抓取  193)  [E313936B]  (AR v2) o(oOB  
音轨 12  精确地校准抓取  194)  [C2792457]  (AR v2) Q}|K29Y:p  
音轨 13  精确地校准抓取  192)  [67DEAF49]  (AR v2) >< $LV&  
音轨 14  精确地校准抓取  192)  [B4B9ADFD]  (AR v2) B6Kl_~gT  
音轨 15  精确地校准抓取  194)  [3FAB3CC5]  (AR v2) T:$^1"\  
音轨 16  精确地校准抓取  191)  [AB6788E5]  (AR v2) )Xjn:  
音轨 17  精确地校准抓取  189)  [381D2743]  (AR v2) w!7ApEH1  
音轨 18  精确地校准抓取  192)  [84C89162]  (AR v2) `y3'v]  
i]%f94  
所有音轨精确校准抓取 v 49o$s4J  
TU0-L35P1  
状态报告结尾
V:kRr cX  
F3}MM dX  
链接:http://pan.baidu.com/s/1eQ0MnFs 密码: a:)FWdp?9  
此帖售价 10 金钱,已有 14 人购买 [记录] [购买]
购买后,将显示帖子中所有出售内容。
若发现会员采用欺骗的方法获取财富,请立刻举报,我们会对会员处以2-N倍的罚金,严重者封掉ID!
此段为出售的内容,购买后显示
离线wannam

发帖
2701
金钱
86995
威望
382
贡献值
189
交易币
3344
只看该作者 1楼 发表于: 2015-09-22
谢谢分享
离线耶稣

发帖
7121
金钱
265591
威望
2471
贡献值
1638
交易币
11152
只看该作者 2楼 发表于: 2015-09-22
支持一下~


离线自作主张

发帖
344
金钱
3054
威望
80
贡献值
43
交易币
441
只看该作者 3楼 发表于: 2015-09-22
太棒了!
离线Mr灬W

发帖
1129
金钱
12950
威望
161
贡献值
56
交易币
1282
只看该作者 4楼 发表于: 2015-09-22
很好很好~感谢分享!
Heal The World
离线Moses

发帖
5059
金钱
37305
威望
2951
贡献值
1521
交易币
2745
只看该作者 5楼 发表于: 2015-09-22
我不觉的美版NO.1S 曲目很炯 最炯的是欧版的必须杰克逊  
http://blog.sina.com.cn/mjjcfc
离线mjghosts

发帖
8240
金钱
216247
威望
9172
贡献值
2721
交易币
4743
只看该作者 6楼 发表于: 2015-09-23
回 Moses 的帖子
Moses:我不觉的美版NO.1S 曲目很炯 最炯的是欧版的必须杰克逊   (2015-09-22 18:21)  ,yH\nqEz  
x4-_K%  
the essential ??
离线zhouquan311

发帖
734
金钱
7771
威望
136
贡献值
66
交易币
974
只看该作者 7楼 发表于: 2015-09-23
支持!
Forever MJ
       我要去减肥,除非冰淇淋,
  
  不再那么贵,三块二毛一,
  
  我也要人陪,除非我有米,
  
  去换红玫瑰,然后送给你,
  
离线Moses

发帖
5059
金钱
37305
威望
2951
贡献值
1521
交易币
2745
只看该作者 8楼 发表于: 2015-09-23
回 mjghosts 的帖子
mjghosts:the essential ?? (2015-09-23 01:38)  x#`p.sfVo  
bW=q G  
是啊 看曲目编排就明白了 必须的我以前的记忆 当时最早的翻译就是必需的杰克逊
http://blog.sina.com.cn/mjjcfc
离线mjghosts

发帖
8240
金钱
216247
威望
9172
贡献值
2721
交易币
4743
只看该作者 9楼 发表于: 2015-09-24
回 Moses 的帖子
Moses:是啊 看曲目编排就明白了 必须的我以前的记忆 当时最早的翻译就是必需的杰克逊  (2015-09-23 20:52)  ,ASNa^7/>  
jR}EBaI}  
这个好像什么版的曲目编排都一样诶。。反正我是不喜欢必需杰克逊这张精选,呵呵。最爱依然是NO.1S
快速回复
限100 字节
 
上一个 下一个