论坛风格切换切换到宽版
  • 1256阅读
  • 27回复

[亲传][Comp] 2003 Number Ones (EU - EPC 513800 2) - WAV整轨 ♬by幽灵 [复制链接]

上一主题 下一主题
离线mjghosts
 

发帖
8193
金钱
205210
威望
9035
贡献值
2641
交易币
4552
只看楼主 倒序阅读 楼主  发表于: 2015-09-22
— 本帖被 mjghosts 执行加亮操作(2015-09-22) —
相关链接:[Comp] 2003 Number Ones (US - EK 88998) - WAV整轨 ♬by幽灵 3(V0,L'1  
({t^/b*8  
*03年发行的精选,此为抓取的是欧洲首版。且曲目与上回发布的美版有所不同(参照相关链接),完美精确校准抓轨!* UVD D)  
JyE-c}I  
注:独家整理,转载请注明出处!EAC无损整轨(压缩包内含CD图片) aJ(/r.1G  
J"AR3b@,$?  
解压密码:www.mjsunny.com
c%pf,sm'  
<7 U~0@<Y  
CHKhJ v3+4  
GO"|^W  
NRtH?&7  
yk4 @@kHW  
Exact Audio Copy V1.0 beta 6 from 9. April 2015 B3ItZojAuw  
8<Iq)A]'Z  
EAC 抓取日志文件从22. 九月 2015, 1:30 I9qZE=i  
Q")Xg:  
Michael Jackson / Number Ones >ZOlSLu  
aNu.4c/5  
使用驱动器  :MATSHITADVD-RAM UJ890AS   Adapter: 1  ID: 1 @)h>vg  
%9>w|%+;U+  
读取模式      : 可靠Secure M5WB.L[@ q  
使用精确流     : 是 phu,&DS!  
清空音频缓存    : 否 ?]D&D:Z?I  
使用 C2 指示器 : 是 P  y v>  
bfA>kn0C  
读取偏移校正:               : 102 l0,VN,$Yl  
读取 Lead-In 和 Lead-Out : 否 U_IGL  
用静音填充抓取中丢失偏移的采样       : 是 MBt\"b#t  
去除首尾静音块               : 否 L /ibnGhq]  
在CRC 计算中使用了空样本       : 是 Cqnuf5e>L  
已用接口                  : Win NT 及 2000 本地 Win32 接口 VrRF2(Kn?  
n{TWdC  
所用输出模式: : 内部 WAV 函数 oH=?1~ e  
样本格式    : 44.100 Hz; 16 Bit; 立体声 *S*49Hq7c  
nBk&+SN  
U 2YY   
已抓取 CD 的 TOC hdw.S`~}%  
F62 uDyY  
     音轨 |    起始    |    长度    |  起始扇区  |  结束扇区   ~b]enG5xS4  
    -------------------------------------------- op`9(=DJ]  
      1 |  0:00.00 |  3:56.17 |      0 |  17716 vU%K%-yXG7  
      2 |  3:56.17 |  3:40.66 |  17717 |  34282 /o4e n  
      3 |  7:37.08 |  4:53.40 |  34283 |  56297 n}a`|Nbk  
      4 | 12:30.48 |  4:18.32 |  56298 |  75679 I^A>YJW  
      5 | 16:49.05 |  5:11.55 |  75680 |  99059 U3&GRY|##  
      6 | 22:00.60 |  4:06.31 |  99060 | 117540 q!Ek EW\n  
      7 | 26:07.16 |  4:11.72 | 117541 | 136437 yP3I^>AZ3  
      8 | 30:19.13 |  4:06.30 | 136438 | 154917 Yd4X*Ua  
      9 | 34:25.43 |  4:56.74 | 154918 | 177191 CsZm8oL$  
     10 | 39:22.42 |  4:41.09 | 177192 | 198275 ;wMu  
     11 | 44:03.51 |  4:17.45 | 198276 | 217595 8i[TeW"  
     12 | 48:21.21 |  3:19.03 | 217596 | 232523 vNjc  
     13 | 51:40.24 |  4:34.23 | 232524 | 253096 c"tlNf?  
     14 | 56:14.47 |  5:01.40 | 253097 | 275711 3}\z&|  
     15 | 61:16.12 |  4:11.65 | 275712 | 294601 ~4+Y BN  
     16 | 65:28.02 |  4:26.44 | 294602 | 314595 8WV5'cX  
     17 | 69:54.46 |  5:29.52 | 314596 | 339322 w` +,  
     18 | 75:24.23 |  3:49.38 | 339323 | 356535 1,=:an  
{v'eP[  
% WDTnEm  
范围状态及错误 W)ug %@)  
1f+A_k/@  
已选择范围 ng+sK  
-Wa<}Tz  
     文件名 J:\12 Music*音乐\CDImage.wav fSd|6iFH  
=b*GV6b  
     峰值电平 98.8 % AQ$)JPs  
     抓取速度 7.0 X \LJ!X3TZ  
     范围质量 100.0 % (5] [L<L  
     复制 CRC CC30F23A sT1k]duT  
     复制成功 HYO/]\al  
lfb+)s  
没有错误发生 Xbmsq,*]  
u:J( 0re  
iC hIW/H  
AccurateRip 摘要 L *\[;.mk  
(&79}IEd  
音轨  1  精确地校准抓取  192)  [D49D6A36]  (AR v2) zf)*W#+  
音轨  2  精确地校准抓取  192)  [732B42CD]  (AR v2) Jq)k5X>&Sj  
音轨  3  精确地校准抓取  192)  [1EE2356C]  (AR v2) 6, j60`f)  
音轨  4  精确地校准抓取  193)  [C58B6848]  (AR v2) (t3gNin  
音轨  5  精确地校准抓取  191)  [9498121A]  (AR v2) 0.+Eo.AX4M  
音轨  6  精确地校准抓取  193)  [2AFC34D7]  (AR v2) <v9IK$J  
音轨  7  精确地校准抓取  193)  [C878B32F]  (AR v2) ~Qif-|[V  
音轨  8  精确地校准抓取  192)  [AA214481]  (AR v2) ?`Z:vqp>Z  
音轨  9  精确地校准抓取  190)  [0B3D1653]  (AR v2) >a*dI_XE  
音轨 10  精确地校准抓取  190)  [1A92FC6A]  (AR v2) Q1*_l  
音轨 11  精确地校准抓取  193)  [E313936B]  (AR v2) #*9 | \  
音轨 12  精确地校准抓取  194)  [C2792457]  (AR v2) ?4wl  
音轨 13  精确地校准抓取  192)  [67DEAF49]  (AR v2) :I"2 2EH  
音轨 14  精确地校准抓取  192)  [B4B9ADFD]  (AR v2) 4/{pz$  
音轨 15  精确地校准抓取  194)  [3FAB3CC5]  (AR v2) {~]5QKg.  
音轨 16  精确地校准抓取  191)  [AB6788E5]  (AR v2) o_=4Ex "  
音轨 17  精确地校准抓取  189)  [381D2743]  (AR v2) ~pH!.|k-&  
音轨 18  精确地校准抓取  192)  [84C89162]  (AR v2) o1\N)%  
88:YU4:l`N  
所有音轨精确校准抓取 zk3\v "  
a5m[ N'kah  
状态报告结尾
kz}Bc F  
#ZPF&u"  
链接:http://pan.baidu.com/s/1eQ0MnFs 密码: vv)O+xt  
此帖售价 10 金钱,已有 12 人购买 [记录] [购买]
购买后,将显示帖子中所有出售内容。
若发现会员采用欺骗的方法获取财富,请立刻举报,我们会对会员处以2-N倍的罚金,严重者封掉ID!
此段为出售的内容,购买后显示
离线wannam

发帖
2582
金钱
75499
威望
363
贡献值
169
交易币
3225
只看该作者 1楼 发表于: 2015-09-22
谢谢分享
离线耶稣

发帖
6478
金钱
187185
威望
1842
贡献值
1208
交易币
9692
只看该作者 2楼 发表于: 2015-09-22
支持一下~



离线自作主张

发帖
335
金钱
2833
威望
78
贡献值
43
交易币
432
只看该作者 3楼 发表于: 2015-09-22
太棒了!
离线Mr灬W

发帖
1147
金钱
12923
威望
151
贡献值
46
交易币
1272
只看该作者 4楼 发表于: 2015-09-22
很好很好~感谢分享!
Heal The World
离线Moses

发帖
5016
金钱
37090
威望
2951
贡献值
1521
交易币
2702
只看该作者 5楼 发表于: 2015-09-22
我不觉的美版NO.1S 曲目很炯 最炯的是欧版的必须杰克逊  
离线mjghosts

发帖
8193
金钱
205210
威望
9035
贡献值
2641
交易币
4552
只看该作者 6楼 发表于: 2015-09-23
回 Moses 的帖子
Moses:我不觉的美版NO.1S 曲目很炯 最炯的是欧版的必须杰克逊   (2015-09-22 18:21)  lF3wTf/j  
NwNjB w%v  
the essential ??
离线zhouquan311

发帖
734
金钱
7691
威望
136
贡献值
66
交易币
974
只看该作者 7楼 发表于: 2015-09-23
支持!
Forever MJ
       我要去减肥,除非冰淇淋,
  
  不再那么贵,三块二毛一,
  
  我也要人陪,除非我有米,
  
  去换红玫瑰,然后送给你,
  
离线Moses

发帖
5016
金钱
37090
威望
2951
贡献值
1521
交易币
2702
只看该作者 8楼 发表于: 2015-09-23
回 mjghosts 的帖子
mjghosts:the essential ?? (2015-09-23 01:38)  {fjBa,o #  
o{QV'dgu  
是啊 看曲目编排就明白了 必须的我以前的记忆 当时最早的翻译就是必需的杰克逊
离线mjghosts

发帖
8193
金钱
205210
威望
9035
贡献值
2641
交易币
4552
只看该作者 9楼 发表于: 2015-09-24
回 Moses 的帖子
Moses:是啊 看曲目编排就明白了 必须的我以前的记忆 当时最早的翻译就是必需的杰克逊  (2015-09-23 20:52)  B&y?Dc  
z`I%3U5(  
这个好像什么版的曲目编排都一样诶。。反正我是不喜欢必需杰克逊这张精选,呵呵。最爱依然是NO.1S
快速回复
限100 字节
 
上一个 下一个