论坛风格切换切换到宽版
  • 1453阅读
  • 27回复

[亲传][Comp] 2003 Number Ones (EU - EPC 513800 2) - WAV整轨 ♬by幽灵 [复制链接]

上一主题 下一主题
离线mjghosts
 

发帖
8233
金钱
208923
威望
9161
贡献值
2712
交易币
4672
只看楼主 倒序阅读 楼主  发表于: 2015-09-22
— 本帖被 mjghosts 执行加亮操作(2015-09-22) —
相关链接:[Comp] 2003 Number Ones (US - EK 88998) - WAV整轨 ♬by幽灵 ^]lwd"$  
N5rG.6K  
*03年发行的精选,此为抓取的是欧洲首版。且曲目与上回发布的美版有所不同(参照相关链接),完美精确校准抓轨!* >&TnTv?I  
y!6:  
注:独家整理,转载请注明出处!EAC无损整轨(压缩包内含CD图片) l;Wy,?p  
rX>y>{w~  
解压密码:www.mjsunny.com
)x:j5{>(  
^3)2]>pW  
4@mXtA  
6[2?m*BsN  
`i)ePiE  
FqUt uN  
Exact Audio Copy V1.0 beta 6 from 9. April 2015 |^k1hX2?W  
//u76nQ  
EAC 抓取日志文件从22. 九月 2015, 1:30 V =aoB Z  
-%V-'X5  
Michael Jackson / Number Ones U8$dG)PhA  
-zLI!F 0  
使用驱动器  :MATSHITADVD-RAM UJ890AS   Adapter: 1  ID: 1 XhD fI &  
2-c0/?_4  
读取模式      : 可靠Secure RrpF i'R  
使用精确流     : 是 jsaCnm>&  
清空音频缓存    : 否 L.:QI<n  
使用 C2 指示器 : 是 "3oU (RA  
^QQ NJ  
读取偏移校正:               : 102 Z:$b)+2:\  
读取 Lead-In 和 Lead-Out : 否 ~%:p_td  
用静音填充抓取中丢失偏移的采样       : 是 xLK0~|_#!  
去除首尾静音块               : 否 >b?)WNk  
在CRC 计算中使用了空样本       : 是 ,4W((OQ^  
已用接口                  : Win NT 及 2000 本地 Win32 接口 ~WXxVm*@  
S)|b%mVwR  
所用输出模式: : 内部 WAV 函数 RAbq_^Q  
样本格式    : 44.100 Hz; 16 Bit; 立体声 n1(X%%2  
R >&/n/l  
i4rF~'h@  
已抓取 CD 的 TOC `3oP^#  
beZ| i 1:  
     音轨 |    起始    |    长度    |  起始扇区  |  结束扇区   Kp8T;&<Iay  
    -------------------------------------------- z5vI0 N$  
      1 |  0:00.00 |  3:56.17 |      0 |  17716 ZhaOH5{9  
      2 |  3:56.17 |  3:40.66 |  17717 |  34282 3k^jR1  
      3 |  7:37.08 |  4:53.40 |  34283 |  56297 }*.*{I  
      4 | 12:30.48 |  4:18.32 |  56298 |  75679 54w-yY  
      5 | 16:49.05 |  5:11.55 |  75680 |  99059 ^&HYnwk  
      6 | 22:00.60 |  4:06.31 |  99060 | 117540 _@2G]JD  
      7 | 26:07.16 |  4:11.72 | 117541 | 136437 ,qB081hPG  
      8 | 30:19.13 |  4:06.30 | 136438 | 154917 =w-H )  
      9 | 34:25.43 |  4:56.74 | 154918 | 177191 q =6 Y2Q  
     10 | 39:22.42 |  4:41.09 | 177192 | 198275 $ 1U%E  
     11 | 44:03.51 |  4:17.45 | 198276 | 217595 ez{&Y>n  
     12 | 48:21.21 |  3:19.03 | 217596 | 232523 {'!~j!1'j  
     13 | 51:40.24 |  4:34.23 | 232524 | 253096 )A%Y wI$  
     14 | 56:14.47 |  5:01.40 | 253097 | 275711 wn`budH?c8  
     15 | 61:16.12 |  4:11.65 | 275712 | 294601 k1J}9HNYR  
     16 | 65:28.02 |  4:26.44 | 294602 | 314595 { SV$fl;  
     17 | 69:54.46 |  5:29.52 | 314596 | 339322  >pKI'  
     18 | 75:24.23 |  3:49.38 | 339323 | 356535 )Pq.kn{Sp  
TL>e[ PBO  
I/g]9 y  
范围状态及错误 2 O%UT?R  
_EP}el  
已选择范围 6%TV X  
tBrVg<]t  
     文件名 J:\12 Music*音乐\CDImage.wav =B 9U  
5s;#C/ZZ  
     峰值电平 98.8 % E%TvGe;#  
     抓取速度 7.0 X &PbH!]yd  
     范围质量 100.0 % 3jeR;N]x  
     复制 CRC CC30F23A Ks4TBi&J   
     复制成功 ?pFHpz   
F)C8LH  
没有错误发生 bz1\EkLL  
#C|iW@  
l 1@:&j3h  
AccurateRip 摘要 Mf?4 `LM  
K~uoZ~_gA  
音轨  1  精确地校准抓取  192)  [D49D6A36]  (AR v2) $lvpBs  
音轨  2  精确地校准抓取  192)  [732B42CD]  (AR v2) kM.zX|_  
音轨  3  精确地校准抓取  192)  [1EE2356C]  (AR v2) *h`zV<j  
音轨  4  精确地校准抓取  193)  [C58B6848]  (AR v2) x k#/J]j  
音轨  5  精确地校准抓取  191)  [9498121A]  (AR v2) {&xKS WNc  
音轨  6  精确地校准抓取  193)  [2AFC34D7]  (AR v2) o_?YYw-:  
音轨  7  精确地校准抓取  193)  [C878B32F]  (AR v2) Y #KgaZ7N  
音轨  8  精确地校准抓取  192)  [AA214481]  (AR v2) ^hU7QxW  
音轨  9  精确地校准抓取  190)  [0B3D1653]  (AR v2) !iMsTH<  
音轨 10  精确地校准抓取  190)  [1A92FC6A]  (AR v2) G"wy?  
音轨 11  精确地校准抓取  193)  [E313936B]  (AR v2) h&&ufF]D  
音轨 12  精确地校准抓取  194)  [C2792457]  (AR v2) :hZYh.y\l  
音轨 13  精确地校准抓取  192)  [67DEAF49]  (AR v2) O",:0<  
音轨 14  精确地校准抓取  192)  [B4B9ADFD]  (AR v2) YeT[KjX  
音轨 15  精确地校准抓取  194)  [3FAB3CC5]  (AR v2) [*@"[u   
音轨 16  精确地校准抓取  191)  [AB6788E5]  (AR v2) c5pF?kFaD  
音轨 17  精确地校准抓取  189)  [381D2743]  (AR v2) Tm qtj  
音轨 18  精确地校准抓取  192)  [84C89162]  (AR v2) p1q"[)WVn^  
}/Pz1,/  
所有音轨精确校准抓取 NZ7g}+GTG  
8A#qbBD  
状态报告结尾
> X<pzD3u  
N[:;f^bH49  
链接:http://pan.baidu.com/s/1eQ0MnFs 密码: qS:hv&~  
此帖售价 10 金钱,已有 12 人购买 [记录] [购买]
购买后,将显示帖子中所有出售内容。
若发现会员采用欺骗的方法获取财富,请立刻举报,我们会对会员处以2-N倍的罚金,严重者封掉ID!
此段为出售的内容,购买后显示
离线wannam

发帖
2680
金钱
86709
威望
382
贡献值
189
交易币
3323
只看该作者 1楼 发表于: 2015-09-22
谢谢分享
在线耶稣

发帖
6590
金钱
202451
威望
2125
贡献值
1384
交易币
10016
只看该作者 2楼 发表于: 2015-09-22
支持一下~



离线自作主张

发帖
335
金钱
2993
威望
78
贡献值
43
交易币
432
只看该作者 3楼 发表于: 2015-09-22
太棒了!
离线Mr灬W

发帖
1156
金钱
12831
威望
161
贡献值
56
交易币
1281
只看该作者 4楼 发表于: 2015-09-22
很好很好~感谢分享!
Heal The World
离线Moses

发帖
5027
金钱
37145
威望
2951
贡献值
1521
交易币
2713
只看该作者 5楼 发表于: 2015-09-22
我不觉的美版NO.1S 曲目很炯 最炯的是欧版的必须杰克逊  
离线mjghosts

发帖
8233
金钱
208923
威望
9161
贡献值
2712
交易币
4672
只看该作者 6楼 发表于: 2015-09-23
回 Moses 的帖子
Moses:我不觉的美版NO.1S 曲目很炯 最炯的是欧版的必须杰克逊   (2015-09-22 18:21)  =6O<1<[y  
*|*6 q/  
the essential ??
离线zhouquan311

发帖
734
金钱
7691
威望
136
贡献值
66
交易币
974
只看该作者 7楼 发表于: 2015-09-23
支持!
Forever MJ
       我要去减肥,除非冰淇淋,
  
  不再那么贵,三块二毛一,
  
  我也要人陪,除非我有米,
  
  去换红玫瑰,然后送给你,
  
离线Moses

发帖
5027
金钱
37145
威望
2951
贡献值
1521
交易币
2713
只看该作者 8楼 发表于: 2015-09-23
回 mjghosts 的帖子
mjghosts:the essential ?? (2015-09-23 01:38)  ]52.nxs~  
@MoBR.  
是啊 看曲目编排就明白了 必须的我以前的记忆 当时最早的翻译就是必需的杰克逊
离线mjghosts

发帖
8233
金钱
208923
威望
9161
贡献值
2712
交易币
4672
只看该作者 9楼 发表于: 2015-09-24
回 Moses 的帖子
Moses:是啊 看曲目编排就明白了 必须的我以前的记忆 当时最早的翻译就是必需的杰克逊  (2015-09-23 20:52)  gjL+8Rk  
Q.MbzSgXL  
这个好像什么版的曲目编排都一样诶。。反正我是不喜欢必需杰克逊这张精选,呵呵。最爱依然是NO.1S
快速回复
限100 字节
 
上一个 下一个