论坛风格切换切换到宽版
  • 1180阅读
  • 25回复

[亲传][Comp] 2003 Number Ones (EU - EPC 513800 2) - WAV整轨 ♬by幽灵 [复制链接]

上一主题 下一主题
离线mjghosts
 

发帖
8191
金钱
204337
威望
9035
贡献值
2641
交易币
4550
只看楼主 倒序阅读 楼主  发表于: 2015-09-22
— 本帖被 mjghosts 执行加亮操作(2015-09-22) —
相关链接:[Comp] 2003 Number Ones (US - EK 88998) - WAV整轨 ♬by幽灵 v (=fV/  
4G@vO {$  
*03年发行的精选,此为抓取的是欧洲首版。且曲目与上回发布的美版有所不同(参照相关链接),完美精确校准抓轨!* Cr4shdN34  
R?>a UFM  
注:独家整理,转载请注明出处!EAC无损整轨(压缩包内含CD图片) 2ADUJ  
FI*.2rdSR  
解压密码:www.mjsunny.com
C\.?3  
aAwnkQ$  
doP4N6   
~0|~Fg  
A,lcR:@w  
fbwo2qe@K  
Exact Audio Copy V1.0 beta 6 from 9. April 2015 (bH"x  
6H VS0  
EAC 抓取日志文件从22. 九月 2015, 1:30 Z=R>7~H  
0d`s(b54;O  
Michael Jackson / Number Ones #TZYe4#f  
{TzKHnP  
使用驱动器  :MATSHITADVD-RAM UJ890AS   Adapter: 1  ID: 1 Y$Js5K@F  
KTBsH;6  
读取模式      : 可靠Secure Nh]eZ3O  
使用精确流     : 是 `8xe2=Ub  
清空音频缓存    : 否 ?*4&Z.~J  
使用 C2 指示器 : 是 }3lM+]pf  
h k(2,z  
读取偏移校正:               : 102 }v0oFY$u`H  
读取 Lead-In 和 Lead-Out : 否 S=krF yFw  
用静音填充抓取中丢失偏移的采样       : 是 WSi Utf|g  
去除首尾静音块               : 否 T9RR. ng  
在CRC 计算中使用了空样本       : 是 ~6kEpa  
已用接口                  : Win NT 及 2000 本地 Win32 接口 GLnj& Ve  
U,[vfSDGr  
所用输出模式: : 内部 WAV 函数 @]Iku6d-  
样本格式    : 44.100 Hz; 16 Bit; 立体声 j@ UIN3  
ud'r ?QDM  
iW-w?!>|m  
已抓取 CD 的 TOC ysGK5kFz  
-?2ThvT  
     音轨 |    起始    |    长度    |  起始扇区  |  结束扇区   oSx]wZZ  
    -------------------------------------------- ;[ pyKh  
      1 |  0:00.00 |  3:56.17 |      0 |  17716 1 q}iUnR  
      2 |  3:56.17 |  3:40.66 |  17717 |  34282 $MfHA~^  
      3 |  7:37.08 |  4:53.40 |  34283 |  56297 G9N6iKP!  
      4 | 12:30.48 |  4:18.32 |  56298 |  75679 c:>&Bg&,6T  
      5 | 16:49.05 |  5:11.55 |  75680 |  99059 Dx4?6  
      6 | 22:00.60 |  4:06.31 |  99060 | 117540 [,8@oM#  
      7 | 26:07.16 |  4:11.72 | 117541 | 136437 zp!{u{  
      8 | 30:19.13 |  4:06.30 | 136438 | 154917 ]6GdB3?UVM  
      9 | 34:25.43 |  4:56.74 | 154918 | 177191 X4Q ?]{  
     10 | 39:22.42 |  4:41.09 | 177192 | 198275 CS:j->  
     11 | 44:03.51 |  4:17.45 | 198276 | 217595 ",w@_}z:  
     12 | 48:21.21 |  3:19.03 | 217596 | 232523  J5*krH2i  
     13 | 51:40.24 |  4:34.23 | 232524 | 253096 sn@gchO9s  
     14 | 56:14.47 |  5:01.40 | 253097 | 275711 *6df|q  
     15 | 61:16.12 |  4:11.65 | 275712 | 294601 #[qmhU{s  
     16 | 65:28.02 |  4:26.44 | 294602 | 314595 pTprU)sa7  
     17 | 69:54.46 |  5:29.52 | 314596 | 339322 Rd&2mL  
     18 | 75:24.23 |  3:49.38 | 339323 | 356535 -iR}kP|  
!)?n n3  
zFN:C()ig  
范围状态及错误 4;<?ec(dc  
Oq7M1|{  
已选择范围 (Dlh;Ic r9  
I+ rHb< P%  
     文件名 J:\12 Music*音乐\CDImage.wav s+#gH@c  
-Ds}kdxw  
     峰值电平 98.8 % }rj.N98  
     抓取速度 7.0 X 3=RVJb  
     范围质量 100.0 % Ur6UE2   
     复制 CRC CC30F23A Oz'x5/%G  
     复制成功 q6bi{L@/R  
r{!]` '8  
没有错误发生 t3|If@T  
5=WzKM  
Se.\wkl#Y  
AccurateRip 摘要 P"Lk(gY  
9utiev~3  
音轨  1  精确地校准抓取  192)  [D49D6A36]  (AR v2) Y,w'Op  
音轨  2  精确地校准抓取  192)  [732B42CD]  (AR v2) PIR#M('  
音轨  3  精确地校准抓取  192)  [1EE2356C]  (AR v2)  s6bILz-u  
音轨  4  精确地校准抓取  193)  [C58B6848]  (AR v2) 0{^@kxV  
音轨  5  精确地校准抓取  191)  [9498121A]  (AR v2) UCG8=+t5T  
音轨  6  精确地校准抓取  193)  [2AFC34D7]  (AR v2) 4[m})X2(  
音轨  7  精确地校准抓取  193)  [C878B32F]  (AR v2) {; #u~e(W  
音轨  8  精确地校准抓取  192)  [AA214481]  (AR v2) !m"LIa#/Cs  
音轨  9  精确地校准抓取  190)  [0B3D1653]  (AR v2) K&Ner(/X`6  
音轨 10  精确地校准抓取  190)  [1A92FC6A]  (AR v2) cyrVz4_a  
音轨 11  精确地校准抓取  193)  [E313936B]  (AR v2) ]L+YnZ?6  
音轨 12  精确地校准抓取  194)  [C2792457]  (AR v2) &|yQwNA*a"  
音轨 13  精确地校准抓取  192)  [67DEAF49]  (AR v2) zmH8^:-x  
音轨 14  精确地校准抓取  192)  [B4B9ADFD]  (AR v2) cq lA"Eof  
音轨 15  精确地校准抓取  194)  [3FAB3CC5]  (AR v2) ,)/gy)~#  
音轨 16  精确地校准抓取  191)  [AB6788E5]  (AR v2) 5&?[ Vt  
音轨 17  精确地校准抓取  189)  [381D2743]  (AR v2) j5Kw0Wy7  
音轨 18  精确地校准抓取  192)  [84C89162]  (AR v2) Geyy!sr``  
I><B6pIR  
所有音轨精确校准抓取 MDV<[${   
-#<6  
状态报告结尾
ffoL]u\  
~o{GQ>  
链接:http://pan.baidu.com/s/1eQ0MnFs 密码: 5Ku=Xzvq  
此帖售价 10 金钱,已有 10 人购买 [记录] [购买]
购买后,将显示帖子中所有出售内容。
若发现会员采用欺骗的方法获取财富,请立刻举报,我们会对会员处以2-N倍的罚金,严重者封掉ID!
此段为出售的内容,购买后显示
离线wannam

发帖
2547
金钱
69379
威望
363
贡献值
169
交易币
3190
只看该作者 1楼 发表于: 2015-09-22
谢谢分享
在线耶稣

发帖
6459
金钱
181018
威望
1800
贡献值
1197
交易币
9629
只看该作者 2楼 发表于: 2015-09-22
支持一下~



离线自作主张

发帖
334
金钱
2793
威望
78
贡献值
43
交易币
431
只看该作者 3楼 发表于: 2015-09-22
太棒了!
离线Mr灬W

发帖
1146
金钱
13022
威望
151
贡献值
46
交易币
1271
只看该作者 4楼 发表于: 2015-09-22
很好很好~感谢分享!
Heal The World
离线Moses

发帖
5016
金钱
37090
威望
2951
贡献值
1521
交易币
2702
只看该作者 5楼 发表于: 2015-09-22
我不觉的美版NO.1S 曲目很炯 最炯的是欧版的必须杰克逊  
离线mjghosts

发帖
8191
金钱
204337
威望
9035
贡献值
2641
交易币
4550
只看该作者 6楼 发表于: 2015-09-23
回 Moses 的帖子
Moses:我不觉的美版NO.1S 曲目很炯 最炯的是欧版的必须杰克逊   (2015-09-22 18:21)  6AAvsu:  
V@`b7GM  
the essential ??
离线zhouquan311

发帖
734
金钱
7683
威望
136
贡献值
66
交易币
974
只看该作者 7楼 发表于: 2015-09-23
支持!
Forever MJ
       我要去减肥,除非冰淇淋,
  
  不再那么贵,三块二毛一,
  
  我也要人陪,除非我有米,
  
  去换红玫瑰,然后送给你,
  
离线Moses

发帖
5016
金钱
37090
威望
2951
贡献值
1521
交易币
2702
只看该作者 8楼 发表于: 2015-09-23
回 mjghosts 的帖子
mjghosts:the essential ?? (2015-09-23 01:38)  ^l(,'>Cn  
pOy(XUV9O  
是啊 看曲目编排就明白了 必须的我以前的记忆 当时最早的翻译就是必需的杰克逊
离线mjghosts

发帖
8191
金钱
204337
威望
9035
贡献值
2641
交易币
4550
只看该作者 9楼 发表于: 2015-09-24
回 Moses 的帖子
Moses:是啊 看曲目编排就明白了 必须的我以前的记忆 当时最早的翻译就是必需的杰克逊  (2015-09-23 20:52)  0c#|LF_  
jAFJ?L(  
这个好像什么版的曲目编排都一样诶。。反正我是不喜欢必需杰克逊这张精选,呵呵。最爱依然是NO.1S
快速回复
限100 字节
 
上一个 下一个