论坛风格切换切换到宽版
  • 1333阅读
  • 27回复

[亲传][Comp] 2003 Number Ones (EU - EPC 513800 2) - WAV整轨 ♬by幽灵 [复制链接]

上一主题 下一主题
离线mjghosts
 

发帖
8195
金钱
205476
威望
9035
贡献值
2641
交易币
4554
只看楼主 倒序阅读 楼主  发表于: 2015-09-22
— 本帖被 mjghosts 执行加亮操作(2015-09-22) —
相关链接:[Comp] 2003 Number Ones (US - EK 88998) - WAV整轨 ♬by幽灵 N[I@}j  
3B1\-ry1M  
*03年发行的精选,此为抓取的是欧洲首版。且曲目与上回发布的美版有所不同(参照相关链接),完美精确校准抓轨!* hd)Jq'MCS  
%B%_[<B  
注:独家整理,转载请注明出处!EAC无损整轨(压缩包内含CD图片) "V|Rq]_+%  
$plk>Khg  
解压密码:www.mjsunny.com
hi8q?4jE  
Af|h*V4Xu  
8+'}`  
8~'cP?  
J}V4.R5d  
)M8d\]  
Exact Audio Copy V1.0 beta 6 from 9. April 2015 .}dLqw  
Oc)n,D)0  
EAC 抓取日志文件从22. 九月 2015, 1:30 $xu2ZBK  
01n!T2;yW}  
Michael Jackson / Number Ones WA n@8!9  
Jk.x^  
使用驱动器  :MATSHITADVD-RAM UJ890AS   Adapter: 1  ID: 1 YdI6 |o@vc  
}w f8y  
读取模式      : 可靠Secure P}6#s'07~  
使用精确流     : 是 |1wZ`wGZ:L  
清空音频缓存    : 否 Q}&'1J  
使用 C2 指示器 : 是 " lD -*e4  
^ iu)vED  
读取偏移校正:               : 102 >(:3H+  
读取 Lead-In 和 Lead-Out : 否 7:~3B-Tb  
用静音填充抓取中丢失偏移的采样       : 是 []OS p&  
去除首尾静音块               : 否 &'\-M6GW  
在CRC 计算中使用了空样本       : 是 c'$y_]  
已用接口                  : Win NT 及 2000 本地 Win32 接口 b?k,_; \  
L{sFR^-G  
所用输出模式: : 内部 WAV 函数 &*Z)[Bl  
样本格式    : 44.100 Hz; 16 Bit; 立体声 B4OFhtYE  
m%U=:u7#M  
&w_8E+Y Z  
已抓取 CD 的 TOC M7DoAS{6e  
_Wp, z`  
     音轨 |    起始    |    长度    |  起始扇区  |  结束扇区   <Rt0 V%}-  
    -------------------------------------------- 'mU\X!- 4<  
      1 |  0:00.00 |  3:56.17 |      0 |  17716 B(@uJ^N  
      2 |  3:56.17 |  3:40.66 |  17717 |  34282 o hPXwp?]  
      3 |  7:37.08 |  4:53.40 |  34283 |  56297 &I(3/u  
      4 | 12:30.48 |  4:18.32 |  56298 |  75679 AQ-R^kT  
      5 | 16:49.05 |  5:11.55 |  75680 |  99059 c5Hm94, p  
      6 | 22:00.60 |  4:06.31 |  99060 | 117540 L{1PCs36c  
      7 | 26:07.16 |  4:11.72 | 117541 | 136437 S#D6mg$Z,  
      8 | 30:19.13 |  4:06.30 | 136438 | 154917 ~ Q;qRx  
      9 | 34:25.43 |  4:56.74 | 154918 | 177191 z!9w Lo^r  
     10 | 39:22.42 |  4:41.09 | 177192 | 198275 vB/G#\Zqz  
     11 | 44:03.51 |  4:17.45 | 198276 | 217595 [tz}H&  
     12 | 48:21.21 |  3:19.03 | 217596 | 232523 Pu|3_3^  
     13 | 51:40.24 |  4:34.23 | 232524 | 253096 y[:xGf]8@  
     14 | 56:14.47 |  5:01.40 | 253097 | 275711 FAd4p9[Y  
     15 | 61:16.12 |  4:11.65 | 275712 | 294601 #ANbhHG  
     16 | 65:28.02 |  4:26.44 | 294602 | 314595 ]EPFyVt~3  
     17 | 69:54.46 |  5:29.52 | 314596 | 339322 Sy`7})[  
     18 | 75:24.23 |  3:49.38 | 339323 | 356535 UgZuEfEGve  
1$ C\ `  
.:=G=v=1  
范围状态及错误 P+nd?:cz  
S4FR=QuVQC  
已选择范围 s xp>9&  
+:?"P<'  
     文件名 J:\12 Music*音乐\CDImage.wav Zw<\^1  
iy\ 6e k1  
     峰值电平 98.8 % HSsG0&'-Y  
     抓取速度 7.0 X 7dbGUbT  
     范围质量 100.0 % {N2MskK  
     复制 CRC CC30F23A 2=/,9ka~  
     复制成功 7uW=fkxT  
l" P3lKS  
没有错误发生 (764-iv(  
Cl>{vS N  
!xxdC  
AccurateRip 摘要 ]u<8j r  
3F ]30  
音轨  1  精确地校准抓取  192)  [D49D6A36]  (AR v2) f~?4  
音轨  2  精确地校准抓取  192)  [732B42CD]  (AR v2) fDD^?/^  
音轨  3  精确地校准抓取  192)  [1EE2356C]  (AR v2) *mtS\J  
音轨  4  精确地校准抓取  193)  [C58B6848]  (AR v2) '}BYMEd/m%  
音轨  5  精确地校准抓取  191)  [9498121A]  (AR v2) ;*[ oi  
音轨  6  精确地校准抓取  193)  [2AFC34D7]  (AR v2) Or<OmxJg  
音轨  7  精确地校准抓取  193)  [C878B32F]  (AR v2) f{+n$ Cos  
音轨  8  精确地校准抓取  192)  [AA214481]  (AR v2) ZBsV  
音轨  9  精确地校准抓取  190)  [0B3D1653]  (AR v2) !&#5 *  
音轨 10  精确地校准抓取  190)  [1A92FC6A]  (AR v2) h;DLD8L  
音轨 11  精确地校准抓取  193)  [E313936B]  (AR v2) &MJ cLM]  
音轨 12  精确地校准抓取  194)  [C2792457]  (AR v2) zTS P8Q7  
音轨 13  精确地校准抓取  192)  [67DEAF49]  (AR v2) p,K!'\  
音轨 14  精确地校准抓取  192)  [B4B9ADFD]  (AR v2) n@_aTY  
音轨 15  精确地校准抓取  194)  [3FAB3CC5]  (AR v2) ,%d?gi"&  
音轨 16  精确地校准抓取  191)  [AB6788E5]  (AR v2) 5fY7[{ 2  
音轨 17  精确地校准抓取  189)  [381D2743]  (AR v2) jUGk=/*]e  
音轨 18  精确地校准抓取  192)  [84C89162]  (AR v2) `EWQ>m+  
 RxO !h8  
所有音轨精确校准抓取 p(fL' J  
=-E%vnU  
状态报告结尾
@M!nAQ8hY  
o:PdPuZVR  
链接:http://pan.baidu.com/s/1eQ0MnFs 密码: l5FKw;=K}:  
此帖售价 10 金钱,已有 12 人购买 [记录] [购买]
购买后,将显示帖子中所有出售内容。
若发现会员采用欺骗的方法获取财富,请立刻举报,我们会对会员处以2-N倍的罚金,严重者封掉ID!
此段为出售的内容,购买后显示
离线wannam

发帖
2606
金钱
80603
威望
363
贡献值
169
交易币
3249
只看该作者 1楼 发表于: 2015-09-22
谢谢分享
离线耶稣

发帖
6493
金钱
192557
威望
1868
贡献值
1219
交易币
9751
只看该作者 2楼 发表于: 2015-09-22
支持一下~



离线自作主张

发帖
335
金钱
2932
威望
78
贡献值
43
交易币
432
只看该作者 3楼 发表于: 2015-09-22
太棒了!
离线Mr灬W

发帖
1148
金钱
12944
威望
151
贡献值
46
交易币
1273
只看该作者 4楼 发表于: 2015-09-22
很好很好~感谢分享!
Heal The World
离线Moses

发帖
5016
金钱
37090
威望
2951
贡献值
1521
交易币
2702
只看该作者 5楼 发表于: 2015-09-22
我不觉的美版NO.1S 曲目很炯 最炯的是欧版的必须杰克逊  
离线mjghosts

发帖
8195
金钱
205476
威望
9035
贡献值
2641
交易币
4554
只看该作者 6楼 发表于: 2015-09-23
回 Moses 的帖子
Moses:我不觉的美版NO.1S 曲目很炯 最炯的是欧版的必须杰克逊   (2015-09-22 18:21)  q}p$S2`  
3.Mpd  
the essential ??
离线zhouquan311

发帖
734
金钱
7691
威望
136
贡献值
66
交易币
974
只看该作者 7楼 发表于: 2015-09-23
支持!
Forever MJ
       我要去减肥,除非冰淇淋,
  
  不再那么贵,三块二毛一,
  
  我也要人陪,除非我有米,
  
  去换红玫瑰,然后送给你,
  
离线Moses

发帖
5016
金钱
37090
威望
2951
贡献值
1521
交易币
2702
只看该作者 8楼 发表于: 2015-09-23
回 mjghosts 的帖子
mjghosts:the essential ?? (2015-09-23 01:38)  $;@^coz9U  
\P^WUWY  
是啊 看曲目编排就明白了 必须的我以前的记忆 当时最早的翻译就是必需的杰克逊
离线mjghosts

发帖
8195
金钱
205476
威望
9035
贡献值
2641
交易币
4554
只看该作者 9楼 发表于: 2015-09-24
回 Moses 的帖子
Moses:是啊 看曲目编排就明白了 必须的我以前的记忆 当时最早的翻译就是必需的杰克逊  (2015-09-23 20:52)  9S 'u 1%  
UY>[  
这个好像什么版的曲目编排都一样诶。。反正我是不喜欢必需杰克逊这张精选,呵呵。最爱依然是NO.1S
快速回复
限100 字节
 
上一个 下一个