论坛风格切换切换到宽版
  • 1738阅读
  • 27回复

[亲传][Comp] 2003 Number Ones (EU - EPC 513800 2) - WAV整轨 ♬by幽灵 [复制链接]

上一主题 下一主题
离线mjghosts
 

发帖
8258
金钱
212473
威望
9166
贡献值
2715
交易币
4709
只看楼主 倒序阅读 楼主  发表于: 2015-09-22
— 本帖被 mjghosts 执行加亮操作(2015-09-22) —
相关链接:[Comp] 2003 Number Ones (US - EK 88998) - WAV整轨 ♬by幽灵 sv?Fx;d  
>h)kbsSU0z  
*03年发行的精选,此为抓取的是欧洲首版。且曲目与上回发布的美版有所不同(参照相关链接),完美精确校准抓轨!* 8-NycG&)  
A5J41yH  
注:独家整理,转载请注明出处!EAC无损整轨(压缩包内含CD图片) +^+'.xQ  
\OtreYi  
解压密码:www.mjsunny.com
p|.5;)%|  
-yBKA]"<I  
Lm~<BBp.  
n}.e(z_"  
9>w~B|/  
cyJ{AS+  
Exact Audio Copy V1.0 beta 6 from 9. April 2015 ZI!:  
aE5-b ub c  
EAC 抓取日志文件从22. 九月 2015, 1:30 p?y2j  
 Fb(@i  
Michael Jackson / Number Ones o@zxzZWg  
lf7bx}P*  
使用驱动器  :MATSHITADVD-RAM UJ890AS   Adapter: 1  ID: 1 U<w8jVE  
>n09K8 A  
读取模式      : 可靠Secure C12UZE;  
使用精确流     : 是 JLE&nbKS  
清空音频缓存    : 否 VhkM{O  
使用 C2 指示器 : 是 QgqJ #  
UUV5uDe>i  
读取偏移校正:               : 102 O%T?+1E  
读取 Lead-In 和 Lead-Out : 否 %1Q:{m  
用静音填充抓取中丢失偏移的采样       : 是 ;-Yvi,sS+  
去除首尾静音块               : 否 'Bue*  
在CRC 计算中使用了空样本       : 是 B"&-) (  
已用接口                  : Win NT 及 2000 本地 Win32 接口 ^+P.f[  
7\ _MA!:<  
所用输出模式: : 内部 WAV 函数 g5nJ0=9  
样本格式    : 44.100 Hz; 16 Bit; 立体声 MI `qzC*%  
inGUN??  
}%u #TwZ  
已抓取 CD 的 TOC R 0RxcB tG  
 V;%ug'j  
     音轨 |    起始    |    长度    |  起始扇区  |  结束扇区   w,p'$WC*  
    -------------------------------------------- ef`_ n+`  
      1 |  0:00.00 |  3:56.17 |      0 |  17716 V?M (exN  
      2 |  3:56.17 |  3:40.66 |  17717 |  34282 E2dM0r<]  
      3 |  7:37.08 |  4:53.40 |  34283 |  56297 x4* bhiu  
      4 | 12:30.48 |  4:18.32 |  56298 |  75679 OIPY,cj~  
      5 | 16:49.05 |  5:11.55 |  75680 |  99059 WML--<dU  
      6 | 22:00.60 |  4:06.31 |  99060 | 117540 xh2r?K@k>  
      7 | 26:07.16 |  4:11.72 | 117541 | 136437 hWy@?r.  
      8 | 30:19.13 |  4:06.30 | 136438 | 154917 N6._J b  
      9 | 34:25.43 |  4:56.74 | 154918 | 177191 /wLBmh1"  
     10 | 39:22.42 |  4:41.09 | 177192 | 198275 |`o|;A]  
     11 | 44:03.51 |  4:17.45 | 198276 | 217595 gML8lu0)  
     12 | 48:21.21 |  3:19.03 | 217596 | 232523 ~P'.R.e  
     13 | 51:40.24 |  4:34.23 | 232524 | 253096 'V?FeWp  
     14 | 56:14.47 |  5:01.40 | 253097 | 275711 6Hnez@d  
     15 | 61:16.12 |  4:11.65 | 275712 | 294601 W4o8]&A  
     16 | 65:28.02 |  4:26.44 | 294602 | 314595 <G}Lc  
     17 | 69:54.46 |  5:29.52 | 314596 | 339322 66& uK|  
     18 | 75:24.23 |  3:49.38 | 339323 | 356535 DP @1to@  
`TPIc  
(?Mn_FNE|  
范围状态及错误 q=W.82.U  
ZR\N~.  
已选择范围 D\_nqx9O  
`D(V_WZ  
     文件名 J:\12 Music*音乐\CDImage.wav :k_&Zd j,B  
F\r"Y)|b=  
     峰值电平 98.8 % (e'8>Pv  
     抓取速度 7.0 X #HgN wM  
     范围质量 100.0 % }W'j Dz7O  
     复制 CRC CC30F23A Q!q6R^5!K  
     复制成功 %w^*7Oi  
}OEL] 5  
没有错误发生 [@9S-$Xa  
W7n^]~V  
Q &W>h/  
AccurateRip 摘要 kS_#8 I  
AM=,:k$  
音轨  1  精确地校准抓取  192)  [D49D6A36]  (AR v2) %!t9)pNc  
音轨  2  精确地校准抓取  192)  [732B42CD]  (AR v2) /lR*ab  
音轨  3  精确地校准抓取  192)  [1EE2356C]  (AR v2) JL G!;sov  
音轨  4  精确地校准抓取  193)  [C58B6848]  (AR v2) 60|PVsmDm  
音轨  5  精确地校准抓取  191)  [9498121A]  (AR v2) $B?8\>_?  
音轨  6  精确地校准抓取  193)  [2AFC34D7]  (AR v2) _LZ(HTX~  
音轨  7  精确地校准抓取  193)  [C878B32F]  (AR v2) ^Lb\k|U ,\  
音轨  8  精确地校准抓取  192)  [AA214481]  (AR v2) 47(_5PFb#  
音轨  9  精确地校准抓取  190)  [0B3D1653]  (AR v2) :q3w;B~  
音轨 10  精确地校准抓取  190)  [1A92FC6A]  (AR v2) .WKJ37od  
音轨 11  精确地校准抓取  193)  [E313936B]  (AR v2) Q&PWW#D  
音轨 12  精确地校准抓取  194)  [C2792457]  (AR v2) \mLEwNhRY  
音轨 13  精确地校准抓取  192)  [67DEAF49]  (AR v2) vTFG*\Cq  
音轨 14  精确地校准抓取  192)  [B4B9ADFD]  (AR v2) hzk!H]>E  
音轨 15  精确地校准抓取  194)  [3FAB3CC5]  (AR v2) @7"n X  
音轨 16  精确地校准抓取  191)  [AB6788E5]  (AR v2) | eCVq(R  
音轨 17  精确地校准抓取  189)  [381D2743]  (AR v2) c;/vzIJj  
音轨 18  精确地校准抓取  192)  [84C89162]  (AR v2) m4h)Wq  
JE{ cZ<NNH  
所有音轨精确校准抓取 KsTGae;ds  
,F->*=  
状态报告结尾
|1 qrU(  
{?^ES*5  
链接:http://pan.baidu.com/s/1eQ0MnFs 密码: xe6V7Wi/Tt  
此帖售价 10 金钱,已有 12 人购买 [记录] [购买]
购买后,将显示帖子中所有出售内容。
若发现会员采用欺骗的方法获取财富,请立刻举报,我们会对会员处以2-N倍的罚金,严重者封掉ID!
此段为出售的内容,购买后显示
离线wannam

发帖
2698
金钱
86901
威望
382
贡献值
189
交易币
3341
只看该作者 1楼 发表于: 2015-09-22
谢谢分享
离线耶稣

发帖
7064
金钱
246450
威望
2438
贡献值
1612
交易币
11003
只看该作者 2楼 发表于: 2015-09-22
支持一下~




离线自作主张

发帖
340
金钱
3144
威望
80
贡献值
43
交易币
437
只看该作者 3楼 发表于: 2015-09-22
太棒了!
离线Mr灬W

发帖
1129
金钱
12894
威望
161
贡献值
56
交易币
1282
只看该作者 4楼 发表于: 2015-09-22
很好很好~感谢分享!
Heal The World
离线Moses

发帖
5057
金钱
37295
威望
2951
贡献值
1521
交易币
2743
只看该作者 5楼 发表于: 2015-09-22
我不觉的美版NO.1S 曲目很炯 最炯的是欧版的必须杰克逊  
http://blog.sina.com.cn/mjjcfc
离线mjghosts

发帖
8258
金钱
212473
威望
9166
贡献值
2715
交易币
4709
只看该作者 6楼 发表于: 2015-09-23
回 Moses 的帖子
Moses:我不觉的美版NO.1S 曲目很炯 最炯的是欧版的必须杰克逊   (2015-09-22 18:21)  OOSf<I*>  
?l9sj]^w  
the essential ??
离线zhouquan311

发帖
734
金钱
7721
威望
136
贡献值
66
交易币
974
只看该作者 7楼 发表于: 2015-09-23
支持!
Forever MJ
       我要去减肥,除非冰淇淋,
  
  不再那么贵,三块二毛一,
  
  我也要人陪,除非我有米,
  
  去换红玫瑰,然后送给你,
  
离线Moses

发帖
5057
金钱
37295
威望
2951
贡献值
1521
交易币
2743
只看该作者 8楼 发表于: 2015-09-23
回 mjghosts 的帖子
mjghosts:the essential ?? (2015-09-23 01:38)  xe|o( !(  
(H<S&5[  
是啊 看曲目编排就明白了 必须的我以前的记忆 当时最早的翻译就是必需的杰克逊
http://blog.sina.com.cn/mjjcfc
离线mjghosts

发帖
8258
金钱
212473
威望
9166
贡献值
2715
交易币
4709
只看该作者 9楼 发表于: 2015-09-24
回 Moses 的帖子
Moses:是啊 看曲目编排就明白了 必须的我以前的记忆 当时最早的翻译就是必需的杰克逊  (2015-09-23 20:52)  !qsk;Vk7Z  
G=W!$(:  
这个好像什么版的曲目编排都一样诶。。反正我是不喜欢必需杰克逊这张精选,呵呵。最爱依然是NO.1S
快速回复
限100 字节
 
上一个 下一个