论坛风格切换切换到宽版
  • 1410阅读
  • 25回复

[亲传][Album] 1987 BAD [2nd Version] (US - EK 40600) - WAV整轨 ♬by幽灵 [复制链接]

上一主题 下一主题
离线mjghosts
 

发帖
8235
金钱
209049
威望
9162
贡献值
2713
交易币
4678
只看楼主 倒序阅读 楼主  发表于: 2015-10-01
— 本帖被 mjghosts 执行加亮操作(2015-10-01) —
*本次发布的版本是CBS早期再版,抓取的CD为美版(提供的封面封底图为LZ实物拍摄、裁剪,水准一般般,只为大家更清楚抓轨用的版本而不用网络上的图片。),全碟数据精确校准无错误完美抓取。 hOdU%  
3 "Qg"\  
《BAD》专辑,在2001年数码修复版(俗称加歌版)之前,内容有异的版本共三个: n+vv %  
第一版(1987):http://www.mjsunny.com/read.php?tid=63992 Dx9k%G)!  
第二版(1988-1992):也就是本帖发布的版本,与上一版的区别主要在于一下几点【谢谢肯尼提供相关资料】: 2Z`Jr/  
·Bad鼓点改了一点,2分53秒的混音取消了 ``rYzj_  
·The Way You Make Me Feel去掉了第二段副歌后的响指,结尾加了一大段歌词 .n?i' 8  
·Dirty Diana鼓点变了,结尾很轻的合唱去掉了 k#p6QA hS  
·Smooth Criminal 伴奏细节有微细差异 G('UF1F  
·I Just Can't Stop Loving You去掉了独白 (所以封底上的曲目长度是错误的,实际时长约4分12秒左右) #!r>3W&  
·Man In The Mirror去掉了即兴部分的小小瑕疵 $?pfst~;O  
==== i&)OJy  
最后我补充一句,第二版与第一版一样,音量较小。
C7&L9k~jf  
第三版(1992-1995):http://www.mjsunny.com/read.php?tid=64049 LftGA7uGJ)  
?|n@ %'  
目前,所有早期版本的《BAD》已经全部发布,希望大家多多支持,收藏不易,整理不易,上传不易,日后会继续给大家分享更多音频资源。
(>*L-&-  
T?7++mcA  
注:独家整理,转载请注明出处!EAC无损整轨(压缩包内含CD图片) veS) j?4  
M L7vP  
解压密码:www.mjsunny.com
IPt !gSp  
Z55C4F5v  
<." @H<-`*  
ZCNO_g  
#+|0o-  
Exact Audio Copy V1.0 beta 6 from 9. April 2015 caV DV  
isFxo,R9r  
EAC 抓取日志文件从30. 九月 2015, 10:54 U+!&~C^y  
pfFHuS~  
Michael Jackson / Bad D?4bp'0 3  
0: B%,n UM  
使用驱动器  :MATSHITADVD-RAM UJ890AS   Adapter: 1  ID: 1 CW]Th-xc  
2W#^^4^+  
读取模式      : 可靠Secure %N0m$*  
使用精确流     : 是 aP B4!3W  
清空音频缓存    : 否 lR]FQnZ  
使用 C2 指示器 : 是 dqO]2d  
`g0^ W/ j  
读取偏移校正:               : 102 8q; aCtei  
读取 Lead-In 和 Lead-Out : 否 0|8cSE< i  
用静音填充抓取中丢失偏移的采样       : 是 "<^n@=g'q  
去除首尾静音块               : 否 Bx6,U4o*  
在CRC 计算中使用了空样本       : 是 ixE w!t  
已用接口                  : Win NT 及 2000 本地 Win32 接口 s)KlKh  
NytodVZ'3  
所用输出模式: : 内部 WAV 函数 ,t:P  
样本格式    : 44.100 Hz; 16 Bit; 立体声 #^R@EZ  
V`HnFAW  
ZX8@/8sv  
已抓取 CD 的 TOC (U 4n} J  
)VqPaKZl  
     音轨 |    起始    |    长度    |  起始扇区  |  结束扇区   `AvK=]  
    -------------------------------------------- ?~E"!  
      1 |  0:00.00 |  4:07.60 |      0 |  18584 OE Xa}K#  
      2 |  4:07.60 |  4:59.45 |  18585 |  41054 }xi?vAaTl  
      3 |  9:07.30 |  4:01.12 |  41055 |  59141 8#- Nx]VM  
      4 | 13:08.42 |  3:53.50 |  59142 |  76666 HavlN}h  
      5 | 17:02.17 |  4:08.15 |  76667 |  95281 ' i<4;=M&  
      6 | 21:10.32 |  3:54.58 |  95282 | 112889 ,J-|.ER->  
      7 | 25:05.15 |  5:19.15 | 112890 | 136829 o0S 8ki  
      8 | 30:24.30 |  4:13.17 | 136830 | 155821 R5(([C1  
      9 | 34:37.47 |  4:52.68 | 155822 | 177789 u%E8&T8,  
     10 | 39:30.40 |  4:19.25 | 177790 | 197239 Dj'?12Onu=  
     11 | 43:49.65 |  4:38.55 | 197240 | 218144 N5ZO pRH{  
"::2]3e  
VNIl%9:-l  
范围状态及错误 % XZ&(  
!K}W.yv,  
已选择范围 SJMbYjn0J  
q>>1?hzA  
     文件名 J:\12 Music*音乐\CDImage.wav m*N8!1Ot  
|Rkw/5  
     峰值电平 81.5 % 7H{1i  
     抓取速度 6.2 X (PGw{_  
     范围质量 100.0 % JW^ ${4  
     复制 CRC E97A0FD3 SE^l`.U@  
     复制成功 83/m^^F{]  
'r%(,=L  
没有错误发生 >uq0}HB$a  
\X %FM"r  
*P`wuXn}  
AccurateRip 摘要 wyB]!4yy,  
+<[q"3  
音轨  1  精确地校准抓取  4)  [FD6FE482]  (AR v2) z!bT^_Cc0  
音轨  2  精确地校准抓取  4)  [C891B755]  (AR v2) w$f_z*/  
音轨  3  精确地校准抓取  4)  [31E1861A]  (AR v2) zc)nDyn  
音轨  4  精确地校准抓取  4)  [A9F4BB33]  (AR v2) )?#K0o[<  
音轨  5  精确地校准抓取  4)  [92339BDF]  (AR v2) <H60rON  
音轨  6  精确地校准抓取  4)  [8D3549A5]  (AR v2) CS~onf<xz  
音轨  7  精确地校准抓取  4)  [422BB2BA]  (AR v2) # f-hI  
音轨  8  精确地校准抓取  4)  [0ED92356]  (AR v2) GZrN,M  
音轨  9  精确地校准抓取  4)  [1489843C]  (AR v2) 5O]tkHYR  
音轨 10  精确地校准抓取  4)  [4BC0B5C1]  (AR v2) @B >D>B  
音轨 11  精确地校准抓取  4)  [C7ED3411]  (AR v2) d9TTAaf  
Y2l;NSWU  
所有音轨精确校准抓取 (N&?Z]|yr  
!zOj`lx  
状态报告结尾
vJ&D>Vh4e  
>&+V[srfD  
链接:http://pan.baidu.com/s/1ntH3CCD 密码: |VaJ70\o  
此帖售价 15 金钱,已有 22 人购买 [记录] [购买]
购买后,将显示帖子中所有出售内容。
若发现会员采用欺骗的方法获取财富,请立刻举报,我们会对会员处以2-N倍的罚金,严重者封掉ID!
此段为出售的内容,购买后显示
1条评分威望+10
Moses 威望 +10 应该是普及度最高的一个版本 横跨了整个BAD时代 2015-10-01
离线arfongs

发帖
306
金钱
5036
威望
21
贡献值
22
交易币
395
只看该作者 1楼 发表于: 2015-10-01
谢谢分享
Every day create your history~

离线自作主张

发帖
335
金钱
2993
威望
78
贡献值
43
交易币
432
只看该作者 2楼 发表于: 2015-10-01
上次說沒有了,好嚇人
离线mjghosts

发帖
8235
金钱
209049
威望
9162
贡献值
2713
交易币
4678
只看该作者 3楼 发表于: 2015-10-01
回 自作主张 的帖子
自作主张:上次說沒有了,好嚇人 (2015-10-01 10:59)  $9?<mP2-*  
=&roL7ps  
其实这是幸运,多得肯尼提醒Bad早期有三种。我收的这张加拿大版我一直没有听过,以为和首版一样的。一听我就惊喜了。
离线zhouquan311

发帖
734
金钱
7691
威望
136
贡献值
66
交易币
974
只看该作者 4楼 发表于: 2015-10-01
惊喜啊!
Forever MJ
       我要去减肥,除非冰淇淋,
  
  不再那么贵,三块二毛一,
  
  我也要人陪,除非我有米,
  
  去换红玫瑰,然后送给你,
  
离线Moses

发帖
5031
金钱
37165
威望
2951
贡献值
1521
交易币
2717
只看该作者 5楼 发表于: 2015-10-01
应该是普及度最高的一个版本 横跨了整个BAD时代
离线xthriller

发帖
1172
金钱
259
威望
127
贡献值
39
交易币
1281
只看该作者 6楼 发表于: 2015-10-02
感谢楼主分享,很专业 h 8<s(WR  
只有一个偶像,只有一个MJ
离线迈舞旋转

发帖
1252
金钱
5732
威望
163
贡献值
128
交易币
1717
只看该作者 7楼 发表于: 2015-10-02
看来得全收齐了
离线mich008

发帖
793
金钱
4972
威望
24
贡献值
15
交易币
855
只看该作者 8楼 发表于: 2015-10-05
好宝贝 谢谢分享
离线Mr灬W

发帖
1156
金钱
12831
威望
161
贡献值
56
交易币
1281
只看该作者 9楼 发表于: 2015-10-13
辛苦了~感谢分享!!
Heal The World
快速回复
限100 字节
 
上一个 下一个