论坛风格切换切换到宽版
  • 1727阅读
  • 25回复

[亲传][Album] 1987 BAD [2nd Version] (US - EK 40600) - WAV整轨 ♬by幽灵 [复制链接]

上一主题 下一主题
离线mjghosts
 

发帖
8232
金钱
213145
威望
9167
贡献值
2716
交易币
4715
只看楼主 倒序阅读 楼主  发表于: 2015-10-01
— 本帖被 mjghosts 执行加亮操作(2015-10-01) —
*本次发布的版本是CBS早期再版,抓取的CD为美版(提供的封面封底图为LZ实物拍摄、裁剪,水准一般般,只为大家更清楚抓轨用的版本而不用网络上的图片。),全碟数据精确校准无错误完美抓取。 X!g;;DB\  
zgFL/a<  
《BAD》专辑,在2001年数码修复版(俗称加歌版)之前,内容有异的版本共三个: a )lCp  
第一版(1987):http://www.mjsunny.com/read.php?tid=63992 HG /fp<[   
第二版(1988-1992):也就是本帖发布的版本,与上一版的区别主要在于一下几点【谢谢肯尼提供相关资料】: ;8=Bee4  
·Bad鼓点改了一点,2分53秒的混音取消了 Y*b$^C%2  
·The Way You Make Me Feel去掉了第二段副歌后的响指,结尾加了一大段歌词 ;^JMX4[  
·Dirty Diana鼓点变了,结尾很轻的合唱去掉了 i<$?rB!i<1  
·Smooth Criminal 伴奏细节有微细差异 +P+h$gQ  
·I Just Can't Stop Loving You去掉了独白 (所以封底上的曲目长度是错误的,实际时长约4分12秒左右) P_H2[d&/>D  
·Man In The Mirror去掉了即兴部分的小小瑕疵 uMm`j?Y23q  
==== H>D?  
最后我补充一句,第二版与第一版一样,音量较小。
X]2x0  
第三版(1992-1995):http://www.mjsunny.com/read.php?tid=64049 [_ uT+q3  
.F%jbnKd_  
目前,所有早期版本的《BAD》已经全部发布,希望大家多多支持,收藏不易,整理不易,上传不易,日后会继续给大家分享更多音频资源。
hpbi!g  
_d^d1Q}V  
注:独家整理,转载请注明出处!EAC无损整轨(压缩包内含CD图片) )_>'D4l ?  
tv~Y5e&8  
解压密码:www.mjsunny.com
}7xcHVO8-  
XWNo)#_3  
o=Mm=;H  
<9:~u]ixt  
S,avvY.U\  
Exact Audio Copy V1.0 beta 6 from 9. April 2015 3Z` wU  
4vvQ7e7  
EAC 抓取日志文件从30. 九月 2015, 10:54 <%rm?;PBl  
@de0)AJG6  
Michael Jackson / Bad loE;q}^  
^Oeixi@f  
使用驱动器  :MATSHITADVD-RAM UJ890AS   Adapter: 1  ID: 1 jt9- v-  
q@ ;1{  
读取模式      : 可靠Secure #a2Z.a<V  
使用精确流     : 是 nt-_)4Fm  
清空音频缓存    : 否 i "X" -)#  
使用 C2 指示器 : 是 #Ufb  
05\0g9  
读取偏移校正:               : 102  7( Z9\  
读取 Lead-In 和 Lead-Out : 否 Z(t O]tQE  
用静音填充抓取中丢失偏移的采样       : 是 FwHqID_!:l  
去除首尾静音块               : 否 gW4fwE^  
在CRC 计算中使用了空样本       : 是 =A{'57yP  
已用接口                  : Win NT 及 2000 本地 Win32 接口 +F-Y^):  
hu"-dT;4]  
所用输出模式: : 内部 WAV 函数 L\c3D|  
样本格式    : 44.100 Hz; 16 Bit; 立体声 & ?5)Jis:  
.H qJ)OH  
7,Z<PE  
已抓取 CD 的 TOC )Td{}vbIh  
R;A8y  
     音轨 |    起始    |    长度    |  起始扇区  |  结束扇区   Ki Kw,@  
    -------------------------------------------- |/%5~=%7  
      1 |  0:00.00 |  4:07.60 |      0 |  18584 N$C+le  
      2 |  4:07.60 |  4:59.45 |  18585 |  41054 Pi9?l>  
      3 |  9:07.30 |  4:01.12 |  41055 |  59141 EEK!'[<,sE  
      4 | 13:08.42 |  3:53.50 |  59142 |  76666 Buh}+n2]5  
      5 | 17:02.17 |  4:08.15 |  76667 |  95281 !~R<Il|B  
      6 | 21:10.32 |  3:54.58 |  95282 | 112889 qz3 Z'  
      7 | 25:05.15 |  5:19.15 | 112890 | 136829 4KR`  
      8 | 30:24.30 |  4:13.17 | 136830 | 155821 8Yf*vp>T/x  
      9 | 34:37.47 |  4:52.68 | 155822 | 177789 hi/d%lNZ  
     10 | 39:30.40 |  4:19.25 | 177790 | 197239 <Lxp t  
     11 | 43:49.65 |  4:38.55 | 197240 | 218144 :):vB  
_D?/$D7u#%  
%k['<BYG<  
范围状态及错误 W5Pur lu?  
OAW_c.)5D  
已选择范围 ;R2A>f~  
W1 xPK*  
     文件名 J:\12 Music*音乐\CDImage.wav dQ-g\]d|  
7zE1>.  
     峰值电平 81.5 % nC??exc  
     抓取速度 6.2 X y ,`0f|  
     范围质量 100.0 % *x p_#  
     复制 CRC E97A0FD3 wCv9VvF`  
     复制成功 +s`cXTlFrk  
K g.O2F77  
没有错误发生 seP h%Sa_  
D eT$4c*:[  
;/+U.I%z  
AccurateRip 摘要 uNw9g<g:V[  
=2} kiLKO  
音轨  1  精确地校准抓取  4)  [FD6FE482]  (AR v2) vEGI  
音轨  2  精确地校准抓取  4)  [C891B755]  (AR v2) apfr>L3  
音轨  3  精确地校准抓取  4)  [31E1861A]  (AR v2) FC+h \  
音轨  4  精确地校准抓取  4)  [A9F4BB33]  (AR v2) DL!%Np?`  
音轨  5  精确地校准抓取  4)  [92339BDF]  (AR v2) ZrZDyXL  
音轨  6  精确地校准抓取  4)  [8D3549A5]  (AR v2) ^w<aS w  
音轨  7  精确地校准抓取  4)  [422BB2BA]  (AR v2) IAq o(Qm  
音轨  8  精确地校准抓取  4)  [0ED92356]  (AR v2) dl6U]v=  
音轨  9  精确地校准抓取  4)  [1489843C]  (AR v2) +`g&hO\W  
音轨 10  精确地校准抓取  4)  [4BC0B5C1]  (AR v2) [0]A-#J  
音轨 11  精确地校准抓取  4)  [C7ED3411]  (AR v2) Ro"'f7(v.  
dpylJ2  
所有音轨精确校准抓取 ]7S f)  
YI,t{Wy  
状态报告结尾
7_76X)gIV  
b&&l   
链接:http://pan.baidu.com/s/1ntH3CCD 密码: \?T9 v  
此帖售价 15 金钱,已有 22 人购买 [记录] [购买]
购买后,将显示帖子中所有出售内容。
若发现会员采用欺骗的方法获取财富,请立刻举报,我们会对会员处以2-N倍的罚金,严重者封掉ID!
此段为出售的内容,购买后显示
1条评分威望+10
Moses 威望 +10 应该是普及度最高的一个版本 横跨了整个BAD时代 2015-10-01
离线arfongs

发帖
306
金钱
5036
威望
21
贡献值
22
交易币
395
只看该作者 1楼 发表于: 2015-10-01
谢谢分享
Every day create your history~

离线自作主张

发帖
341
金钱
3169
威望
80
贡献值
43
交易币
438
只看该作者 2楼 发表于: 2015-10-01
上次說沒有了,好嚇人
离线mjghosts

发帖
8232
金钱
213145
威望
9167
贡献值
2716
交易币
4715
只看该作者 3楼 发表于: 2015-10-01
回 自作主张 的帖子
自作主张:上次說沒有了,好嚇人 (2015-10-01 10:59)  g3w-Le&T  
Q0_|?]v  
其实这是幸运,多得肯尼提醒Bad早期有三种。我收的这张加拿大版我一直没有听过,以为和首版一样的。一听我就惊喜了。
离线zhouquan311

发帖
734
金钱
7721
威望
136
贡献值
66
交易币
974
只看该作者 4楼 发表于: 2015-10-01
惊喜啊!
Forever MJ
       我要去减肥,除非冰淇淋,
  
  不再那么贵,三块二毛一,
  
  我也要人陪,除非我有米,
  
  去换红玫瑰,然后送给你,
  
离线Moses

发帖
5057
金钱
37295
威望
2951
贡献值
1521
交易币
2743
只看该作者 5楼 发表于: 2015-10-01
应该是普及度最高的一个版本 横跨了整个BAD时代
离线xthriller

发帖
1174
金钱
284
威望
127
贡献值
39
交易币
1283
只看该作者 6楼 发表于: 2015-10-02
感谢楼主分享,很专业 iquB]z'  
只有一个偶像,只有一个MJ
离线迈舞旋转

发帖
1262
金钱
5541
威望
163
贡献值
128
交易币
1727
只看该作者 7楼 发表于: 2015-10-02
看来得全收齐了
离线mich008

发帖
814
金钱
5327
威望
24
贡献值
15
交易币
876
只看该作者 8楼 发表于: 2015-10-05
好宝贝 谢谢分享
离线Mr灬W

发帖
1129
金钱
12894
威望
161
贡献值
56
交易币
1282
只看该作者 9楼 发表于: 2015-10-13
辛苦了~感谢分享!!
Heal The World
快速回复
限100 字节
 
上一个 下一个