论坛风格切换切换到宽版
  • 1164阅读
  • 23回复

[亲传][Album] 1982 Thriller [Sony Music] (US - EK 38112) - WAV整轨 ♬by幽灵 [复制链接]

上一主题 下一主题
在线mjghosts
 

发帖
8224
金钱
208317
威望
9160
贡献值
2711
交易币
4659
只看楼主 倒序阅读 楼主  发表于: 2015-10-17
— 本帖被 mjghosts 执行加亮操作(2015-10-17) —
*这张专辑不必多说,即使不是迈迷都知道。发布的CD版本为90年代的美国索尼版。全碟完美精确校准抓取!音质方面和01年修复版接近,但又比较“纯”一点,与我发布的第三版《BAD》类似,比较推荐用来听的版本。 4pT|r6!<  
[+z:^a1?V  
关于这张CD的更多详情请到:http://blog.sina.com.cn/s/blog_59c8cb6d0102w3n0.html
A o$z )<d'  
_9r{W65s  
注:独家整理,转载请注明出处!EAC无损整轨(压缩包内含CD图片) k5(yf~!c  
 ?Nql7F4  
解压密码:www.mjsunny.com
[HDO^6U  
4{t$M}?N  
2!?z%s-S  
MPy][^s!  
l5]oS? >y  
h21(K}  
Exact Audio Copy V1.0 beta 6 from 9. April 2015 2*wO5v  
n!eqzr{  
EAC 抓取日志文件从15. 十月 2015, 20:06 3 [)s;e  
}vUlTH  
Michael Jackson / Thriller S|q!? /jqj  
k Kp6  
使用驱动器  :MATSHITADVD-RAM UJ890AS   Adapter: 1  ID: 1 $D/bU lFx  
Y1fy2\<'  
读取模式      : 可靠Secure &>W  (l.  
使用精确流     : 是 R81{<q'%X  
清空音频缓存    : 否 pHen>BA[  
使用 C2 指示器 : 是 L$+d.=]  
hrs#ZZ:E  
读取偏移校正:               : 102 << 3 a<I  
读取 Lead-In 和 Lead-Out : 否 |@ikx{W  
用静音填充抓取中丢失偏移的采样       : 是 @S`$C  
去除首尾静音块               : 否 w3^NL(>  
在CRC 计算中使用了空样本       : 是 6}ce1|mkg/  
已用接口                  : Win NT 及 2000 本地 Win32 接口 M'kVL0p?vN  
Ng\/)^  
所用输出模式: : 内部 WAV 函数 OB(pIzSe  
样本格式    : 44.100 Hz; 16 Bit; 立体声 zF8'i=b&  
Ir5WN_EaS  
ZsZcQj6G,  
已抓取 CD 的 TOC *XbI#L%>  
e'2Y1h  
     音轨 |    起始    |    长度    |  起始扇区  |  结束扇区   f?56=& pHY  
    -------------------------------------------- W0XF~  
      1 |  0:00.00 |  6:04.20 |      0 |  27319 pFsc}R/0/8  
      2 |  6:04.20 |  4:20.63 |  27320 |  46882 Nt:9MG>1  
      3 | 10:25.08 |  3:42.35 |  46883 |  63567 2Y!S_Hw8  
      4 | 14:07.43 |  5:59.32 |  63568 |  90524 Yw; D:Y(  
      5 | 20:07.00 |  4:18.65 |  90525 | 109939 TBrGA E  
      6 | 24:25.65 |  4:54.30 | 109940 | 132019 3]&o*Ib1`_  
      7 | 29:20.20 |  4:06.25 | 132020 | 150494 D}C,![   
      8 | 33:26.45 |  3:59.20 | 150495 | 168439  7R#+Le)  
      9 | 37:25.65 |  4:59.48 | 168440 | 190912 5 < wnva  
B+C);WQ,  
#_Z$2L"U  
范围状态及错误 8:BIbmtt5  
|#1(Z-}  
已选择范围 ;nC.fBu  
Dfq(Iv  
     文件名 J:\12 Music*音乐\CDImage.wav 'v]u#/7a  
%W@v2  
     峰值电平 100.0 % a'!zG cT  
     抓取速度 5.9 X 4lBU#V7  
     范围质量 99.9 % |j 6OM{@  
     复制 CRC AA0A4159 JA)] _H P  
     复制成功 +|tC'gCnV  
"_`F\DGAZu  
没有错误发生 [o?* "c  
]8T!qS(UJd  
]niJG t  
AccurateRip 摘要 IV)<5'v  
0fYj4`4=n  
音轨  1  精确地校准抓取  22)  [0150C8DD]  (AR v2) ,%)6jYHRw  
音轨  2  精确地校准抓取  21)  [B1DCC3F6]  (AR v2) cra+T+|>Kc  
音轨  3  精确地校准抓取  21)  [72BCD7E6]  (AR v2) *;Ed*ibf  
音轨  4  精确地校准抓取  21)  [230F2A6B]  (AR v2) L*~J%7  
音轨  5  精确地校准抓取  22)  [32BE13DF]  (AR v2) iV eC=^1  
音轨  6  精确地校准抓取  21)  [307BAA1F]  (AR v2) ;asP4R=  
音轨  7  精确地校准抓取  21)  [50E711BF]  (AR v2) f`&dQ,;  
音轨  8  精确地校准抓取  21)  [1FC09871]  (AR v2) PfZ+PqS  
音轨  9  精确地校准抓取  20)  [F10153BD]  (AR v2) X 51Yfr  
EVNY*&p  
所有音轨精确校准抓取 zrU{@z$l  
%=BMZRn  
状态报告结尾
(X?/"lC)  
xrN &N_K#  
链接:http://pan.baidu.com/s/1ntNA2sL 密码: A'%1ZQ33O  
此帖售价 10 金钱,已有 18 人购买 [记录] [购买]
购买后,将显示帖子中所有出售内容。
若发现会员采用欺骗的方法获取财富,请立刻举报,我们会对会员处以2-N倍的罚金,严重者封掉ID!
此段为出售的内容,购买后显示
离线q965488338

发帖
709
金钱
27830
威望
224
贡献值
96
交易币
1082
只看该作者 1楼 发表于: 2015-10-17
感谢!!!
离线Moses

发帖
5026
金钱
37140
威望
2951
贡献值
1521
交易币
2712
只看该作者 2楼 发表于: 2015-10-17
SONY 四版全部发起了  
在线mjghosts

发帖
8224
金钱
208317
威望
9160
贡献值
2711
交易币
4659
只看该作者 3楼 发表于: 2015-10-17
回 Moses 的帖子
Moses:SONY 四版全部发起了  [表情]  (2015-10-17 22:05)  wP29 xV"5  
g,*LP  
还真的,不知不觉发齐了。索尼版听感确实都很棒。
离线自作主张

发帖
335
金钱
2932
威望
78
贡献值
43
交易币
432
只看该作者 4楼 发表于: 2015-10-18
求25。。。。
离线小李

发帖
207
金钱
182
威望
98
贡献值
7
交易币
175
只看该作者 5楼 发表于: 2015-10-18
用我的10万元音箱听听,对比一下,
离线wannam

发帖
2666
金钱
80618
威望
382
贡献值
189
交易币
3309
只看该作者 6楼 发表于: 2015-10-18
太棒了,谢谢分享
离线zhouquan311

发帖
734
金钱
7691
威望
136
贡献值
66
交易币
974
只看该作者 7楼 发表于: 2015-10-18
幽灵终于出thriller了!赞!
Forever MJ
       我要去减肥,除非冰淇淋,
  
  不再那么贵,三块二毛一,
  
  我也要人陪,除非我有米,
  
  去换红玫瑰,然后送给你,
  
离线Mr灬W

发帖
1156
金钱
12831
威望
161
贡献值
56
交易币
1281
只看该作者 8楼 发表于: 2015-10-18
感谢分享!
Heal The World
离线Moses

发帖
5026
金钱
37140
威望
2951
贡献值
1521
交易币
2712
只看该作者 9楼 发表于: 2015-10-18
回 mjghosts 的帖子
mjghosts:还真的,不知不觉发齐了。索尼版听感确实都很棒。 (2015-10-17 22:26)  <[' ucp  
mNKcaM?h  
90年代跨进了另1个时期  MJ已经成为了流行之王  SONY收购了CBS  而且CD技术比较成熟了
快速回复
限100 字节
 
上一个 下一个