论坛风格切换切换到宽版
  • 938阅读
  • 20回复

[亲传][Album] 1982 Thriller [Sony Music] (US - EK 38112) - WAV整轨 ♬by幽灵 [复制链接]

上一主题 下一主题
离线mjghosts
 

发帖
8191
金钱
204337
威望
9035
贡献值
2641
交易币
4550
只看楼主 倒序阅读 楼主  发表于: 2015-10-17
— 本帖被 mjghosts 执行加亮操作(2015-10-17) —
*这张专辑不必多说,即使不是迈迷都知道。发布的CD版本为90年代的美国索尼版。全碟完美精确校准抓取!音质方面和01年修复版接近,但又比较“纯”一点,与我发布的第三版《BAD》类似,比较推荐用来听的版本。 t7Iv?5]N  
ZF9z~9  
关于这张CD的更多详情请到:http://blog.sina.com.cn/s/blog_59c8cb6d0102w3n0.html
JV^=v@Z3  
zm5]J  
注:独家整理,转载请注明出处!EAC无损整轨(压缩包内含CD图片) |O\s|H  
-hGk?_Nqa/  
解压密码:www.mjsunny.com
D rUO-  
#uG%j  
x:NY\._  
_~l5u8{^6  
eCU:Q  
_ @NL;w:!  
Exact Audio Copy V1.0 beta 6 from 9. April 2015 X; \+<LE  
|}s*E_/[  
EAC 抓取日志文件从15. 十月 2015, 20:06 u"cV%(#  
jjRi*^d9  
Michael Jackson / Thriller #C74z$  
,GbR!j@6  
使用驱动器  :MATSHITADVD-RAM UJ890AS   Adapter: 1  ID: 1 1y@i}<9F  
Fx_z6a  
读取模式      : 可靠Secure Pe_W;q.  
使用精确流     : 是 P:K5",)  
清空音频缓存    : 否 qdJ=lhHM}  
使用 C2 指示器 : 是 J9--tJ?[>o  
rK6l8)o  
读取偏移校正:               : 102 O'p9u@kc  
读取 Lead-In 和 Lead-Out : 否 hP%M?MKC  
用静音填充抓取中丢失偏移的采样       : 是 7?!d^$B  
去除首尾静音块               : 否 (&Kk7<#`  
在CRC 计算中使用了空样本       : 是 B?gOHG*vd>  
已用接口                  : Win NT 及 2000 本地 Win32 接口 Af~$TyX  
b;B%q$sntC  
所用输出模式: : 内部 WAV 函数 PFlNo` iO  
样本格式    : 44.100 Hz; 16 Bit; 立体声 #1A.?p  
K^)Eb(4  
PfAgM1   
已抓取 CD 的 TOC XB;7!8|  
P+ 3G~Sr  
     音轨 |    起始    |    长度    |  起始扇区  |  结束扇区   e9Wa<i 8  
    -------------------------------------------- [: n'k  
      1 |  0:00.00 |  6:04.20 |      0 |  27319 a_^\=&?'  
      2 |  6:04.20 |  4:20.63 |  27320 |  46882 HYD'.uj  
      3 | 10:25.08 |  3:42.35 |  46883 |  63567 Y!aSs3c  
      4 | 14:07.43 |  5:59.32 |  63568 |  90524 RtkEGxw*^  
      5 | 20:07.00 |  4:18.65 |  90525 | 109939 _P#|IAq*  
      6 | 24:25.65 |  4:54.30 | 109940 | 132019 K e;E1S-~  
      7 | 29:20.20 |  4:06.25 | 132020 | 150494 ('4_ xOb  
      8 | 33:26.45 |  3:59.20 | 150495 | 168439 ^  glri$m  
      9 | 37:25.65 |  4:59.48 | 168440 | 190912 */5d>04  
b i',j0B  
K C*e/J  
范围状态及错误 H*?t^  
_b pP50Cu  
已选择范围 t4."/ .=+  
o)M}!MT  
     文件名 J:\12 Music*音乐\CDImage.wav ozyX$tp  
{ T/[cu<  
     峰值电平 100.0 % h"B+hu  
     抓取速度 5.9 X `P@<3]  
     范围质量 99.9 % *P[ hy  
     复制 CRC AA0A4159 YH}'s>xZz  
     复制成功 ^)/0yB  
rET\n(AJ  
没有错误发生 M5 LfRBO  
[Q~#82hBhY  
h:))@@7MJ  
AccurateRip 摘要 &C5_g$Ma.Z  
+zqn<<9  
音轨  1  精确地校准抓取  22)  [0150C8DD]  (AR v2) B&M%I:i  
音轨  2  精确地校准抓取  21)  [B1DCC3F6]  (AR v2) 4!{KWL`A  
音轨  3  精确地校准抓取  21)  [72BCD7E6]  (AR v2) /aCc17>2V{  
音轨  4  精确地校准抓取  21)  [230F2A6B]  (AR v2) l ~"^7H?4e  
音轨  5  精确地校准抓取  22)  [32BE13DF]  (AR v2) etDk35!h~,  
音轨  6  精确地校准抓取  21)  [307BAA1F]  (AR v2) G{~J|{t\yz  
音轨  7  精确地校准抓取  21)  [50E711BF]  (AR v2) EmWn%eMN  
音轨  8  精确地校准抓取  21)  [1FC09871]  (AR v2) f3l&3hC  
音轨  9  精确地校准抓取  20)  [F10153BD]  (AR v2) P-_6wfg,;>  
3lL-)<0A(  
所有音轨精确校准抓取 LtF,kAIt7v  
l+K'beP  
状态报告结尾
W\$`w  
)2KF}{  
链接:http://pan.baidu.com/s/1ntNA2sL 密码: FBX'.\@`  
此帖售价 10 金钱,已有 15 人购买 [记录] [购买]
购买后,将显示帖子中所有出售内容。
若发现会员采用欺骗的方法获取财富,请立刻举报,我们会对会员处以2-N倍的罚金,严重者封掉ID!
此段为出售的内容,购买后显示
离线q965488338

发帖
709
金钱
27814
威望
224
贡献值
96
交易币
1082
只看该作者 1楼 发表于: 2015-10-17
感谢!!!
离线Moses

发帖
5016
金钱
37090
威望
2951
贡献值
1521
交易币
2702
只看该作者 2楼 发表于: 2015-10-17
SONY 四版全部发起了  
离线mjghosts

发帖
8191
金钱
204337
威望
9035
贡献值
2641
交易币
4550
只看该作者 3楼 发表于: 2015-10-17
回 Moses 的帖子
Moses:SONY 四版全部发起了  [表情]  (2015-10-17 22:05)  )R1<N  
|[b{)s?x  
还真的,不知不觉发齐了。索尼版听感确实都很棒。
离线自作主张

发帖
334
金钱
2793
威望
78
贡献值
43
交易币
431
只看该作者 4楼 发表于: 2015-10-18
求25。。。。
离线小李

发帖
199
金钱
163
威望
97
贡献值
6
交易币
163
只看该作者 5楼 发表于: 2015-10-18
用我的10万元音箱听听,对比一下,
离线wannam

发帖
2553
金钱
69410
威望
363
贡献值
169
交易币
3196
只看该作者 6楼 发表于: 2015-10-18
太棒了,谢谢分享
离线zhouquan311

发帖
734
金钱
7683
威望
136
贡献值
66
交易币
974
只看该作者 7楼 发表于: 2015-10-18
幽灵终于出thriller了!赞!
Forever MJ
       我要去减肥,除非冰淇淋,
  
  不再那么贵,三块二毛一,
  
  我也要人陪,除非我有米,
  
  去换红玫瑰,然后送给你,
  
离线Mr灬W

发帖
1146
金钱
13022
威望
151
贡献值
46
交易币
1271
只看该作者 8楼 发表于: 2015-10-18
感谢分享!
Heal The World
离线Moses

发帖
5016
金钱
37090
威望
2951
贡献值
1521
交易币
2702
只看该作者 9楼 发表于: 2015-10-18
回 mjghosts 的帖子
mjghosts:还真的,不知不觉发齐了。索尼版听感确实都很棒。 (2015-10-17 22:26)  @9|hMo  
f6"Z'{j  
90年代跨进了另1个时期  MJ已经成为了流行之王  SONY收购了CBS  而且CD技术比较成熟了
快速回复
限100 字节
 
上一个 下一个