论坛风格切换切换到宽版
  • 1450阅读
  • 23回复

[亲传][Album] 1982 Thriller [Sony Music] (US - EK 38112) - WAV整轨 ♬by幽灵 [复制链接]

上一主题 下一主题
离线mjghosts
 

发帖
8257
金钱
212065
威望
9166
贡献值
2715
交易币
4708
只看楼主 倒序阅读 楼主  发表于: 2015-10-17
— 本帖被 mjghosts 执行加亮操作(2015-10-17) —
*这张专辑不必多说,即使不是迈迷都知道。发布的CD版本为90年代的美国索尼版。全碟完美精确校准抓取!音质方面和01年修复版接近,但又比较“纯”一点,与我发布的第三版《BAD》类似,比较推荐用来听的版本。 C9}m-N  
R|O."&CAB  
关于这张CD的更多详情请到:http://blog.sina.com.cn/s/blog_59c8cb6d0102w3n0.html
&?j]L4%  
xyc`p[n &  
注:独家整理,转载请注明出处!EAC无损整轨(压缩包内含CD图片) =pR'XF%  
@I,:(<6  
解压密码:www.mjsunny.com
v^QUYsar  
#Mmr{4m  
li~#6$  
%h-?ff[  
1#2B1&  
:ncR7:Z  
Exact Audio Copy V1.0 beta 6 from 9. April 2015 _pS!sY~d  
v<wR`7xG  
EAC 抓取日志文件从15. 十月 2015, 20:06 :Z'q1kW@"  
~'aK[3  
Michael Jackson / Thriller -w#Hy>E  
g9$P J:  
使用驱动器  :MATSHITADVD-RAM UJ890AS   Adapter: 1  ID: 1 _x ;fTW0  
NtnKS@Ht  
读取模式      : 可靠Secure \X?GzQkr  
使用精确流     : 是 `p. O  
清空音频缓存    : 否 Ea7LPHE#  
使用 C2 指示器 : 是 ?TXe.h|u  
h5.>};"@ '  
读取偏移校正:               : 102 -'9sn/  
读取 Lead-In 和 Lead-Out : 否 Qs^Rh F\d  
用静音填充抓取中丢失偏移的采样       : 是 = +=k(*  
去除首尾静音块               : 否 'Wn2+pd  
在CRC 计算中使用了空样本       : 是 u\JYxNj1  
已用接口                  : Win NT 及 2000 本地 Win32 接口 V+M=@Pvp9  
;U^7 ]JO;  
所用输出模式: : 内部 WAV 函数 A{!D7kwTz~  
样本格式    : 44.100 Hz; 16 Bit; 立体声 o$=D`B  
16p$>a<6  
^E5[~C*o3  
已抓取 CD 的 TOC Gj.u /l  
?E@ 9Nvr  
     音轨 |    起始    |    长度    |  起始扇区  |  结束扇区   a-t}L{~  
    -------------------------------------------- Ol,Tw=?  
      1 |  0:00.00 |  6:04.20 |      0 |  27319 y%X{[F  
      2 |  6:04.20 |  4:20.63 |  27320 |  46882 g4BEo'  
      3 | 10:25.08 |  3:42.35 |  46883 |  63567 Mh04O@"  
      4 | 14:07.43 |  5:59.32 |  63568 |  90524 &ACM:&Ob  
      5 | 20:07.00 |  4:18.65 |  90525 | 109939 kKV`9&dZe  
      6 | 24:25.65 |  4:54.30 | 109940 | 132019 k_rtsN  
      7 | 29:20.20 |  4:06.25 | 132020 | 150494 9/rX%  
      8 | 33:26.45 |  3:59.20 | 150495 | 168439 =='~g~  
      9 | 37:25.65 |  4:59.48 | 168440 | 190912 `!?SA<a:  
s6k,'`.  
2QUZAV\ Y  
范围状态及错误 Fg8i} >w  
uf;^yQi  
已选择范围 VmLV:"P}^  
a9 =,P  
     文件名 J:\12 Music*音乐\CDImage.wav [4:_6vd7X  
L1"y5HJ  
     峰值电平 100.0 % 8fzmCRFH  
     抓取速度 5.9 X =T$-idx1l  
     范围质量 99.9 % b?-Ep?G'\  
     复制 CRC AA0A4159 *V(TNLIh;  
     复制成功 mc_`:I=  
gio'_X  
没有错误发生 E<;C@B  
`As.1@  
z8+3/jLN0B  
AccurateRip 摘要 o|G.tBpKg  
HErTFY+vC  
音轨  1  精确地校准抓取  22)  [0150C8DD]  (AR v2) ; 1K[N0xE  
音轨  2  精确地校准抓取  21)  [B1DCC3F6]  (AR v2) |) QE+|?P  
音轨  3  精确地校准抓取  21)  [72BCD7E6]  (AR v2) _O ~DJ"  
音轨  4  精确地校准抓取  21)  [230F2A6B]  (AR v2) 5'gV_U  
音轨  5  精确地校准抓取  22)  [32BE13DF]  (AR v2) eZs34${fN  
音轨  6  精确地校准抓取  21)  [307BAA1F]  (AR v2) C0;c'4(  
音轨  7  精确地校准抓取  21)  [50E711BF]  (AR v2) pA9^-:\*  
音轨  8  精确地校准抓取  21)  [1FC09871]  (AR v2) IBr?6_\%"4  
音轨  9  精确地校准抓取  20)  [F10153BD]  (AR v2) H\AJLk2E  
dX-Xzg  
所有音轨精确校准抓取 =dz  iR _  
wYK-YY:Q3  
状态报告结尾
j u`x   
wB}s>o\  
链接:http://pan.baidu.com/s/1ntNA2sL 密码: -Zd0[& ']  
此帖售价 10 金钱,已有 18 人购买 [记录] [购买]
购买后,将显示帖子中所有出售内容。
若发现会员采用欺骗的方法获取财富,请立刻举报,我们会对会员处以2-N倍的罚金,严重者封掉ID!
此段为出售的内容,购买后显示
离线q965488338

发帖
709
金钱
28070
威望
224
贡献值
96
交易币
1082
只看该作者 1楼 发表于: 2015-10-17
感谢!!!
离线Moses

发帖
5056
金钱
37290
威望
2951
贡献值
1521
交易币
2742
只看该作者 2楼 发表于: 2015-10-17
SONY 四版全部发起了  
http://blog.sina.com.cn/mjjcfc
离线mjghosts

发帖
8257
金钱
212065
威望
9166
贡献值
2715
交易币
4708
只看该作者 3楼 发表于: 2015-10-17
回 Moses 的帖子
Moses:SONY 四版全部发起了  [表情]  (2015-10-17 22:05)  cNl NJ  
%urd;h D  
还真的,不知不觉发齐了。索尼版听感确实都很棒。
离线自作主张

发帖
340
金钱
3144
威望
80
贡献值
43
交易币
437
只看该作者 4楼 发表于: 2015-10-18
求25。。。。
离线小李

发帖
219
金钱
137
威望
98
贡献值
7
交易币
187
只看该作者 5楼 发表于: 2015-10-18
用我的10万元音箱听听,对比一下,
离线wannam

发帖
2698
金钱
86889
威望
382
贡献值
189
交易币
3341
只看该作者 6楼 发表于: 2015-10-18
太棒了,谢谢分享
离线zhouquan311

发帖
734
金钱
7691
威望
136
贡献值
66
交易币
974
只看该作者 7楼 发表于: 2015-10-18
幽灵终于出thriller了!赞!
Forever MJ
       我要去减肥,除非冰淇淋,
  
  不再那么贵,三块二毛一,
  
  我也要人陪,除非我有米,
  
  去换红玫瑰,然后送给你,
  
离线Mr灬W

发帖
1128
金钱
12839
威望
161
贡献值
56
交易币
1281
只看该作者 8楼 发表于: 2015-10-18
感谢分享!
Heal The World
离线Moses

发帖
5056
金钱
37290
威望
2951
贡献值
1521
交易币
2742
只看该作者 9楼 发表于: 2015-10-18
回 mjghosts 的帖子
mjghosts:还真的,不知不觉发齐了。索尼版听感确实都很棒。 (2015-10-17 22:26)  y-H9fWi8Y&  
RrBG=V  
90年代跨进了另1个时期  MJ已经成为了流行之王  SONY收购了CBS  而且CD技术比较成熟了
http://blog.sina.com.cn/mjjcfc
快速回复
限100 字节
 
上一个 下一个