论坛风格切换切换到宽版
  • 1076阅读
  • 23回复

[亲传][Album] 1982 Thriller [Sony Music] (US - EK 38112) - WAV整轨 ♬by幽灵 [复制链接]

上一主题 下一主题
离线mjghosts
 

发帖
8194
金钱
205392
威望
9035
贡献值
2641
交易币
4553
只看楼主 倒序阅读 楼主  发表于: 2015-10-17
— 本帖被 mjghosts 执行加亮操作(2015-10-17) —
*这张专辑不必多说,即使不是迈迷都知道。发布的CD版本为90年代的美国索尼版。全碟完美精确校准抓取!音质方面和01年修复版接近,但又比较“纯”一点,与我发布的第三版《BAD》类似,比较推荐用来听的版本。 9f hsIe  
*v9 2  
关于这张CD的更多详情请到:http://blog.sina.com.cn/s/blog_59c8cb6d0102w3n0.html
<kGU,@6PF  
| N[<x@  
注:独家整理,转载请注明出处!EAC无损整轨(压缩包内含CD图片) }T&iewk  
FFu9&8Y  
解压密码:www.mjsunny.com
tasUZ#\6  
Cj{1H([-  
xa<UM5eI  
nlW +.a[  
z([ v%zf  
f;W|\z'  
Exact Audio Copy V1.0 beta 6 from 9. April 2015 #~C]ZrK  
r76J N  
EAC 抓取日志文件从15. 十月 2015, 20:06 qz0;p=$8Z  
;"dV"W  
Michael Jackson / Thriller pe]A5\4c  
KH(%?  
使用驱动器  :MATSHITADVD-RAM UJ890AS   Adapter: 1  ID: 1 k1{K*O$e  
vms|x wb  
读取模式      : 可靠Secure dQV;3^iUY  
使用精确流     : 是 8Kg n"M3  
清空音频缓存    : 否 K{|p~B  
使用 C2 指示器 : 是 fGUE<l  
/178A;J y  
读取偏移校正:               : 102 q8/MMKCbX  
读取 Lead-In 和 Lead-Out : 否 3Dng 1}  
用静音填充抓取中丢失偏移的采样       : 是 /|tJ6T1LrB  
去除首尾静音块               : 否 @;*Ksy@1O  
在CRC 计算中使用了空样本       : 是 sDPs G5q<  
已用接口                  : Win NT 及 2000 本地 Win32 接口 &e @2  
T|nDTezr  
所用输出模式: : 内部 WAV 函数 ;_c;0)  
样本格式    : 44.100 Hz; 16 Bit; 立体声 \pPY37l  
u+Y\6~=+  
J\+0[~~  
已抓取 CD 的 TOC Q_"]+i]s@  
smlpD3?va  
     音轨 |    起始    |    长度    |  起始扇区  |  结束扇区   vx>b^tJKC  
    -------------------------------------------- Bal$+S  
      1 |  0:00.00 |  6:04.20 |      0 |  27319 v[ . cd*b  
      2 |  6:04.20 |  4:20.63 |  27320 |  46882 RSfQNc9Z  
      3 | 10:25.08 |  3:42.35 |  46883 |  63567 WffQ:L?  
      4 | 14:07.43 |  5:59.32 |  63568 |  90524 bWH&P/>  
      5 | 20:07.00 |  4:18.65 |  90525 | 109939 $mu^G t  
      6 | 24:25.65 |  4:54.30 | 109940 | 132019 UbXh,QEG*  
      7 | 29:20.20 |  4:06.25 | 132020 | 150494 x.]i }mt  
      8 | 33:26.45 |  3:59.20 | 150495 | 168439 I5`4Al  
      9 | 37:25.65 |  4:59.48 | 168440 | 190912 0@[$lv;OS  
\9cbI3rGz  
8hu<E4]L  
范围状态及错误 &b.=M>\9Q  
aI%g2 q0f  
已选择范围 SOs:]U-T3  
US+Q~GTA  
     文件名 J:\12 Music*音乐\CDImage.wav c#XXp"7k2  
Gk. ruQW"  
     峰值电平 100.0 % j5QuAU8  
     抓取速度 5.9 X 10G}{  
     范围质量 99.9 % &)YQvTzs  
     复制 CRC AA0A4159 #=D) j  
     复制成功 `uq8G  
5uGqX"  
没有错误发生 eiuSvyY  
BmBj7  
NnO~dRx{  
AccurateRip 摘要 F^l[GdUosK  
7t3X)Ah  
音轨  1  精确地校准抓取  22)  [0150C8DD]  (AR v2) z^KJ*E  
音轨  2  精确地校准抓取  21)  [B1DCC3F6]  (AR v2) D>|H 2  
音轨  3  精确地校准抓取  21)  [72BCD7E6]  (AR v2) (As#^q\>B  
音轨  4  精确地校准抓取  21)  [230F2A6B]  (AR v2) ;g8R4!J  
音轨  5  精确地校准抓取  22)  [32BE13DF]  (AR v2) ~L]|?d"  
音轨  6  精确地校准抓取  21)  [307BAA1F]  (AR v2) ]d55m/(   
音轨  7  精确地校准抓取  21)  [50E711BF]  (AR v2) ~0?mBy!-O  
音轨  8  精确地校准抓取  21)  [1FC09871]  (AR v2) n-5W*zk1  
音轨  9  精确地校准抓取  20)  [F10153BD]  (AR v2) )S`jFQ1  
YNYx>Ue  
所有音轨精确校准抓取 ()tp>  
'[J<=2&  
状态报告结尾
5?p2%KQ  
"nm FzN  
链接:http://pan.baidu.com/s/1ntNA2sL 密码: {)DHH:n  
此帖售价 10 金钱,已有 18 人购买 [记录] [购买]
购买后,将显示帖子中所有出售内容。
若发现会员采用欺骗的方法获取财富,请立刻举报,我们会对会员处以2-N倍的罚金,严重者封掉ID!
此段为出售的内容,购买后显示
离线q965488338

发帖
709
金钱
27822
威望
224
贡献值
96
交易币
1082
只看该作者 1楼 发表于: 2015-10-17
感谢!!!
离线Moses

发帖
5016
金钱
37090
威望
2951
贡献值
1521
交易币
2702
只看该作者 2楼 发表于: 2015-10-17
SONY 四版全部发起了  
离线mjghosts

发帖
8194
金钱
205392
威望
9035
贡献值
2641
交易币
4553
只看该作者 3楼 发表于: 2015-10-17
回 Moses 的帖子
Moses:SONY 四版全部发起了  [表情]  (2015-10-17 22:05)  }x#P<d(  
|3<ehvKy  
还真的,不知不觉发齐了。索尼版听感确实都很棒。
离线自作主张

发帖
335
金钱
2833
威望
78
贡献值
43
交易币
432
只看该作者 4楼 发表于: 2015-10-18
求25。。。。
离线小李

发帖
202
金钱
182
威望
98
贡献值
7
交易币
170
只看该作者 5楼 发表于: 2015-10-18
用我的10万元音箱听听,对比一下,
离线wannam

发帖
2603
金钱
80583
威望
363
贡献值
169
交易币
3246
只看该作者 6楼 发表于: 2015-10-18
太棒了,谢谢分享
离线zhouquan311

发帖
734
金钱
7691
威望
136
贡献值
66
交易币
974
只看该作者 7楼 发表于: 2015-10-18
幽灵终于出thriller了!赞!
Forever MJ
       我要去减肥,除非冰淇淋,
  
  不再那么贵,三块二毛一,
  
  我也要人陪,除非我有米,
  
  去换红玫瑰,然后送给你,
  
离线Mr灬W

发帖
1148
金钱
12944
威望
151
贡献值
46
交易币
1273
只看该作者 8楼 发表于: 2015-10-18
感谢分享!
Heal The World
离线Moses

发帖
5016
金钱
37090
威望
2951
贡献值
1521
交易币
2702
只看该作者 9楼 发表于: 2015-10-18
回 mjghosts 的帖子
mjghosts:还真的,不知不觉发齐了。索尼版听感确实都很棒。 (2015-10-17 22:26)  j'-akXo<  
?n/:1LN,  
90年代跨进了另1个时期  MJ已经成为了流行之王  SONY收购了CBS  而且CD技术比较成熟了
快速回复
限100 字节
 
上一个 下一个