论坛风格切换切换到宽版
  • 2161阅读
  • 26回复

[亲传][Album] 1982 Thriller [Sony Music] (US - EK 38112) - WAV整轨 ♬by幽灵 [复制链接]

上一主题 下一主题
离线mjghosts
 

发帖
8244
金钱
217720
威望
9174
贡献值
2723
交易币
4755
只看楼主 倒序阅读 楼主  发表于: 2015-10-17
— 本帖被 mjghosts 执行加亮操作(2015-10-17) —
*这张专辑不必多说,即使不是迈迷都知道。发布的CD版本为90年代的美国索尼版。全碟完美精确校准抓取!音质方面和01年修复版接近,但又比较“纯”一点,与我发布的第三版《BAD》类似,比较推荐用来听的版本。 v7;J%9=0D`  
b96t0w!cs  
关于这张CD的更多详情请到:http://blog.sina.com.cn/s/blog_59c8cb6d0102w3n0.html
?P""KVp o  
YDQ:eebg(  
注:独家整理,转载请注明出处!EAC无损整轨(压缩包内含CD图片) D W/1 =3  
&?.n2+T+ =  
解压密码:www.mjsunny.com
8Y2xW`  
%#~((m1  
vQ:wW',i  
t, U) ~wi  
00ofHZ  
%2f//SZ:  
Exact Audio Copy V1.0 beta 6 from 9. April 2015 -?s&pKi  
(Uk>?XAr  
EAC 抓取日志文件从15. 十月 2015, 20:06 pkJ/oT  
E<>*(x/\e  
Michael Jackson / Thriller 0Vkl`DmeM.  
B z^|SkEit  
使用驱动器  :MATSHITADVD-RAM UJ890AS   Adapter: 1  ID: 1 xg<Hxn,<M  
)=J5\3O*x  
读取模式      : 可靠Secure ]PWDE"  
使用精确流     : 是 :IMdN}(L  
清空音频缓存    : 否 G,f-.  
使用 C2 指示器 : 是 a2w T6jY  
-`b8T0?oK  
读取偏移校正:               : 102 p =(@3%k  
读取 Lead-In 和 Lead-Out : 否 6Wj^*L!  
用静音填充抓取中丢失偏移的采样       : 是 ~g#r6pzN-  
去除首尾静音块               : 否 `'I{U5;e  
在CRC 计算中使用了空样本       : 是 vI1i, x#i  
已用接口                  : Win NT 及 2000 本地 Win32 接口 K+*Q@R D  
\1"'E@+  
所用输出模式: : 内部 WAV 函数 tVuWVJ4M  
样本格式    : 44.100 Hz; 16 Bit; 立体声 =GlVccc  
Tm}rH]F&  
Vj<:GRNQ,d  
已抓取 CD 的 TOC C+[%7vF1  
k.<]4iS  
     音轨 |    起始    |    长度    |  起始扇区  |  结束扇区   m>USD? i  
    -------------------------------------------- =4V&*go*\  
      1 |  0:00.00 |  6:04.20 |      0 |  27319 1b=lpw 1}  
      2 |  6:04.20 |  4:20.63 |  27320 |  46882 fjvN$NgVs  
      3 | 10:25.08 |  3:42.35 |  46883 |  63567 |*Z$E$k:  
      4 | 14:07.43 |  5:59.32 |  63568 |  90524 XE^)VLH:  
      5 | 20:07.00 |  4:18.65 |  90525 | 109939 COH<Tj  
      6 | 24:25.65 |  4:54.30 | 109940 | 132019 %X#zj"  
      7 | 29:20.20 |  4:06.25 | 132020 | 150494 $kR N h6  
      8 | 33:26.45 |  3:59.20 | 150495 | 168439 Gt9&)/#  
      9 | 37:25.65 |  4:59.48 | 168440 | 190912 .<kqJ|SVi  
j*~T1i  
[+qCs7'  
范围状态及错误 V5}B:SUB  
DTWD |M  
已选择范围 )BRKZQN  
Web|\CH  
     文件名 J:\12 Music*音乐\CDImage.wav CbN!1E6).  
J,b&XD@m  
     峰值电平 100.0 % 7Pa@1']  
     抓取速度 5.9 X $+7`Dy!  
     范围质量 99.9 % < })'Y~i  
     复制 CRC AA0A4159 E= `6-H{  
     复制成功 Y"KE7>Jf  
7#wn<HDY%  
没有错误发生 <x!GE>sf+  
DLCkM*'  
T7f ${  
AccurateRip 摘要 u<n Lag  
R<V!%rL;;  
音轨  1  精确地校准抓取  22)  [0150C8DD]  (AR v2) qgDRu]ba  
音轨  2  精确地校准抓取  21)  [B1DCC3F6]  (AR v2) :\=CRaA  
音轨  3  精确地校准抓取  21)  [72BCD7E6]  (AR v2) ox ;  
音轨  4  精确地校准抓取  21)  [230F2A6B]  (AR v2) Dwl3 Cj  
音轨  5  精确地校准抓取  22)  [32BE13DF]  (AR v2) YX*Qd$chZ  
音轨  6  精确地校准抓取  21)  [307BAA1F]  (AR v2) `g,8-  
音轨  7  精确地校准抓取  21)  [50E711BF]  (AR v2) )7:J[0ZiQ  
音轨  8  精确地校准抓取  21)  [1FC09871]  (AR v2) CNww`PX,zZ  
音轨  9  精确地校准抓取  20)  [F10153BD]  (AR v2) *x) 8fAr  
z ;u  
所有音轨精确校准抓取 OnWx#84  
\qUKP"dr  
状态报告结尾
gqWupL  
A0%}v*  
链接:http://pan.baidu.com/s/1ntNA2sL 密码: wd/< 8>2X  
此帖售价 10 金钱,已有 21 人购买 [记录] [购买]
购买后,将显示帖子中所有出售内容。
若发现会员采用欺骗的方法获取财富,请立刻举报,我们会对会员处以2-N倍的罚金,严重者封掉ID!
此段为出售的内容,购买后显示
离线q965488338

发帖
709
金钱
28390
威望
224
贡献值
96
交易币
1082
只看该作者 1楼 发表于: 2015-10-17
感谢!!!
在线Moses

发帖
5060
金钱
37310
威望
2951
贡献值
1521
交易币
2746
只看该作者 2楼 发表于: 2015-10-17
SONY 四版全部发起了  
http://blog.sina.com.cn/mjjcfc
离线mjghosts

发帖
8244
金钱
217720
威望
9174
贡献值
2723
交易币
4755
只看该作者 3楼 发表于: 2015-10-17
回 Moses 的帖子
Moses:SONY 四版全部发起了  [表情]  (2015-10-17 22:05)  JY,l#?lM{  
A_4\$NZ^  
还真的,不知不觉发齐了。索尼版听感确实都很棒。
离线自作主张

发帖
346
金钱
3101
威望
80
贡献值
43
交易币
443
只看该作者 4楼 发表于: 2015-10-18
求25。。。。
离线小李

发帖
236
金钱
1405
威望
9
贡献值
8
交易币
208
只看该作者 5楼 发表于: 2015-10-18
用我的10万元音箱听听,对比一下,
离线wannam

发帖
2702
金钱
87012
威望
382
贡献值
189
交易币
3345
只看该作者 6楼 发表于: 2015-10-18
太棒了,谢谢分享
离线zhouquan311

发帖
734
金钱
7771
威望
136
贡献值
66
交易币
974
只看该作者 7楼 发表于: 2015-10-18
幽灵终于出thriller了!赞!
Forever MJ
       我要去减肥,除非冰淇淋,
  
  不再那么贵,三块二毛一,
  
  我也要人陪,除非我有米,
  
  去换红玫瑰,然后送给你,
  
离线Mr灬W

发帖
1129
金钱
12950
威望
161
贡献值
56
交易币
1282
只看该作者 8楼 发表于: 2015-10-18
感谢分享!
Heal The World
在线Moses

发帖
5060
金钱
37310
威望
2951
贡献值
1521
交易币
2746
只看该作者 9楼 发表于: 2015-10-18
回 mjghosts 的帖子
mjghosts:还真的,不知不觉发齐了。索尼版听感确实都很棒。 (2015-10-17 22:26)  #qh ,  
X^Z!!KTH  
90年代跨进了另1个时期  MJ已经成为了流行之王  SONY收购了CBS  而且CD技术比较成熟了
http://blog.sina.com.cn/mjjcfc
快速回复
限100 字节
 
上一个 下一个