论坛风格切换切换到宽版
  • 960阅读
  • 19回复

[亲传][Unofficial, Comp] 1996 Michael Jackson Remixed Supergold (MYS - JDL 6155) - WAV整轨 ♬by幽灵 [复制链接]

上一主题 下一主题
在线mjghosts
 

发帖
8233
金钱
208943
威望
9161
贡献值
2712
交易币
4672
只看楼主 倒序阅读 楼主  发表于: 2015-10-21
— 本帖被 mjghosts 执行加亮操作(2015-10-21) —
特别感谢:mj乱舞 s${ew.eW  
/Ii a>XY  
*1996年马来西亚发行,CD也是他朋友从马来西亚购入,极稀有且质量颇高的一张非官方混音辑!* PQDW Y  
: A9G>qg  
Tracklist q$7SJ.pF  
1 Smooth Criminal (Ben Liebrand's Extended Remix)    7:04 7#wdBB%  
2 Dirty Diana (Alan Coulthard Remix Longue)    6:44 d[eN#<  
3 Bad (Ben Liebrand's Extended Dance Remix)    7:52【强烈推荐】 I@ "%iYL  
4 Jam (Roger's Jeep Remix)    6:00 QU{|S.\  
5 Black Or White (Guitar House Mix)    3:53 >..C^8 "  
6 Earth Song (Special Radio Experience Remix)    3:34  #4?Z|_j3  
7 Don't Stop 'Till You Get Enough (Roger's Underground Solution Mix)    6:19 ]N<:6+  
8 Remember The Time (The E-smoove's Late-Nite-Mix)    7:21 vK@t=d  
9 Rock With You (Mike's Clubhouse Mix)    7:33 I#?NxP\S  
10 Billie Jean (Down-And-Up Remix)    8:34 _\mMgZu  
11 Who Is It (The Most Patient Mix)    7:42 `*Ar6  
'Ll,HgU;  
注:独家整理,转载请注明出处!EAC无损整轨(压缩包内含CD图片)  J^"  
ZMFV iE;8  
解压密码:www.mjsunny.com
pzL !42  
KaRdO  
YbX3_N&  
H ?ZlJ|/c  
Ws_R S%  
Exact Audio Copy V1.0 beta 6 from 9. April 2015 ,VtrQb)Yf  
"!\ON)l*  
EAC 抓取日志文件从20. 十月 2015, 15:38 ve#*qz Y  
>o\s'i[  
Jackson, Michael / Remixed Supergold bC[TLsh7{2  
A (:7q4  
使用驱动器  :MATSHITADVD-RAM UJ890AS   Adapter: 1  ID: 1 . *9+%FN  
. kv/db  
读取模式      : 可靠Secure F W?zJ  
使用精确流     : 是 .Pp;%  
清空音频缓存    : 否 tb%u<jY  
使用 C2 指示器 : 是 Rnl 4  
s_`PPl_D$K  
读取偏移校正:               : 102 [1I>Bc&o*  
读取 Lead-In 和 Lead-Out : 否 (}$~)f#s  
用静音填充抓取中丢失偏移的采样       : 是 ?q}XD c  
去除首尾静音块               : 否 HA +EuQE"  
在CRC 计算中使用了空样本       : 是 k\:f2%!!  
已用接口                  : Win NT 及 2000 本地 Win32 接口 un+U_|>c  
^7l.!s#$b  
所用输出模式: : 内部 WAV 函数 Vrz6<c-'B  
样本格式    : 44.100 Hz; 16 Bit; 立体声 G4!$48  
;l]OmcL  
_$OhV#LKG  
已抓取 CD 的 TOC IN? A`A  
Zi+>#kDV  
     音轨 |    起始    |    长度    |  起始扇区  |  结束扇区   {FR#je  
    -------------------------------------------- @@U'I^iG  
      1 |  0:00.30 |  7:02.57 |     30 |  31736 MC5M><5\  
      2 |  7:03.12 |  6:49.53 |  31737 |  62464 %m'd~#pze  
      3 | 13:52.65 |  7:54.46 |  62465 |  98060 q9- =>  
      4 | 21:47.36 |  6:03.61 |  98061 | 125346 5 ^}zysY`  
      5 | 27:51.22 |  3:54.36 | 125347 | 142932 XVi?- /2  
      6 | 31:45.58 |  3:36.65 | 142933 | 159197 P,Fs7  
      7 | 35:22.48 |  6:19.66 | 159198 | 187688 9:^SnHAa  
      8 | 41:42.39 |  7:23.28 | 187689 | 220941 c ?mCt0Cg  
      9 | 49:05.67 |  7:36.04 | 220942 | 255145 dBY,&=T4p  
     10 | 56:41.71 |  8:35.14 | 255146 | 293784 T78`~-D4<  
     11 | 65:17.10 |  7:42.19 | 293785 | 328453 6\(wU?m'/  
uzL)qH$b  
m4(:H(Za  
范围状态及错误 +_uT1PsBY  
yyfm  
已选择范围 _*B]yz6z  
2SEfEkk  
     文件名 J:\12 Music*音乐\Jackson, Michael - Remixed Supergold.wav h9c54Ux  
PiXegh WH  
     峰值电平 100.0 % F>E'/r*  
     抓取速度 7.0 X zb Z0BD7e  
     范围质量 100.0 % y ?]G OQI  
     复制 CRC 858ED32B 61>@-55k9  
     复制成功 w+ gA3Dg  
:%Na-j9hV)  
没有错误发生 Wfgs[  
=z^v)=uhp  
/PF X1hSu  
AccurateRip 摘要 tK{2'e6x  
Z5[TmVU  
音轨  1  不能准确地校验 (确认 1)  [49A0205D], 返回 AccurateRip [31F03509]  (AR v2) /H&:  
音轨  2  不能准确地校验 (确认 1)  [78149F06], 返回 AccurateRip [B41277F6]  (AR v2) {^ 1s  
音轨  3  不能准确地校验 (确认 1)  [58196C78], 返回 AccurateRip [523BDE33]  (AR v2) \Tq Km  
音轨  4  不能准确地校验 (确认 1)  [E92C44BB], 返回 AccurateRip [5A3B4CF6]  (AR v2) 'p,QI>  
音轨  5  不能准确地校验 (确认 1)  [1D8BC071], 返回 AccurateRip [FBB2EAAE]  (AR v2) '^ "6EF.R  
音轨  6  不能准确地校验 (确认 1)  [C48A4A64], 返回 AccurateRip [F0C7C3AD]  (AR v2) 9v&{; %U  
音轨  7  不能准确地校验 (确认 1)  [1BD3E724], 返回 AccurateRip [632B71BA]  (AR v2) L9[? qFp  
音轨  8  不能准确地校验 (确认 1)  [3F2DDC8C], 返回 AccurateRip [F26C3140]  (AR v2) `P}T{!P+6  
音轨  9  不能准确地校验 (确认 1)  [AF0E8149], 返回 AccurateRip [C01680BB]  (AR v2) aY7kl  
音轨 10  不能准确地校验 (确认 1)  [BEABA90A], 返回 AccurateRip [694256EB]  (AR v2) ]Ija,C!#  
音轨 11  不能准确地校验 (确认 1)  [8F16EEA6], 返回 AccurateRip [D12F121B]  (AR v2)  so_  
s8iJl+Jm  
没有音轨被准确核实 d54(6N%  
你的版本可能与数据库的版本不同 xq1 =O  
k6-.XW  
状态报告结尾
KA1Z{7UK%  
6Ouy%]0$I3  
链接:http://pan.baidu.com/s/1jGxs0QE 密码: PEZ~og:w  
此帖售价 40 金钱,已有 16 人购买 [记录] [购买]
购买后,将显示帖子中所有出售内容。
若发现会员采用欺骗的方法获取财富,请立刻举报,我们会对会员处以2-N倍的罚金,严重者封掉ID!
此段为出售的内容,购买后显示
2条评分金钱+20威望+5
大彩电 威望 +5   2015-10-21
大彩电 金钱 +20   2015-10-21
离线nanhu

发帖
3792
金钱
57342
威望
2327
贡献值
1153
交易币
6507
只看该作者 1楼 发表于: 2015-10-21
赞一个,没听过,期待一下!
离线小李

发帖
208
金钱
187
威望
98
贡献值
7
交易币
176
只看该作者 2楼 发表于: 2015-10-21
谢谢,听听,第三首歌曲好像1分钟左右卡了一下
离线wannam

发帖
2680
金钱
86709
威望
382
贡献值
189
交易币
3323
只看该作者 3楼 发表于: 2015-10-21
nice sharing,
离线Mr灬W

发帖
1156
金钱
12831
威望
161
贡献值
56
交易币
1281
只看该作者 4楼 发表于: 2015-10-21
好!感谢分享!好好听一下~
Heal The World
离线blackbc

发帖
462
金钱
187
威望
185
贡献值
2
交易币
122
只看该作者 5楼 发表于: 2015-10-21
哇~鲜货~!谢啦~~!
离线mich008

发帖
785
金钱
4926
威望
24
贡献值
15
交易币
847
只看该作者 6楼 发表于: 2015-10-21
好耶 楼主全都发布了 也感谢mj乱舞
在线mjghosts

发帖
8233
金钱
208943
威望
9161
贡献值
2712
交易币
4672
只看该作者 7楼 发表于: 2015-10-21
回 小李 的帖子
小李:谢谢,听听,第三首歌曲好像1分钟左右卡了一下 (2015-10-21 12:46)  =" Q5Z6W  
2eErvfC[  
是的没错。
离线mayokeen

发帖
182
金钱
1669
威望
37
贡献值
17
交易币
251
只看该作者 8楼 发表于: 2015-10-22
nice /_Z--s> j  
1111

离线迈舞旋转

发帖
1252
金钱
5732
威望
163
贡献值
128
交易币
1717
只看该作者 9楼 发表于: 2015-10-22
新混音确实对我有很大的吸引力
快速回复
限100 字节
 
上一个 下一个