论坛风格切换切换到宽版
  • 1623阅读
  • 21回复

[亲传][Unofficial, Comp] 1996 Michael Jackson Remixed Supergold (MYS - JDL 6155) - WAV整轨 ♬by幽灵 [复制链接]

上一主题 下一主题
离线mjghosts
 

发帖
8240
金钱
216247
威望
9172
贡献值
2721
交易币
4743
只看楼主 倒序阅读 楼主  发表于: 2015-10-21
— 本帖被 mjghosts 执行加亮操作(2015-10-21) —
特别感谢:mj乱舞 ?:I*8Fj  
f=gW]x7'R+  
*1996年马来西亚发行,CD也是他朋友从马来西亚购入,极稀有且质量颇高的一张非官方混音辑!* `1{ZqRFQ  
}1i`6`y1  
Tracklist Yz"#^j}Kg  
1 Smooth Criminal (Ben Liebrand's Extended Remix)    7:04 QIvVcfM^  
2 Dirty Diana (Alan Coulthard Remix Longue)    6:44 u jq=F  
3 Bad (Ben Liebrand's Extended Dance Remix)    7:52【强烈推荐】 i&66Fi1  
4 Jam (Roger's Jeep Remix)    6:00 (X1e5j>Ru  
5 Black Or White (Guitar House Mix)    3:53 FR4QUk  
6 Earth Song (Special Radio Experience Remix)    3:34 mD0f<gJ1  
7 Don't Stop 'Till You Get Enough (Roger's Underground Solution Mix)    6:19 Z/;(f L  
8 Remember The Time (The E-smoove's Late-Nite-Mix)    7:21 <+Dn8  
9 Rock With You (Mike's Clubhouse Mix)    7:33 _jI,)sr4ic  
10 Billie Jean (Down-And-Up Remix)    8:34 ~u!|qM  
11 Who Is It (The Most Patient Mix)    7:42 ^ft>@=K(|  
'(VJ&UlS2  
注:独家整理,转载请注明出处!EAC无损整轨(压缩包内含CD图片) nntuLuW  
1onM j  
解压密码:www.mjsunny.com
,j}6? Q  
 u\x}8pn  
el<s8:lA  
^q vbqfh  
.fFCC`&T  
Exact Audio Copy V1.0 beta 6 from 9. April 2015 +I:Unp  
qIE9$7*X  
EAC 抓取日志文件从20. 十月 2015, 15:38 +nhLIO{{L  
qI9z;_,gNz  
Jackson, Michael / Remixed Supergold F>6|3bOR  
l0w]`EE  
使用驱动器  :MATSHITADVD-RAM UJ890AS   Adapter: 1  ID: 1 DE8n+Rm  
]BZA:dd.G  
读取模式      : 可靠Secure J26 VnK  
使用精确流     : 是 *3FKt&v 0  
清空音频缓存    : 否 t!X. |`h  
使用 C2 指示器 : 是 E\EsWb  
8z`G,qh  
读取偏移校正:               : 102 On.{!:"I/  
读取 Lead-In 和 Lead-Out : 否 9};8?mucr  
用静音填充抓取中丢失偏移的采样       : 是 ,HV(l+k {|  
去除首尾静音块               : 否 B{#I:Rs9  
在CRC 计算中使用了空样本       : 是 pRpBhm;iJ  
已用接口                  : Win NT 及 2000 本地 Win32 接口 !hy-L_wL]  
iy!=6  
所用输出模式: : 内部 WAV 函数 >\#*P'y`d  
样本格式    : 44.100 Hz; 16 Bit; 立体声 tw/dD +  
1(R}tRR7R  
G~[x 3L'  
已抓取 CD 的 TOC RSRS wkC  
pYEMmZ?L  
     音轨 |    起始    |    长度    |  起始扇区  |  结束扇区   J yK3{wYS  
    -------------------------------------------- t!l&iVWs  
      1 |  0:00.30 |  7:02.57 |     30 |  31736 Wvh#:Z  
      2 |  7:03.12 |  6:49.53 |  31737 |  62464 uH^-R_tQ  
      3 | 13:52.65 |  7:54.46 |  62465 |  98060 "HIRTE;&  
      4 | 21:47.36 |  6:03.61 |  98061 | 125346 C{rcs'  
      5 | 27:51.22 |  3:54.36 | 125347 | 142932 PC8Q"O  
      6 | 31:45.58 |  3:36.65 | 142933 | 159197 90rol~M&  
      7 | 35:22.48 |  6:19.66 | 159198 | 187688 J/$&NWF  
      8 | 41:42.39 |  7:23.28 | 187689 | 220941 ouQ T  
      9 | 49:05.67 |  7:36.04 | 220942 | 255145 TD0 B%  
     10 | 56:41.71 |  8:35.14 | 255146 | 293784 #;e:A8IQ  
     11 | 65:17.10 |  7:42.19 | 293785 | 328453 8nV+e~-w  
Y:[u1~a  
#\OA)`U  
范围状态及错误 (\x]YMLH  
q/,O\,  
已选择范围 26h21Z16q  
'H;*W|:-]  
     文件名 J:\12 Music*音乐\Jackson, Michael - Remixed Supergold.wav JWxwJex  
YT,{E,U;  
     峰值电平 100.0 % ;2QP7PrSY  
     抓取速度 7.0 X "w<#^d_6  
     范围质量 100.0 % ox.F%)eQ  
     复制 CRC 858ED32B Ny/MJ#Lq  
     复制成功 4*;MJ[|  
jL}v9$  
没有错误发生 0"z9Q\{}  
COlaD"Y  
lp8v0e4  
AccurateRip 摘要 2X&qE}%k S  
dAj$1Ke  
音轨  1  不能准确地校验 (确认 1)  [49A0205D], 返回 AccurateRip [31F03509]  (AR v2) c:.eGH_f  
音轨  2  不能准确地校验 (确认 1)  [78149F06], 返回 AccurateRip [B41277F6]  (AR v2) bg0Wnl  
音轨  3  不能准确地校验 (确认 1)  [58196C78], 返回 AccurateRip [523BDE33]  (AR v2) wz8yD8M  
音轨  4  不能准确地校验 (确认 1)  [E92C44BB], 返回 AccurateRip [5A3B4CF6]  (AR v2) RG`1en  
音轨  5  不能准确地校验 (确认 1)  [1D8BC071], 返回 AccurateRip [FBB2EAAE]  (AR v2) /a o5FL  
音轨  6  不能准确地校验 (确认 1)  [C48A4A64], 返回 AccurateRip [F0C7C3AD]  (AR v2) m l$o5&sN  
音轨  7  不能准确地校验 (确认 1)  [1BD3E724], 返回 AccurateRip [632B71BA]  (AR v2) ?z u8)U  
音轨  8  不能准确地校验 (确认 1)  [3F2DDC8C], 返回 AccurateRip [F26C3140]  (AR v2) bN@ l?w  
音轨  9  不能准确地校验 (确认 1)  [AF0E8149], 返回 AccurateRip [C01680BB]  (AR v2) n(]-y@X0_  
音轨 10  不能准确地校验 (确认 1)  [BEABA90A], 返回 AccurateRip [694256EB]  (AR v2) |zE'd!7E  
音轨 11  不能准确地校验 (确认 1)  [8F16EEA6], 返回 AccurateRip [D12F121B]  (AR v2) 5/z/>D;  
WMg~Y"W  
没有音轨被准确核实 9~YMyg(Z  
你的版本可能与数据库的版本不同 /H+a0`/  
GowH]MO  
状态报告结尾
=E{`^IT'R  
7T'B6`-Ox  
链接:http://pan.baidu.com/s/1jGxs0QE 密码: Vs{|xG7W D  
此帖售价 40 金钱,已有 18 人购买 [记录] [购买]
购买后,将显示帖子中所有出售内容。
若发现会员采用欺骗的方法获取财富,请立刻举报,我们会对会员处以2-N倍的罚金,严重者封掉ID!
此段为出售的内容,购买后显示
2条评分金钱+20威望+5
大彩电 威望 +5   2015-10-21
大彩电 金钱 +20   2015-10-21
离线nanhu

发帖
3794
金钱
58028
威望
2441
贡献值
1364
交易币
6533
只看该作者 1楼 发表于: 2015-10-21
赞一个,没听过,期待一下!
离线小李

发帖
232
金钱
230
威望
99
贡献值
8
交易币
204
只看该作者 2楼 发表于: 2015-10-21
谢谢,听听,第三首歌曲好像1分钟左右卡了一下
离线wannam

发帖
2701
金钱
86995
威望
382
贡献值
189
交易币
3344
只看该作者 3楼 发表于: 2015-10-21
nice sharing,
离线Mr灬W

发帖
1129
金钱
12950
威望
161
贡献值
56
交易币
1282
只看该作者 4楼 发表于: 2015-10-21
好!感谢分享!好好听一下~
Heal The World
离线blackbc

发帖
467
金钱
207
威望
185
贡献值
2
交易币
127
只看该作者 5楼 发表于: 2015-10-21
哇~鲜货~!谢啦~~!
离线mich008

发帖
824
金钱
5499
威望
24
贡献值
15
交易币
886
只看该作者 6楼 发表于: 2015-10-21
好耶 楼主全都发布了 也感谢mj乱舞
离线mjghosts

发帖
8240
金钱
216247
威望
9172
贡献值
2721
交易币
4743
只看该作者 7楼 发表于: 2015-10-21
回 小李 的帖子
小李:谢谢,听听,第三首歌曲好像1分钟左右卡了一下 (2015-10-21 12:46)  D4CN%^?  
^qs{Cf$  
是的没错。
离线mayokeen

发帖
182
金钱
1669
威望
37
贡献值
17
交易币
251
只看该作者 8楼 发表于: 2015-10-22
nice Qtmsk:qm  
1111

离线迈舞旋转

发帖
1262
金钱
5558
威望
163
贡献值
128
交易币
1727
只看该作者 9楼 发表于: 2015-10-22
新混音确实对我有很大的吸引力
快速回复
限100 字节
 
上一个 下一个