论坛风格切换切换到宽版
  • 906阅读
  • 19回复

[亲传][Unofficial, Comp] 1996 Michael Jackson Remixed Supergold (MYS - JDL 6155) - WAV整轨 ♬by幽灵 [复制链接]

上一主题 下一主题
在线mjghosts
 

发帖
8200
金钱
205628
威望
9039
贡献值
2645
交易币
4575
只看楼主 倒序阅读 楼主  发表于: 2015-10-21
— 本帖被 mjghosts 执行加亮操作(2015-10-21) —
特别感谢:mj乱舞 )Qp?N<&'  
WP2|0ib  
*1996年马来西亚发行,CD也是他朋友从马来西亚购入,极稀有且质量颇高的一张非官方混音辑!* Mf/zSQk+  
^3*/x%A,g  
Tracklist %]r@vjeyd  
1 Smooth Criminal (Ben Liebrand's Extended Remix)    7:04 6@ ToPbj4  
2 Dirty Diana (Alan Coulthard Remix Longue)    6:44 [0Z r z+q  
3 Bad (Ben Liebrand's Extended Dance Remix)    7:52【强烈推荐】 NVcL9"ht*@  
4 Jam (Roger's Jeep Remix)    6:00 )0yY|E\  
5 Black Or White (Guitar House Mix)    3:53 vd9l1"S  
6 Earth Song (Special Radio Experience Remix)    3:34 fS w00F{T  
7 Don't Stop 'Till You Get Enough (Roger's Underground Solution Mix)    6:19 TStu)6%`  
8 Remember The Time (The E-smoove's Late-Nite-Mix)    7:21 ^7.864  
9 Rock With You (Mike's Clubhouse Mix)    7:33 m!$"-nh9  
10 Billie Jean (Down-And-Up Remix)    8:34 :@`Ll;G  
11 Who Is It (The Most Patient Mix)    7:42 '2WYbcU  
|F iL1_  
注:独家整理,转载请注明出处!EAC无损整轨(压缩包内含CD图片) z%hB=V!~91  
yLW iY~Fd  
解压密码:www.mjsunny.com
k =ru) _$2  
c#<v:b  
0mF3Vs`-Q  
G)?VC^Q  
'&I.w p`^  
Exact Audio Copy V1.0 beta 6 from 9. April 2015 od"Oq?~/t  
Q0Y0Zt,h  
EAC 抓取日志文件从20. 十月 2015, 15:38 21O!CvX   
bJ*jJl x  
Jackson, Michael / Remixed Supergold qt=gz6!  
6+b!|`?l+  
使用驱动器  :MATSHITADVD-RAM UJ890AS   Adapter: 1  ID: 1 Vahfz8~w/  
y m<3  
读取模式      : 可靠Secure &> tmzlww  
使用精确流     : 是 ~5<-&Dyp7  
清空音频缓存    : 否 R#.FfWTZ  
使用 C2 指示器 : 是 x9)^0Hbo  
PTfTT_t  
读取偏移校正:               : 102 *^e06xc:  
读取 Lead-In 和 Lead-Out : 否 |B yw]\3v  
用静音填充抓取中丢失偏移的采样       : 是 0\*[7!`s  
去除首尾静音块               : 否 kXK D>."E*  
在CRC 计算中使用了空样本       : 是 p2s*'dab7  
已用接口                  : Win NT 及 2000 本地 Win32 接口 w-9M{Es+j  
:%-xiv  
所用输出模式: : 内部 WAV 函数 faH113nc  
样本格式    : 44.100 Hz; 16 Bit; 立体声 kH:! 7L_=  
g*]Gc%  
[AgS@^"sf5  
已抓取 CD 的 TOC R)4L]ZF  
mhTi{t_fHM  
     音轨 |    起始    |    长度    |  起始扇区  |  结束扇区   !5 8j xh  
    -------------------------------------------- 'Bul_D4B  
      1 |  0:00.30 |  7:02.57 |     30 |  31736 v 809/c*  
      2 |  7:03.12 |  6:49.53 |  31737 |  62464 ,D#ssxV  
      3 | 13:52.65 |  7:54.46 |  62465 |  98060 ;Ohabbj*  
      4 | 21:47.36 |  6:03.61 |  98061 | 125346 "zpc)'$ L=  
      5 | 27:51.22 |  3:54.36 | 125347 | 142932 >;|~ z\8  
      6 | 31:45.58 |  3:36.65 | 142933 | 159197 T_T@0`7  
      7 | 35:22.48 |  6:19.66 | 159198 | 187688 (- ]A1WQ?  
      8 | 41:42.39 |  7:23.28 | 187689 | 220941 TCb 7-s  
      9 | 49:05.67 |  7:36.04 | 220942 | 255145 "DWw]\xO](  
     10 | 56:41.71 |  8:35.14 | 255146 | 293784 |ATz<"q>  
     11 | 65:17.10 |  7:42.19 | 293785 | 328453 SEf:u  
nDiy[Y-4Wp  
n2e#rn  
范围状态及错误 "'# 18&N  
UG@9X/l}  
已选择范围 Rw j4  
D9hV`fA  
     文件名 J:\12 Music*音乐\Jackson, Michael - Remixed Supergold.wav H K]-QTEn  
f1Az|h  
     峰值电平 100.0 % 5mtsN#  
     抓取速度 7.0 X =sp5.-r  
     范围质量 100.0 % ~!t#M2Sk  
     复制 CRC 858ED32B -@I+IKz  
     复制成功 t9QnEP'  
t9U-c5bR  
没有错误发生 s%6{X48vY^  
EC:u;2f!  
+o ;}*  
AccurateRip 摘要 @5=2+ M  
q{c/TRp7  
音轨  1  不能准确地校验 (确认 1)  [49A0205D], 返回 AccurateRip [31F03509]  (AR v2) MEI.wJZ  
音轨  2  不能准确地校验 (确认 1)  [78149F06], 返回 AccurateRip [B41277F6]  (AR v2) B-.QGf8K.  
音轨  3  不能准确地校验 (确认 1)  [58196C78], 返回 AccurateRip [523BDE33]  (AR v2) n N_Ylw  
音轨  4  不能准确地校验 (确认 1)  [E92C44BB], 返回 AccurateRip [5A3B4CF6]  (AR v2) `Lr I^9Z  
音轨  5  不能准确地校验 (确认 1)  [1D8BC071], 返回 AccurateRip [FBB2EAAE]  (AR v2) \'>8 (i~  
音轨  6  不能准确地校验 (确认 1)  [C48A4A64], 返回 AccurateRip [F0C7C3AD]  (AR v2) !l7D1i~  
音轨  7  不能准确地校验 (确认 1)  [1BD3E724], 返回 AccurateRip [632B71BA]  (AR v2) tsWzM9Yf  
音轨  8  不能准确地校验 (确认 1)  [3F2DDC8C], 返回 AccurateRip [F26C3140]  (AR v2) ]nQC  
音轨  9  不能准确地校验 (确认 1)  [AF0E8149], 返回 AccurateRip [C01680BB]  (AR v2) U 6`E\?d`  
音轨 10  不能准确地校验 (确认 1)  [BEABA90A], 返回 AccurateRip [694256EB]  (AR v2) D&]dlY@*  
音轨 11  不能准确地校验 (确认 1)  [8F16EEA6], 返回 AccurateRip [D12F121B]  (AR v2) M!#[(:  
dFw>SYrpu  
没有音轨被准确核实 _c@k>"_{S  
你的版本可能与数据库的版本不同 ?c0@A*:o  
 cq,8^o&  
状态报告结尾
=.9uuF:  
iO2%$Jw9\  
链接:http://pan.baidu.com/s/1jGxs0QE 密码: QBwgI>zfS"  
此帖售价 40 金钱,已有 16 人购买 [记录] [购买]
购买后,将显示帖子中所有出售内容。
若发现会员采用欺骗的方法获取财富,请立刻举报,我们会对会员处以2-N倍的罚金,严重者封掉ID!
此段为出售的内容,购买后显示
2条评分金钱+20威望+5
大彩电 威望 +5   2015-10-21
大彩电 金钱 +20   2015-10-21
离线nanhu

发帖
3790
金钱
57183
威望
2311
贡献值
1152
交易币
6501
只看该作者 1楼 发表于: 2015-10-21
赞一个,没听过,期待一下!
离线小李

发帖
202
金钱
182
威望
98
贡献值
7
交易币
170
只看该作者 2楼 发表于: 2015-10-21
谢谢,听听,第三首歌曲好像1分钟左右卡了一下
离线wannam

发帖
2607
金钱
80608
威望
363
贡献值
169
交易币
3250
只看该作者 3楼 发表于: 2015-10-21
nice sharing,
在线Mr灬W

发帖
1148
金钱
12944
威望
151
贡献值
46
交易币
1273
只看该作者 4楼 发表于: 2015-10-21
好!感谢分享!好好听一下~
Heal The World
离线blackbc

发帖
461
金钱
184
威望
185
贡献值
2
交易币
121
只看该作者 5楼 发表于: 2015-10-21
哇~鲜货~!谢啦~~!
离线mich008

发帖
761
金钱
5008
威望
24
贡献值
15
交易币
823
只看该作者 6楼 发表于: 2015-10-21
好耶 楼主全都发布了 也感谢mj乱舞
在线mjghosts

发帖
8200
金钱
205628
威望
9039
贡献值
2645
交易币
4575
只看该作者 7楼 发表于: 2015-10-21
回 小李 的帖子
小李:谢谢,听听,第三首歌曲好像1分钟左右卡了一下 (2015-10-21 12:46)  U<'$ \ P  
IEfm>N-]  
是的没错。
离线mayokeen

发帖
180
金钱
1740
威望
37
贡献值
17
交易币
249
只看该作者 8楼 发表于: 2015-10-22
nice b#_u.vP  
1111

离线迈舞旋转

发帖
1251
金钱
5729
威望
163
贡献值
128
交易币
1716
只看该作者 9楼 发表于: 2015-10-22
新混音确实对我有很大的吸引力
快速回复
限100 字节
 
上一个 下一个