论坛风格切换切换到宽版
  • 841阅读
  • 19回复

[亲传][Unofficial, Comp] 1996 Michael Jackson Remixed Supergold (MYS - JDL 6155) - WAV整轨 ♬by幽灵 [复制链接]

上一主题 下一主题
离线mjghosts
 

发帖
8191
金钱
204337
威望
9035
贡献值
2641
交易币
4550
只看楼主 倒序阅读 楼主  发表于: 2015-10-21
— 本帖被 mjghosts 执行加亮操作(2015-10-21) —
特别感谢:mj乱舞 j3Od7bBS]  
uf6egm5 ]  
*1996年马来西亚发行,CD也是他朋友从马来西亚购入,极稀有且质量颇高的一张非官方混音辑!* 4uXGp sL  
>w3C Ku<  
Tracklist T3wTMbZ!VK  
1 Smooth Criminal (Ben Liebrand's Extended Remix)    7:04 TO6F  
2 Dirty Diana (Alan Coulthard Remix Longue)    6:44 N[_T3(  
3 Bad (Ben Liebrand's Extended Dance Remix)    7:52【强烈推荐】 D!`[fjs6A  
4 Jam (Roger's Jeep Remix)    6:00 xV> .]  
5 Black Or White (Guitar House Mix)    3:53 /!]K+6>u  
6 Earth Song (Special Radio Experience Remix)    3:34 LIDi0jbrq  
7 Don't Stop 'Till You Get Enough (Roger's Underground Solution Mix)    6:19 | .jWz.c  
8 Remember The Time (The E-smoove's Late-Nite-Mix)    7:21 V IzIl\<aM  
9 Rock With You (Mike's Clubhouse Mix)    7:33 -'&l!23a~  
10 Billie Jean (Down-And-Up Remix)    8:34 f#s6 'g  
11 Who Is It (The Most Patient Mix)    7:42 QbJ7$ ,4  
If&))$7u  
注:独家整理,转载请注明出处!EAC无损整轨(压缩包内含CD图片) #wyceEa  
LQF;T7VKS)  
解压密码:www.mjsunny.com
;~F* 2)  
|j+JLB  
upMs yLp(  
4-bM90&1t  
[r2V+b.C  
Exact Audio Copy V1.0 beta 6 from 9. April 2015 qjRbsD>  
"-:H$  
EAC 抓取日志文件从20. 十月 2015, 15:38 "smU5 s,P  
 KcT(/!  
Jackson, Michael / Remixed Supergold LuRCkKJ  
%R5- 6  
使用驱动器  :MATSHITADVD-RAM UJ890AS   Adapter: 1  ID: 1 `C4(C4u  
Yv1yRoDv  
读取模式      : 可靠Secure pauO_'j_1p  
使用精确流     : 是 24od74\  
清空音频缓存    : 否 O C;~ H{  
使用 C2 指示器 : 是 o"qxR'V  
@Ov}X]ELi  
读取偏移校正:               : 102 d\-*Fmp(S  
读取 Lead-In 和 Lead-Out : 否 b\\l EM>o1  
用静音填充抓取中丢失偏移的采样       : 是 ?jmL4V2-f  
去除首尾静音块               : 否 7oC8I D  
在CRC 计算中使用了空样本       : 是 NP3 e^  
已用接口                  : Win NT 及 2000 本地 Win32 接口 P:Q&lnC  
k/F#-},Q.  
所用输出模式: : 内部 WAV 函数 ?0 cv  
样本格式    : 44.100 Hz; 16 Bit; 立体声 n:a~=^IV  
A pzC  
E\}A<r  
已抓取 CD 的 TOC D<70rBf2  
[kkhVi5;A  
     音轨 |    起始    |    长度    |  起始扇区  |  结束扇区   1Y"9<ry  
    -------------------------------------------- E#d~.#uH  
      1 |  0:00.30 |  7:02.57 |     30 |  31736 X6}W]  
      2 |  7:03.12 |  6:49.53 |  31737 |  62464 |)d%3s\  
      3 | 13:52.65 |  7:54.46 |  62465 |  98060 g'!"klS93  
      4 | 21:47.36 |  6:03.61 |  98061 | 125346 Ze/\IBd  
      5 | 27:51.22 |  3:54.36 | 125347 | 142932 'JgCl'k,  
      6 | 31:45.58 |  3:36.65 | 142933 | 159197 CY':'aWfa<  
      7 | 35:22.48 |  6:19.66 | 159198 | 187688 @[v,q_^8  
      8 | 41:42.39 |  7:23.28 | 187689 | 220941 *oLDy1<  
      9 | 49:05.67 |  7:36.04 | 220942 | 255145 Sz|kXk6&9  
     10 | 56:41.71 |  8:35.14 | 255146 | 293784 {\k }:)  
     11 | 65:17.10 |  7:42.19 | 293785 | 328453 o/&K>]8M  
JPL`/WA 0  
+tt!xfy  
范围状态及错误 48S NI  
ePq(.o  
已选择范围 Q(Yn8t  
]Ar,HaX-  
     文件名 J:\12 Music*音乐\Jackson, Michael - Remixed Supergold.wav V^!^wLLi  
[zq2h3r  
     峰值电平 100.0 % pyX:$j2R+%  
     抓取速度 7.0 X qnQ".  
     范围质量 100.0 % 2( I4h[  
     复制 CRC 858ED32B M/lC&F(  
     复制成功 vgDpo@fz8  
$!$If( 7  
没有错误发生 p(="73  
|c2sJyj*  
[n&ES\o#(  
AccurateRip 摘要 )}"`$6:k`  
9 !UNO  
音轨  1  不能准确地校验 (确认 1)  [49A0205D], 返回 AccurateRip [31F03509]  (AR v2) gMZ+kP`  
音轨  2  不能准确地校验 (确认 1)  [78149F06], 返回 AccurateRip [B41277F6]  (AR v2) z`$c4p6G6  
音轨  3  不能准确地校验 (确认 1)  [58196C78], 返回 AccurateRip [523BDE33]  (AR v2) %CnNu  
音轨  4  不能准确地校验 (确认 1)  [E92C44BB], 返回 AccurateRip [5A3B4CF6]  (AR v2) 4M]l~9;A  
音轨  5  不能准确地校验 (确认 1)  [1D8BC071], 返回 AccurateRip [FBB2EAAE]  (AR v2) rH,@"( p\  
音轨  6  不能准确地校验 (确认 1)  [C48A4A64], 返回 AccurateRip [F0C7C3AD]  (AR v2) `:EhYj.   
音轨  7  不能准确地校验 (确认 1)  [1BD3E724], 返回 AccurateRip [632B71BA]  (AR v2) {_Ll'S  
音轨  8  不能准确地校验 (确认 1)  [3F2DDC8C], 返回 AccurateRip [F26C3140]  (AR v2) 9LBZMQ  
音轨  9  不能准确地校验 (确认 1)  [AF0E8149], 返回 AccurateRip [C01680BB]  (AR v2) zkqn>  
音轨 10  不能准确地校验 (确认 1)  [BEABA90A], 返回 AccurateRip [694256EB]  (AR v2) |*b-m k  
音轨 11  不能准确地校验 (确认 1)  [8F16EEA6], 返回 AccurateRip [D12F121B]  (AR v2) |& jrU-(  
.}Xf<G&  
没有音轨被准确核实 SsZSR.tD  
你的版本可能与数据库的版本不同 E^ c *x^  
KZ#\ >  
状态报告结尾
xsPt  
:?y Ma$  
链接:http://pan.baidu.com/s/1jGxs0QE 密码: o[WDPIG  
此帖售价 40 金钱,已有 16 人购买 [记录] [购买]
购买后,将显示帖子中所有出售内容。
若发现会员采用欺骗的方法获取财富,请立刻举报,我们会对会员处以2-N倍的罚金,严重者封掉ID!
此段为出售的内容,购买后显示
2条评分金钱+20威望+5
大彩电 威望 +5   2015-10-21
大彩电 金钱 +20   2015-10-21
离线nanhu

发帖
3787
金钱
57048
威望
2307
贡献值
1150
交易币
6490
只看该作者 1楼 发表于: 2015-10-21
赞一个,没听过,期待一下!
在线小李

发帖
199
金钱
163
威望
97
贡献值
6
交易币
163
只看该作者 2楼 发表于: 2015-10-21
谢谢,听听,第三首歌曲好像1分钟左右卡了一下
离线wannam

发帖
2547
金钱
69379
威望
363
贡献值
169
交易币
3190
只看该作者 3楼 发表于: 2015-10-21
nice sharing,
离线Mr灬W

发帖
1146
金钱
13022
威望
151
贡献值
46
交易币
1271
只看该作者 4楼 发表于: 2015-10-21
好!感谢分享!好好听一下~
Heal The World
离线blackbc

发帖
461
金钱
184
威望
185
贡献值
2
交易币
121
只看该作者 5楼 发表于: 2015-10-21
哇~鲜货~!谢啦~~!
离线mich008

发帖
750
金钱
4942
威望
24
贡献值
15
交易币
812
只看该作者 6楼 发表于: 2015-10-21
好耶 楼主全都发布了 也感谢mj乱舞
离线mjghosts

发帖
8191
金钱
204337
威望
9035
贡献值
2641
交易币
4550
只看该作者 7楼 发表于: 2015-10-21
回 小李 的帖子
小李:谢谢,听听,第三首歌曲好像1分钟左右卡了一下 (2015-10-21 12:46)  4][VK/v+  
A?tCa*b^  
是的没错。
离线mayokeen

发帖
180
金钱
1740
威望
37
贡献值
17
交易币
249
只看该作者 8楼 发表于: 2015-10-22
nice 4YOLy\"S  
1111

离线迈舞旋转

发帖
1245
金钱
5788
威望
163
贡献值
128
交易币
1710
只看该作者 9楼 发表于: 2015-10-22
新混音确实对我有很大的吸引力
快速回复
限100 字节
 
上一个 下一个