论坛风格切换切换到宽版
  • 1098阅读
  • 20回复

[亲传][Unofficial, Comp] 1996 Michael Jackson Remixed Supergold (MYS - JDL 6155) - WAV整轨 ♬by幽灵 [复制链接]

上一主题 下一主题
离线mjghosts
 

发帖
8247
金钱
210534
威望
9164
贡献值
2715
交易币
4698
只看楼主 倒序阅读 楼主  发表于: 2015-10-21
— 本帖被 mjghosts 执行加亮操作(2015-10-21) —
特别感谢:mj乱舞 -$Bom  
-:9E+b  
*1996年马来西亚发行,CD也是他朋友从马来西亚购入,极稀有且质量颇高的一张非官方混音辑!* I"awvUP]a[  
9G(.=aOj,  
Tracklist ;u;YfOr  
1 Smooth Criminal (Ben Liebrand's Extended Remix)    7:04 {E!"^^0`  
2 Dirty Diana (Alan Coulthard Remix Longue)    6:44 v8! 1"FYL  
3 Bad (Ben Liebrand's Extended Dance Remix)    7:52【强烈推荐】 ;6aTt2BQ  
4 Jam (Roger's Jeep Remix)    6:00 %XGwQB$zk8  
5 Black Or White (Guitar House Mix)    3:53 = ! D<1<  
6 Earth Song (Special Radio Experience Remix)    3:34 ,lm.~%}P*  
7 Don't Stop 'Till You Get Enough (Roger's Underground Solution Mix)    6:19 +=I_3Wtth  
8 Remember The Time (The E-smoove's Late-Nite-Mix)    7:21 ;;BQuG  
9 Rock With You (Mike's Clubhouse Mix)    7:33 \XwXs 5"G  
10 Billie Jean (Down-And-Up Remix)    8:34 Gad! }dz  
11 Who Is It (The Most Patient Mix)    7:42 CD1}.h  
/yn1MW[.  
注:独家整理,转载请注明出处!EAC无损整轨(压缩包内含CD图片) B&|F9Z6D  
5{qFKo"g@,  
解压密码:www.mjsunny.com
7~TE=t  
%*]3j^b Q+  
6d"dJV.\  
Y[Us"K`  
]OZZPo  
Exact Audio Copy V1.0 beta 6 from 9. April 2015 iyrUY  
MzYTEe&-L  
EAC 抓取日志文件从20. 十月 2015, 15:38 9I=J#Hi|+  
&$jg *Kr  
Jackson, Michael / Remixed Supergold K+Al8L?K_  
O[y.3>l[s  
使用驱动器  :MATSHITADVD-RAM UJ890AS   Adapter: 1  ID: 1 u-Ct-0  
C9x'yBDv  
读取模式      : 可靠Secure o1MI&}r  
使用精确流     : 是 M kko1T=6  
清空音频缓存    : 否 #B"ki{Se*  
使用 C2 指示器 : 是 SG |!wH^  
j#Ly!%dp  
读取偏移校正:               : 102 B~-VGT 2o  
读取 Lead-In 和 Lead-Out : 否 wd~e3%JM  
用静音填充抓取中丢失偏移的采样       : 是 |;6FhDW+'  
去除首尾静音块               : 否 $%`OJf*k  
在CRC 计算中使用了空样本       : 是 b.47KJzt  
已用接口                  : Win NT 及 2000 本地 Win32 接口 x^8xz5:O  
[WXtR  
所用输出模式: : 内部 WAV 函数 Se*ZQtwE  
样本格式    : 44.100 Hz; 16 Bit; 立体声 JMuUj_^}7  
{Mp>+e@xx  
=R:3J"ly0  
已抓取 CD 的 TOC uh\I'  
.(VxeF(v_k  
     音轨 |    起始    |    长度    |  起始扇区  |  结束扇区   ~PHAC@pU  
    -------------------------------------------- Pw1V1v&> q  
      1 |  0:00.30 |  7:02.57 |     30 |  31736 pTOS}A[dh  
      2 |  7:03.12 |  6:49.53 |  31737 |  62464 _p?lRU8  
      3 | 13:52.65 |  7:54.46 |  62465 |  98060 {ogGi/8  
      4 | 21:47.36 |  6:03.61 |  98061 | 125346 |08tQ  
      5 | 27:51.22 |  3:54.36 | 125347 | 142932 i:&Y{iPQp  
      6 | 31:45.58 |  3:36.65 | 142933 | 159197 0jrcXN~  
      7 | 35:22.48 |  6:19.66 | 159198 | 187688 KOV^wSwS  
      8 | 41:42.39 |  7:23.28 | 187689 | 220941 7xVI,\qV  
      9 | 49:05.67 |  7:36.04 | 220942 | 255145 Um9!<G=;  
     10 | 56:41.71 |  8:35.14 | 255146 | 293784 hnvn&{|  
     11 | 65:17.10 |  7:42.19 | 293785 | 328453 n~8-+$6OR  
qX0IHe  
+C/K@:p  
范围状态及错误 6@wnF>'/\  
VpWax]'  
已选择范围 )}~k7bb}Y  
yf3%g\k  
     文件名 J:\12 Music*音乐\Jackson, Michael - Remixed Supergold.wav cw/g1,p  
H3QAIsGS  
     峰值电平 100.0 % %ghQ#dZ]&  
     抓取速度 7.0 X z\_q`43U7  
     范围质量 100.0 % /B|#GJ\\3  
     复制 CRC 858ED32B q jDW A'  
     复制成功 ujmW {()  
.N_0rPO,Kw  
没有错误发生 aNn< NW  
kL*Q})  
+wD--24!(  
AccurateRip 摘要 K`(STvtM  
72~)bu  
音轨  1  不能准确地校验 (确认 1)  [49A0205D], 返回 AccurateRip [31F03509]  (AR v2) {(ey!O  
音轨  2  不能准确地校验 (确认 1)  [78149F06], 返回 AccurateRip [B41277F6]  (AR v2) /}#z/m@bN  
音轨  3  不能准确地校验 (确认 1)  [58196C78], 返回 AccurateRip [523BDE33]  (AR v2)  yZmQBh$  
音轨  4  不能准确地校验 (确认 1)  [E92C44BB], 返回 AccurateRip [5A3B4CF6]  (AR v2) e#FaK^V  
音轨  5  不能准确地校验 (确认 1)  [1D8BC071], 返回 AccurateRip [FBB2EAAE]  (AR v2) Ug3PZ7lK  
音轨  6  不能准确地校验 (确认 1)  [C48A4A64], 返回 AccurateRip [F0C7C3AD]  (AR v2) g 4Vt"2|  
音轨  7  不能准确地校验 (确认 1)  [1BD3E724], 返回 AccurateRip [632B71BA]  (AR v2) v SHb\V#  
音轨  8  不能准确地校验 (确认 1)  [3F2DDC8C], 返回 AccurateRip [F26C3140]  (AR v2) '(^p$=3|@D  
音轨  9  不能准确地校验 (确认 1)  [AF0E8149], 返回 AccurateRip [C01680BB]  (AR v2) | 2p\M?@  
音轨 10  不能准确地校验 (确认 1)  [BEABA90A], 返回 AccurateRip [694256EB]  (AR v2) Q}\,7l  
音轨 11  不能准确地校验 (确认 1)  [8F16EEA6], 返回 AccurateRip [D12F121B]  (AR v2) U NQup;#h  
aOWbIS[8  
没有音轨被准确核实 ou,W|<%  
你的版本可能与数据库的版本不同 J +<|8D  
j1**Ch/  
状态报告结尾
iO<O2A.F  
zs[t<`2  
链接:http://pan.baidu.com/s/1jGxs0QE 密码: Z#7HuAF{]  
此帖售价 40 金钱,已有 17 人购买 [记录] [购买]
购买后,将显示帖子中所有出售内容。
若发现会员采用欺骗的方法获取财富,请立刻举报,我们会对会员处以2-N倍的罚金,严重者封掉ID!
此段为出售的内容,购买后显示
2条评分金钱+20威望+5
大彩电 威望 +5   2015-10-21
大彩电 金钱 +20   2015-10-21
离线nanhu

发帖
3794
金钱
57765
威望
2441
贡献值
1364
交易币
6533
只看该作者 1楼 发表于: 2015-10-21
赞一个,没听过,期待一下!
离线小李

发帖
218
金钱
132
威望
98
贡献值
7
交易币
186
只看该作者 2楼 发表于: 2015-10-21
谢谢,听听,第三首歌曲好像1分钟左右卡了一下
离线wannam

发帖
2697
金钱
86877
威望
382
贡献值
189
交易币
3340
只看该作者 3楼 发表于: 2015-10-21
nice sharing,
离线Mr灬W

发帖
1156
金钱
12819
威望
161
贡献值
56
交易币
1281
只看该作者 4楼 发表于: 2015-10-21
好!感谢分享!好好听一下~
Heal The World
离线blackbc

发帖
462
金钱
187
威望
185
贡献值
2
交易币
122
只看该作者 5楼 发表于: 2015-10-21
哇~鲜货~!谢啦~~!
离线mich008

发帖
796
金钱
5097
威望
24
贡献值
15
交易币
858
只看该作者 6楼 发表于: 2015-10-21
好耶 楼主全都发布了 也感谢mj乱舞
离线mjghosts

发帖
8247
金钱
210534
威望
9164
贡献值
2715
交易币
4698
只看该作者 7楼 发表于: 2015-10-21
回 小李 的帖子
小李:谢谢,听听,第三首歌曲好像1分钟左右卡了一下 (2015-10-21 12:46)  WG>Nm89  
&SuWmtq  
是的没错。
离线mayokeen

发帖
182
金钱
1669
威望
37
贡献值
17
交易币
251
只看该作者 8楼 发表于: 2015-10-22
nice og[cwa_  
1111

离线迈舞旋转

发帖
1252
金钱
5732
威望
163
贡献值
128
交易币
1717
只看该作者 9楼 发表于: 2015-10-22
新混音确实对我有很大的吸引力
快速回复
限100 字节
 
上一个 下一个