论坛风格切换切换到宽版
  • 2163阅读
  • 22回复

[亲传][Unofficial, Comp] 1996 Michael Jackson Remixed Supergold (MYS - JDL 6155) - WAV整轨 ♬by幽灵 [复制链接]

上一主题 下一主题
离线mjghosts
 

发帖
8256
金钱
219439
威望
9187
贡献值
2734
交易币
4791
只看楼主 倒序阅读 楼主  发表于: 2015-10-21
— 本帖被 mjghosts 执行加亮操作(2015-10-21) —
特别感谢:mj乱舞 #}FUau$  
&<]f-  
*1996年马来西亚发行,CD也是他朋友从马来西亚购入,极稀有且质量颇高的一张非官方混音辑!* 0H}tb}4  
B5;%R01A  
Tracklist QDg5B6>$  
1 Smooth Criminal (Ben Liebrand's Extended Remix)    7:04 7Ed0BJTa  
2 Dirty Diana (Alan Coulthard Remix Longue)    6:44 (XO=W+<'  
3 Bad (Ben Liebrand's Extended Dance Remix)    7:52【强烈推荐】 j#5a&Z  
4 Jam (Roger's Jeep Remix)    6:00 j ~-N2b6z  
5 Black Or White (Guitar House Mix)    3:53 -qIi.]/f"9  
6 Earth Song (Special Radio Experience Remix)    3:34 6!m#;8 4  
7 Don't Stop 'Till You Get Enough (Roger's Underground Solution Mix)    6:19 .uJ J<  
8 Remember The Time (The E-smoove's Late-Nite-Mix)    7:21 t`Z'TqP R  
9 Rock With You (Mike's Clubhouse Mix)    7:33 J?8Mo=UZz  
10 Billie Jean (Down-And-Up Remix)    8:34 +F8{4^w1  
11 Who Is It (The Most Patient Mix)    7:42 <L-F3Buu  
%biie  
注:独家整理,转载请注明出处!EAC无损整轨(压缩包内含CD图片) d?fS#Ryb  
f% pT-#  
解压密码:www.mjsunny.com
!Km[Qw k-  
` B)@  
Vu$m1,/  
:PO./IBX  
K<>kT4  
Exact Audio Copy V1.0 beta 6 from 9. April 2015 J2z/XHS  
@:>"VP<(  
EAC 抓取日志文件从20. 十月 2015, 15:38 @](vFb  
bzi"7%c  
Jackson, Michael / Remixed Supergold 2zC4nF)>O  
j`_S%E%X  
使用驱动器  :MATSHITADVD-RAM UJ890AS   Adapter: 1  ID: 1  Vl_6nY;  
e;.,x 5+  
读取模式      : 可靠Secure F.vRs|fk  
使用精确流     : 是 owNwj  
清空音频缓存    : 否 +#IUn  
使用 C2 指示器 : 是 lNe4e6  
* F!B4go  
读取偏移校正:               : 102 9^*RK6  
读取 Lead-In 和 Lead-Out : 否 l!p`g>$&f  
用静音填充抓取中丢失偏移的采样       : 是 ed'[_T}T3t  
去除首尾静音块               : 否 )"TVR{I%B  
在CRC 计算中使用了空样本       : 是 0H_Ai=G  
已用接口                  : Win NT 及 2000 本地 Win32 接口 WsbVO|C  
CDJ@Tdp  
所用输出模式: : 内部 WAV 函数 C).\ J !  
样本格式    : 44.100 Hz; 16 Bit; 立体声 |-JG _i  
wai3g-`  
0^*,E/}P&  
已抓取 CD 的 TOC JOuy_n  
'7oR|I  
     音轨 |    起始    |    长度    |  起始扇区  |  结束扇区   F7' MoH  
    -------------------------------------------- a6zWg7 PN  
      1 |  0:00.30 |  7:02.57 |     30 |  31736 ;8=Bee4  
      2 |  7:03.12 |  6:49.53 |  31737 |  62464 ?h1g$SBxk  
      3 | 13:52.65 |  7:54.46 |  62465 |  98060 4,@jSr|I3i  
      4 | 21:47.36 |  6:03.61 |  98061 | 125346 j0"4X  
      5 | 27:51.22 |  3:54.36 | 125347 | 142932 |L89yjhWBs  
      6 | 31:45.58 |  3:36.65 | 142933 | 159197 e{5O>RO  
      7 | 35:22.48 |  6:19.66 | 159198 | 187688 oR%cG"y  
      8 | 41:42.39 |  7:23.28 | 187689 | 220941 t%,:L.?J#  
      9 | 49:05.67 |  7:36.04 | 220942 | 255145 3A0Qjj=  
     10 | 56:41.71 |  8:35.14 | 255146 | 293784 <Vt"%C  
     11 | 65:17.10 |  7:42.19 | 293785 | 328453 wmX(%5vY^  
xY.?OHgG/  
 `2\:b^h  
范围状态及错误 2[1t )EW  
u|\?6fz  
已选择范围 Y]`o-dV  
{61Y;  
     文件名 J:\12 Music*音乐\Jackson, Michael - Remixed Supergold.wav py%~Qz%  
MXDCOe~07  
     峰值电平 100.0 % W4P+?c>'2  
     抓取速度 7.0 X paMK]-  
     范围质量 100.0 % =:6B`,~C  
     复制 CRC 858ED32B -II03 S1  
     复制成功 o Q*LP{M  
X8R:9q_  
没有错误发生 6-g>(g   
j+q)  
\DBEs02  
AccurateRip 摘要 +uTl Lu;MT  
8t) g fSG  
音轨  1  不能准确地校验 (确认 1)  [49A0205D], 返回 AccurateRip [31F03509]  (AR v2) ?$uF(>LD  
音轨  2  不能准确地校验 (确认 1)  [78149F06], 返回 AccurateRip [B41277F6]  (AR v2) %X}vuE[[UC  
音轨  3  不能准确地校验 (确认 1)  [58196C78], 返回 AccurateRip [523BDE33]  (AR v2) +xsGa{`  
音轨  4  不能准确地校验 (确认 1)  [E92C44BB], 返回 AccurateRip [5A3B4CF6]  (AR v2) .XRe:\8mc  
音轨  5  不能准确地校验 (确认 1)  [1D8BC071], 返回 AccurateRip [FBB2EAAE]  (AR v2) .O(9\3q\  
音轨  6  不能准确地校验 (确认 1)  [C48A4A64], 返回 AccurateRip [F0C7C3AD]  (AR v2) ja/wI'J<  
音轨  7  不能准确地校验 (确认 1)  [1BD3E724], 返回 AccurateRip [632B71BA]  (AR v2) 2Oyw#1tdn  
音轨  8  不能准确地校验 (确认 1)  [3F2DDC8C], 返回 AccurateRip [F26C3140]  (AR v2) 5[r}'08b  
音轨  9  不能准确地校验 (确认 1)  [AF0E8149], 返回 AccurateRip [C01680BB]  (AR v2) PYs0w6o  
音轨 10  不能准确地校验 (确认 1)  [BEABA90A], 返回 AccurateRip [694256EB]  (AR v2) E_[a|N"D  
音轨 11  不能准确地校验 (确认 1)  [8F16EEA6], 返回 AccurateRip [D12F121B]  (AR v2) PVdN)tG5  
]q[(z  
没有音轨被准确核实 ydY 7 :D  
你的版本可能与数据库的版本不同 Vkd_&z7  
0kls/^0,  
状态报告结尾
E]g6|,4~-  
v,ni9DIu  
链接:http://pan.baidu.com/s/1jGxs0QE 密码: !;[cJbqnh  
此帖售价 40 金钱,已有 19 人购买 [记录] [购买]
购买后,将显示帖子中所有出售内容。
若发现会员采用欺骗的方法获取财富,请立刻举报,我们会对会员处以2-N倍的罚金,严重者封掉ID!
此段为出售的内容,购买后显示
2条评分金钱+20威望+5
大彩电 威望 +5   2015-10-21
大彩电 金钱 +20   2015-10-21
离线nanhu

发帖
3798
金钱
58166
威望
2452
贡献值
1373
交易币
6549
只看该作者 1楼 发表于: 2015-10-21
赞一个,没听过,期待一下!
离线小李

发帖
240
金钱
1125
威望
9
贡献值
8
交易币
212
只看该作者 2楼 发表于: 2015-10-21
谢谢,听听,第三首歌曲好像1分钟左右卡了一下
离线wannam

发帖
2703
金钱
87063
威望
382
贡献值
189
交易币
3346
只看该作者 3楼 发表于: 2015-10-21
nice sharing,
离线Mr灬W

发帖
1130
金钱
12952
威望
161
贡献值
56
交易币
1283
只看该作者 4楼 发表于: 2015-10-21
好!感谢分享!好好听一下~
Heal The World
离线blackbc

发帖
467
金钱
207
威望
185
贡献值
2
交易币
127
只看该作者 5楼 发表于: 2015-10-21
哇~鲜货~!谢啦~~!
离线mich008

发帖
850
金钱
6086
威望
24
贡献值
15
交易币
912
只看该作者 6楼 发表于: 2015-10-21
好耶 楼主全都发布了 也感谢mj乱舞
离线mjghosts

发帖
8256
金钱
219439
威望
9187
贡献值
2734
交易币
4791
只看该作者 7楼 发表于: 2015-10-21
回 小李 的帖子
小李:谢谢,听听,第三首歌曲好像1分钟左右卡了一下 (2015-10-21 12:46)  QX 393v!  
mH09* Z  
是的没错。
离线mayokeen

发帖
185
金钱
1634
威望
37
贡献值
17
交易币
254
只看该作者 8楼 发表于: 2015-10-22
nice KFd"JtPg  
1111

离线迈舞旋转

发帖
1263
金钱
5563
威望
163
贡献值
128
交易币
1728
只看该作者 9楼 发表于: 2015-10-22
新混音确实对我有很大的吸引力
快速回复
限100 字节
 
上一个 下一个