论坛风格切换切换到宽版
  • 2016阅读
  • 22回复

[亲传][Unofficial, Comp] 1996 Michael Jackson Remixed Supergold (MYS - JDL 6155) - WAV整轨 ♬by幽灵 [复制链接]

上一主题 下一主题
离线mjghosts
 

发帖
8255
金钱
219223
威望
9187
贡献值
2734
交易币
4790
只看楼主 倒序阅读 楼主  发表于: 2015-10-21
— 本帖被 mjghosts 执行加亮操作(2015-10-21) —
特别感谢:mj乱舞 PUQ_w  
I*+LJy;j  
*1996年马来西亚发行,CD也是他朋友从马来西亚购入,极稀有且质量颇高的一张非官方混音辑!* GG@I!2,_  
r{R[[]p  
Tracklist xI`Uk8-8  
1 Smooth Criminal (Ben Liebrand's Extended Remix)    7:04 FhY{;-W(T  
2 Dirty Diana (Alan Coulthard Remix Longue)    6:44 pjX%LsX\  
3 Bad (Ben Liebrand's Extended Dance Remix)    7:52【强烈推荐】 *c~'0|r  
4 Jam (Roger's Jeep Remix)    6:00 A=v lC?&Z  
5 Black Or White (Guitar House Mix)    3:53 NSMjr_  
6 Earth Song (Special Radio Experience Remix)    3:34 a2c x  
7 Don't Stop 'Till You Get Enough (Roger's Underground Solution Mix)    6:19 t5ny"k!  
8 Remember The Time (The E-smoove's Late-Nite-Mix)    7:21 ' D)1ka.  
9 Rock With You (Mike's Clubhouse Mix)    7:33 a gmeiJT  
10 Billie Jean (Down-And-Up Remix)    8:34 3t"~F%4-}  
11 Who Is It (The Most Patient Mix)    7:42 wE,=%?"  
hV3,^#9o  
注:独家整理,转载请注明出处!EAC无损整轨(压缩包内含CD图片) G zJ9N`  
LKK{j,g7  
解压密码:www.mjsunny.com
l]a^"4L4`o  
tl{]gz  
4 o3)*  
&K9VEMCEX  
!7:EE,W~  
Exact Audio Copy V1.0 beta 6 from 9. April 2015 jGk7=}nw  
9l]UE0yTL/  
EAC 抓取日志文件从20. 十月 2015, 15:38 g2[K<  
t Y:G54d=_  
Jackson, Michael / Remixed Supergold 96.IuwL*.s  
kN'|,eKH4  
使用驱动器  :MATSHITADVD-RAM UJ890AS   Adapter: 1  ID: 1 J>f /u:.  
$x;tSJ)m~  
读取模式      : 可靠Secure 4ggVj*{v  
使用精确流     : 是 r:fwrC  
清空音频缓存    : 否 pd=7^"[};  
使用 C2 指示器 : 是 { M`  
k)$iK2I  
读取偏移校正:               : 102 U3mXm?f  
读取 Lead-In 和 Lead-Out : 否 \1=T sU&^  
用静音填充抓取中丢失偏移的采样       : 是 y\[L?Rmd  
去除首尾静音块               : 否 X tJswxw`K  
在CRC 计算中使用了空样本       : 是 LTg?5GwD\j  
已用接口                  : Win NT 及 2000 本地 Win32 接口 bZxv/\  
Q<z)q<e  
所用输出模式: : 内部 WAV 函数 @; W<dJ<X  
样本格式    : 44.100 Hz; 16 Bit; 立体声 cge-'/8w%  
\V._Z>]  
"\NF  
已抓取 CD 的 TOC K3La9O)>  
gBMta+<fE~  
     音轨 |    起始    |    长度    |  起始扇区  |  结束扇区   RI?NB6U  
    -------------------------------------------- w(aUEWYL  
      1 |  0:00.30 |  7:02.57 |     30 |  31736 D5=C^`$2  
      2 |  7:03.12 |  6:49.53 |  31737 |  62464 |d5ggf .w  
      3 | 13:52.65 |  7:54.46 |  62465 |  98060 )m|C8[u  
      4 | 21:47.36 |  6:03.61 |  98061 | 125346 x<8\-  
      5 | 27:51.22 |  3:54.36 | 125347 | 142932 O ,l\e 3;  
      6 | 31:45.58 |  3:36.65 | 142933 | 159197 /#29Y^Z)=  
      7 | 35:22.48 |  6:19.66 | 159198 | 187688 ',DeP>'%>  
      8 | 41:42.39 |  7:23.28 | 187689 | 220941 KUbJe)}g  
      9 | 49:05.67 |  7:36.04 | 220942 | 255145 2%bhW,?I  
     10 | 56:41.71 |  8:35.14 | 255146 | 293784 Nc,*hsx'  
     11 | 65:17.10 |  7:42.19 | 293785 | 328453 P1$f}K}  
Lg8 ]dBXu  
~'(9?81d  
范围状态及错误 'HCnB]1  
)ukF3;Gt  
已选择范围 b"^\)|*4;  
+9TV:T  
     文件名 J:\12 Music*音乐\Jackson, Michael - Remixed Supergold.wav ^mAJ[^%  
O!/ekU|,r  
     峰值电平 100.0 % t~q?lT  
     抓取速度 7.0 X D_Guc8*  
     范围质量 100.0 % YjX*)Q_sl?  
     复制 CRC 858ED32B O 3G:0xF  
     复制成功  $<:'!#%  
Y!F!@`%G  
没有错误发生 QOd!]*W`?m  
?x'w~;9R/  
),yH=6  
AccurateRip 摘要 0Lx3]"v  
b1 H7  
音轨  1  不能准确地校验 (确认 1)  [49A0205D], 返回 AccurateRip [31F03509]  (AR v2) pG~'shD~Dn  
音轨  2  不能准确地校验 (确认 1)  [78149F06], 返回 AccurateRip [B41277F6]  (AR v2) $Vsy%gA<  
音轨  3  不能准确地校验 (确认 1)  [58196C78], 返回 AccurateRip [523BDE33]  (AR v2) 'P,,<nkr|  
音轨  4  不能准确地校验 (确认 1)  [E92C44BB], 返回 AccurateRip [5A3B4CF6]  (AR v2) 1EQvcw #  
音轨  5  不能准确地校验 (确认 1)  [1D8BC071], 返回 AccurateRip [FBB2EAAE]  (AR v2) !M,h79NM  
音轨  6  不能准确地校验 (确认 1)  [C48A4A64], 返回 AccurateRip [F0C7C3AD]  (AR v2) ^B|YO8.v  
音轨  7  不能准确地校验 (确认 1)  [1BD3E724], 返回 AccurateRip [632B71BA]  (AR v2) [#>{4qY2  
音轨  8  不能准确地校验 (确认 1)  [3F2DDC8C], 返回 AccurateRip [F26C3140]  (AR v2) 4 ]sCr+   
音轨  9  不能准确地校验 (确认 1)  [AF0E8149], 返回 AccurateRip [C01680BB]  (AR v2) 22|"K**3J|  
音轨 10  不能准确地校验 (确认 1)  [BEABA90A], 返回 AccurateRip [694256EB]  (AR v2) k},>^qE  
音轨 11  不能准确地校验 (确认 1)  [8F16EEA6], 返回 AccurateRip [D12F121B]  (AR v2) g1ytT%]  
HZ{n&iJ  
没有音轨被准确核实 @R UP$  
你的版本可能与数据库的版本不同 Jl_~_Z  
%2}C'MqS  
状态报告结尾
4 A5t*e  
k8 u%$G  
链接:http://pan.baidu.com/s/1jGxs0QE 密码: "1K:/n  
此帖售价 40 金钱,已有 19 人购买 [记录] [购买]
购买后,将显示帖子中所有出售内容。
若发现会员采用欺骗的方法获取财富,请立刻举报,我们会对会员处以2-N倍的罚金,严重者封掉ID!
此段为出售的内容,购买后显示
2条评分金钱+20威望+5
大彩电 威望 +5   2015-10-21
大彩电 金钱 +20   2015-10-21
离线nanhu

发帖
3796
金钱
58122
威望
2450
贡献值
1371
交易币
6539
只看该作者 1楼 发表于: 2015-10-21
赞一个,没听过,期待一下!
离线小李

发帖
240
金钱
1125
威望
9
贡献值
8
交易币
212
只看该作者 2楼 发表于: 2015-10-21
谢谢,听听,第三首歌曲好像1分钟左右卡了一下
离线wannam

发帖
2703
金钱
87033
威望
382
贡献值
189
交易币
3346
只看该作者 3楼 发表于: 2015-10-21
nice sharing,
离线Mr灬W

发帖
1130
金钱
12952
威望
161
贡献值
56
交易币
1283
只看该作者 4楼 发表于: 2015-10-21
好!感谢分享!好好听一下~
Heal The World
离线blackbc

发帖
467
金钱
207
威望
185
贡献值
2
交易币
127
只看该作者 5楼 发表于: 2015-10-21
哇~鲜货~!谢啦~~!
离线mich008

发帖
847
金钱
5849
威望
24
贡献值
15
交易币
909
只看该作者 6楼 发表于: 2015-10-21
好耶 楼主全都发布了 也感谢mj乱舞
离线mjghosts

发帖
8255
金钱
219223
威望
9187
贡献值
2734
交易币
4790
只看该作者 7楼 发表于: 2015-10-21
回 小李 的帖子
小李:谢谢,听听,第三首歌曲好像1分钟左右卡了一下 (2015-10-21 12:46)  uy~j$lrn  
|/$#G0X;H  
是的没错。
离线mayokeen

发帖
185
金钱
1634
威望
37
贡献值
17
交易币
254
只看该作者 8楼 发表于: 2015-10-22
nice _B2t|uQ  
1111

离线迈舞旋转

发帖
1263
金钱
5562
威望
163
贡献值
128
交易币
1728
只看该作者 9楼 发表于: 2015-10-22
新混音确实对我有很大的吸引力
快速回复
限100 字节
 
上一个 下一个