论坛风格切换切换到宽版
  • 1272阅读
  • 21回复

[亲传][Unofficial, Comp] 1996 Michael Jackson Remixed Supergold (MYS - JDL 6155) - WAV整轨 ♬by幽灵 [复制链接]

上一主题 下一主题
离线mjghosts
 

发帖
8258
金钱
212473
威望
9166
贡献值
2715
交易币
4709
只看楼主 倒序阅读 楼主  发表于: 2015-10-21
— 本帖被 mjghosts 执行加亮操作(2015-10-21) —
特别感谢:mj乱舞 ^, YTQ.O  
$ K+| bb  
*1996年马来西亚发行,CD也是他朋友从马来西亚购入,极稀有且质量颇高的一张非官方混音辑!* $3B%4#s  
tH&eKM4G  
Tracklist h<)ceD<,  
1 Smooth Criminal (Ben Liebrand's Extended Remix)    7:04 )5n0P Zi  
2 Dirty Diana (Alan Coulthard Remix Longue)    6:44 L-)ZjXzk  
3 Bad (Ben Liebrand's Extended Dance Remix)    7:52【强烈推荐】 G~DHNO6  
4 Jam (Roger's Jeep Remix)    6:00 PY C  
5 Black Or White (Guitar House Mix)    3:53 bDIhI}P  
6 Earth Song (Special Radio Experience Remix)    3:34 %z.V$2  
7 Don't Stop 'Till You Get Enough (Roger's Underground Solution Mix)    6:19 jl}!UG  
8 Remember The Time (The E-smoove's Late-Nite-Mix)    7:21 lK/4"&  
9 Rock With You (Mike's Clubhouse Mix)    7:33 M:(.aEe  
10 Billie Jean (Down-And-Up Remix)    8:34 d&L  
11 Who Is It (The Most Patient Mix)    7:42 o3\^9-jmp  
Yc?S<  
注:独家整理,转载请注明出处!EAC无损整轨(压缩包内含CD图片) A@?-"=h}  
9=6BQ`u  
解压密码:www.mjsunny.com
(VmFYNt&  
"x.iD,>k  
S&y${f  
:6%ivS  
@*L-lx  
Exact Audio Copy V1.0 beta 6 from 9. April 2015 Z  eY *5m  
{*g{9`   
EAC 抓取日志文件从20. 十月 2015, 15:38 F\&^(EL  
~#VDJ[Z  
Jackson, Michael / Remixed Supergold 9mn~57`y  
%|:j=/_  
使用驱动器  :MATSHITADVD-RAM UJ890AS   Adapter: 1  ID: 1 sredL#]BA  
_akjgwu  
读取模式      : 可靠Secure XhWo~zh"  
使用精确流     : 是 qkp0'f*}  
清空音频缓存    : 否 ]BRwJ2< x  
使用 C2 指示器 : 是 aZa1eE  
hB aG*J{  
读取偏移校正:               : 102 MYz!zI  
读取 Lead-In 和 Lead-Out : 否 q;f L@L@-  
用静音填充抓取中丢失偏移的采样       : 是 C{G=Y[?oc  
去除首尾静音块               : 否 gX n `!  
在CRC 计算中使用了空样本       : 是 4 CiRh  
已用接口                  : Win NT 及 2000 本地 Win32 接口 H<g8u{ $  
Z?9G2<i  
所用输出模式: : 内部 WAV 函数 ,qV7$u  
样本格式    : 44.100 Hz; 16 Bit; 立体声 pj3H4yCM:  
d#ab"&$bv  
k{|> !(Ax  
已抓取 CD 的 TOC GH3RRzp r  
[L|vBr  
     音轨 |    起始    |    长度    |  起始扇区  |  结束扇区   + I*a=qjq  
    -------------------------------------------- o{hZjn-  
      1 |  0:00.30 |  7:02.57 |     30 |  31736 ]a*26AbU+  
      2 |  7:03.12 |  6:49.53 |  31737 |  62464 FS!vnl8`  
      3 | 13:52.65 |  7:54.46 |  62465 |  98060 ;{e'q?Y  
      4 | 21:47.36 |  6:03.61 |  98061 | 125346 E=,fdyj.  
      5 | 27:51.22 |  3:54.36 | 125347 | 142932 Vy=+G~  
      6 | 31:45.58 |  3:36.65 | 142933 | 159197 .+lx}#-#  
      7 | 35:22.48 |  6:19.66 | 159198 | 187688 iUqD>OV  
      8 | 41:42.39 |  7:23.28 | 187689 | 220941 (8NE'd8  
      9 | 49:05.67 |  7:36.04 | 220942 | 255145 Cw5 B p9  
     10 | 56:41.71 |  8:35.14 | 255146 | 293784  W}Rzn  
     11 | 65:17.10 |  7:42.19 | 293785 | 328453 [l~G7u.d  
4#B 56f8  
q1rD>n&d  
范围状态及错误 :"K9(XKKU  
wS|hc+1  
已选择范围 .W\x{h  
tU.~7f#+A  
     文件名 J:\12 Music*音乐\Jackson, Michael - Remixed Supergold.wav 12tAx3p  
:=:m4UJb  
     峰值电平 100.0 % -6e^`c6{  
     抓取速度 7.0 X @E"lN  
     范围质量 100.0 % sH%Ts@Pl  
     复制 CRC 858ED32B {r#uD5NJ/  
     复制成功 EZZE(dq@gf  
MieO1l  
没有错误发生 bicbCC6kC  
"1 UpoF'w  
02-% B~oP  
AccurateRip 摘要 "@t bm[  
$v5 >6+-n  
音轨  1  不能准确地校验 (确认 1)  [49A0205D], 返回 AccurateRip [31F03509]  (AR v2) Y&bO[(>1  
音轨  2  不能准确地校验 (确认 1)  [78149F06], 返回 AccurateRip [B41277F6]  (AR v2) uG-S$n"7K  
音轨  3  不能准确地校验 (确认 1)  [58196C78], 返回 AccurateRip [523BDE33]  (AR v2) .kJu17!  
音轨  4  不能准确地校验 (确认 1)  [E92C44BB], 返回 AccurateRip [5A3B4CF6]  (AR v2) sejT] rJ  
音轨  5  不能准确地校验 (确认 1)  [1D8BC071], 返回 AccurateRip [FBB2EAAE]  (AR v2) ,fo7. h4{  
音轨  6  不能准确地校验 (确认 1)  [C48A4A64], 返回 AccurateRip [F0C7C3AD]  (AR v2) r$Ik* R  
音轨  7  不能准确地校验 (确认 1)  [1BD3E724], 返回 AccurateRip [632B71BA]  (AR v2) 735l&(3A\  
音轨  8  不能准确地校验 (确认 1)  [3F2DDC8C], 返回 AccurateRip [F26C3140]  (AR v2) NGZtlNvh  
音轨  9  不能准确地校验 (确认 1)  [AF0E8149], 返回 AccurateRip [C01680BB]  (AR v2) , 10+Sh  
音轨 10  不能准确地校验 (确认 1)  [BEABA90A], 返回 AccurateRip [694256EB]  (AR v2) _^!C4?2!  
音轨 11  不能准确地校验 (确认 1)  [8F16EEA6], 返回 AccurateRip [D12F121B]  (AR v2) ^E%NYq_2l<  
dkg+_V!  
没有音轨被准确核实 z_8Bl2tl  
你的版本可能与数据库的版本不同 ?pA_/wwp  
C3 m_sv#e  
状态报告结尾
f_:>36{1^!  
LI"N^K'z  
链接:http://pan.baidu.com/s/1jGxs0QE 密码: zS?DXE  
此帖售价 40 金钱,已有 18 人购买 [记录] [购买]
购买后,将显示帖子中所有出售内容。
若发现会员采用欺骗的方法获取财富,请立刻举报,我们会对会员处以2-N倍的罚金,严重者封掉ID!
此段为出售的内容,购买后显示
2条评分金钱+20威望+5
大彩电 威望 +5   2015-10-21
大彩电 金钱 +20   2015-10-21
离线nanhu

发帖
3794
金钱
57806
威望
2441
贡献值
1364
交易币
6533
只看该作者 1楼 发表于: 2015-10-21
赞一个,没听过,期待一下!
离线小李

发帖
225
金钱
150
威望
99
贡献值
8
交易币
197
只看该作者 2楼 发表于: 2015-10-21
谢谢,听听,第三首歌曲好像1分钟左右卡了一下
离线wannam

发帖
2698
金钱
86901
威望
382
贡献值
189
交易币
3341
只看该作者 3楼 发表于: 2015-10-21
nice sharing,
离线Mr灬W

发帖
1129
金钱
12894
威望
161
贡献值
56
交易币
1282
只看该作者 4楼 发表于: 2015-10-21
好!感谢分享!好好听一下~
Heal The World
离线blackbc

发帖
467
金钱
207
威望
185
贡献值
2
交易币
127
只看该作者 5楼 发表于: 2015-10-21
哇~鲜货~!谢啦~~!
离线mich008

发帖
811
金钱
5257
威望
24
贡献值
15
交易币
873
只看该作者 6楼 发表于: 2015-10-21
好耶 楼主全都发布了 也感谢mj乱舞
离线mjghosts

发帖
8258
金钱
212473
威望
9166
贡献值
2715
交易币
4709
只看该作者 7楼 发表于: 2015-10-21
回 小李 的帖子
小李:谢谢,听听,第三首歌曲好像1分钟左右卡了一下 (2015-10-21 12:46)  )-_^vB  
ns%gb!FBJX  
是的没错。
离线mayokeen

发帖
182
金钱
1669
威望
37
贡献值
17
交易币
251
只看该作者 8楼 发表于: 2015-10-22
nice _= v4Iz0  
1111

离线迈舞旋转

发帖
1262
金钱
5541
威望
163
贡献值
128
交易币
1727
只看该作者 9楼 发表于: 2015-10-22
新混音确实对我有很大的吸引力
快速回复
限100 字节
 
上一个 下一个