论坛风格切换切换到宽版
  • 1527阅读
  • 20回复

[亲传][Single] 1992 Jam (AU - EPC 658228 2) - WAV整轨 ♬by幽灵 [复制链接]

上一主题 下一主题
离线mjghosts
 

发帖
8256
金钱
219309
威望
9187
贡献值
2734
交易币
4791
只看楼主 倒序阅读 楼主  发表于: 2015-12-02
— 本帖被 mjghosts 执行加亮操作(2015-12-02) —
注:独家整理,转载请注明出处!EAC无损整轨(压缩包内含CD图片) $H:h(ia:  
  6[|<  
解压密码:www.mjsunny.com
qddT9U|8~  
PM<LR?PLc  
Jam·澳大利亚薄盒单曲 9c % Tv  
yIf}b  
发行年:1992 Dj. +5f'  
CD编号:EPC 658228 2 *`.{K12T  
条形码:9 399765 822820 j:KQIwc  
内圈:MADE BY DISCTRONICS B ** 658228.2** #03 n1(X%%2  
4PM`hc  
注:罕见的澳大利亚版单曲,收录完整版"Come Together"等8首歌,长达45分钟! !r0P\  
hAyPaS#  
Tracklist $7d"9s\$"  
1 Jam (Roger's Club Mix) 6:20 [Cp{i<C  
2 Jam (Atlanta Techno Mix) 6:06 ;D:T ^4  
3 Jam (Teddy's Jam) 5:48 I#U44+c  
4 Jam (7" Edit) 4:03 y{JkY\g  
5 Come Together 5:27 \.] U  
6 Don't Stop 'Til You Get Enough (Roger's Underground Solution Mix) 6:22 y1X.Mvc  
7 Jam (Roger's Jeep Mix) 5:54 rtm28|0H'  
8 Jam (E-Smoove's Jazzy Jam) 6:44 V QI7lJV"  
JS9q'd  
":OXs9Yg  
;\h'A(  
VrpY BU  
&3rh{"^9  
Exact Audio Copy V1.0 beta 6 from 9. April 2015 6`'^$wKs  
|nD`0Rbw  
EAC 抓取日志文件从30. 十一月 2015, 21:37 7JbN WN  
/Z^+K  
Michael Jackson / Jam kc}e},k  
;%Qu;FtC  
使用驱动器  :MATSHITADVD-RAM UJ890AS   Adapter: 1  ID: 1 ,2"-G";!f\  
L.>`;`dmY  
读取模式      : 可靠Secure m+zzhv1  
使用精确流     : 是 ;:f.a(~c  
清空音频缓存    : 否 S-*4HV_l  
使用 C2 指示器 : 是 qy"#XbBeV  
NZ7g}+GTG  
读取偏移校正:               : 102 h${+{1](6  
读取 Lead-In 和 Lead-Out : 否 [LbUlNq^B@  
用静音填充抓取中丢失偏移的采样       : 是 {26/SY  
去除首尾静音块               : 否 ..'k+0u^  
在CRC 计算中使用了空样本       : 是 Q]?r&%Y  
已用接口                  : Win NT 及 2000 本地 Win32 接口 ]zK'aod  
#SyF-QZ[1  
所用输出模式: : 内部 WAV 函数 [&y="6No  
样本格式    : 44.100 Hz; 16 Bit; 立体声 i;Y3pF0%P  
w(/#isC  
ly_@dsU'  
已抓取 CD 的 TOC H|UGR ~&  
mE>v (JY  
     音轨 |    起始    |    长度    |  起始扇区  |  结束扇区   .@5Ro D[o  
    -------------------------------------------- 0aWy!d  
      1 |  0:00.00 |  6:17.72 |      0 |  28346 O>vbAIu  
      2 |  6:17.72 |  6:07.70 |  28347 |  55941 SWq5=h  
      3 | 12:25.67 |  5:43.15 |  55942 |  81681 /c4@QbB  
      4 | 18:09.07 |  4:12.15 |  81682 | 100596 Shag4-*@hi  
      5 | 22:21.22 |  5:28.43 | 100597 | 125239 FV];od&c  
      6 | 27:49.65 |  6:22.20 | 125240 | 153909 "'9[c"Iz  
      7 | 34:12.10 |  6:04.15 | 153910 | 181224 I}!Er V  
      8 | 40:16.25 |  6:47.65 | 181225 | 211814  ]$=\zL  
9`8D Ga  
#UYrSM@u  
范围状态及错误 +"8-)'  
^W)h=49PN  
已选择范围 '}pe$=  
{EL J!o[  
     文件名 J:\12 Music*音乐\CDImage.wav UX!)\5-  
>|| =#;  
     峰值电平 100.0 % BH+@!H3 hf  
     抓取速度 6.3 X !b:;O +[  
     范围质量 100.0 % "T0s7LWp  
     复制 CRC E6E4EB6C 6OOdVS3\J  
     复制成功 "T+oXK\B  
QW[ gDc  
没有错误发生 Fu;\t 0  
o:x,zfW  
`$hna{e^n  
AccurateRip 摘要 _${//`ia=  
Za4X ;  
音轨  1  精确地校准抓取  2)  [9B8233E6]  (AR v2) "B 9aJo  
音轨  2  精确地校准抓取  2)  [64E8FE3C]  (AR v2) |5(< Vk=  
音轨  3  精确地校准抓取  2)  [E9071469]  (AR v2) g*uo2-MN&e  
音轨  4  精确地校准抓取  2)  [CF1B7C0D]  (AR v2) fsr0E=nV  
音轨  5  精确地校准抓取  3)  [C3823C63]  (AR v2) '=^$ ;3Z  
音轨  6  精确地校准抓取  2)  [A273DB30]  (AR v2) l_`DQ8L`  
音轨  7  精确地校准抓取  2)  [DFD91B6C]  (AR v2) U <|h4'(@L  
音轨  8  精确地校准抓取  2)  [E1009224]  (AR v2) :W++`f&  
.%iJin"  
所有音轨精确校准抓取 XehpW}2\  
) Apg  
状态报告结尾
RuW62QSq  
5g{L -8XwI  
链接:http://pan.baidu.com/s/1pJzTskN 密码: \Lz2"JI  
此帖售价 10 金钱,已有 20 人购买 [记录] [购买]
购买后,将显示帖子中所有出售内容。
若发现会员采用欺骗的方法获取财富,请立刻举报,我们会对会员处以2-N倍的罚金,严重者封掉ID!
此段为出售的内容,购买后显示
离线耶稣

发帖
7193
金钱
276356
威望
2517
贡献值
1670
交易币
11324
只看该作者 1楼 发表于: 2015-12-02
这是极好的…… zKB$n.H  



离线wannam

发帖
2703
金钱
87033
威望
382
贡献值
189
交易币
3346
只看该作者 2楼 发表于: 2015-12-02
谢谢
离线小李

发帖
240
金钱
1125
威望
9
贡献值
8
交易币
212
只看该作者 3楼 发表于: 2015-12-03
恭喜又收到好东西了,哈哈哈哈
离线mich008

发帖
849
金钱
5981
威望
24
贡献值
15
交易币
911
只看该作者 4楼 发表于: 2015-12-03
收到的就是惊喜
离线lifan_npl

发帖
2212
金钱
31692
威望
853
贡献值
430
交易币
2593
只看该作者 5楼 发表于: 2015-12-03
谢谢分享  辛苦了
我的淘宝店:
http://shop63152617.taobao.com  
在线michael0829

发帖
955
金钱
10069
威望
90
贡献值
70
交易币
1204
只看该作者 6楼 发表于: 2015-12-12
感谢分享了,楼主辛苦!
I Love You Michael Jackson Forever!
I Just Can't Stop Loving You Michel!
离线肯尼

发帖
959
金钱
6465
威望
442
贡献值
239
交易币
1468
只看该作者 7楼 发表于: 2015-12-30
多谢分享!
Remixed & Designed by Kenny Saxton ©
离线魏聪

发帖
168
金钱
2713
威望
41
贡献值
21
交易币
103
只看该作者 8楼 发表于: 2015-12-31
楼主辛苦
离线Mr灬W

发帖
1130
金钱
12952
威望
161
贡献值
56
交易币
1283
只看该作者 9楼 发表于: 2016-01-04
支持支持~
Heal The World
快速回复
限100 字节
 
上一个 下一个