论坛风格切换切换到宽版
  • 1299阅读
  • 19回复

[亲传][Single] 1992 Jam (AU - EPC 658228 2) - WAV整轨 ♬by幽灵 [复制链接]

上一主题 下一主题
离线mjghosts
 

发帖
8242
金钱
217441
威望
9173
贡献值
2722
交易币
4749
只看楼主 倒序阅读 楼主  发表于: 2015-12-02
— 本帖被 mjghosts 执行加亮操作(2015-12-02) —
注:独家整理,转载请注明出处!EAC无损整轨(压缩包内含CD图片) "fdgBso  
}=z_3JfO  
解压密码:www.mjsunny.com
+D[|L1{xb  
CnSfGsE>  
Jam·澳大利亚薄盒单曲 A-^[4&rb  
GmP)"@O](;  
发行年:1992 k4fc 5P  
CD编号:EPC 658228 2 ^!^6 |[  
条形码:9 399765 822820 O4RNt,?l  
内圈:MADE BY DISCTRONICS B ** 658228.2** #03 _a1 =?  
gw~ %jD-2  
注:罕见的澳大利亚版单曲,收录完整版"Come Together"等8首歌,长达45分钟! d\aKGq;8C  
\{r-e  
Tracklist uD4=1g6[s  
1 Jam (Roger's Club Mix) 6:20 L9tjH C]  
2 Jam (Atlanta Techno Mix) 6:06 EvZ;i^.8LS  
3 Jam (Teddy's Jam) 5:48 <p@c %e,_  
4 Jam (7" Edit) 4:03 a<X8l^Ln  
5 Come Together 5:27 2 qRX A  
6 Don't Stop 'Til You Get Enough (Roger's Underground Solution Mix) 6:22 =! v.VF\;  
7 Jam (Roger's Jeep Mix) 5:54 Ta#vD_QP  
8 Jam (E-Smoove's Jazzy Jam) 6:44 f`<j(.{9F  
:0o $qz2  
eydVWVN  
Q0~5h?V'  
04tUf3 >  
47I:o9E  
Exact Audio Copy V1.0 beta 6 from 9. April 2015 ';V(sRU@  
tYIHsm\b  
EAC 抓取日志文件从30. 十一月 2015, 21:37 L5T)_iQ5  
)|LX_kyW  
Michael Jackson / Jam N-^\X3X  
X1<)B]y  
使用驱动器  :MATSHITADVD-RAM UJ890AS   Adapter: 1  ID: 1 =)M8>>l  
4NR,"l)  
读取模式      : 可靠Secure  QN_5q5  
使用精确流     : 是 lG# &Pv>-  
清空音频缓存    : 否 b@YSrjJ  
使用 C2 指示器 : 是 9k7|B>LT  
I$f:K]|.m!  
读取偏移校正:               : 102 !Z=`Wk5  
读取 Lead-In 和 Lead-Out : 否 *[.\ S3K`  
用静音填充抓取中丢失偏移的采样       : 是 uN$X3Ls_  
去除首尾静音块               : 否 vjXvjv{t  
在CRC 计算中使用了空样本       : 是 0A1l"$_|  
已用接口                  : Win NT 及 2000 本地 Win32 接口 vxqMo9T  
w:umr#  
所用输出模式: : 内部 WAV 函数 U3za}3  
样本格式    : 44.100 Hz; 16 Bit; 立体声 Aga7X@fV(  
u{3KV6MS  
Jz|(B_U  
已抓取 CD 的 TOC t*<c+Ixu  
x[?_F  
     音轨 |    起始    |    长度    |  起始扇区  |  结束扇区   [Dt\E4  
    -------------------------------------------- 'v,W gPe  
      1 |  0:00.00 |  6:17.72 |      0 |  28346 kQb0pfYs  
      2 |  6:17.72 |  6:07.70 |  28347 |  55941 Rsulp#['  
      3 | 12:25.67 |  5:43.15 |  55942 |  81681 _+. t7q^  
      4 | 18:09.07 |  4:12.15 |  81682 | 100596 5FzRusNiA  
      5 | 22:21.22 |  5:28.43 | 100597 | 125239 :@/fy}!  
      6 | 27:49.65 |  6:22.20 | 125240 | 153909 oaKf{$vg  
      7 | 34:12.10 |  6:04.15 | 153910 | 181224 ^DH*@M  
      8 | 40:16.25 |  6:47.65 | 181225 | 211814 Z^|C~lp;n  
<\8   
RmQt%a7\{  
范围状态及错误 9e&#;6l  
{Y"r]:5i  
已选择范围 5jQP"^g  
Ltw7b  
     文件名 J:\12 Music*音乐\CDImage.wav `Cf en8  
4Jr[8P0/A9  
     峰值电平 100.0 % :"^< aLj  
     抓取速度 6.3 X bMZn7c  
     范围质量 100.0 % FqxOHovE  
     复制 CRC E6E4EB6C yO;C3q  
     复制成功 tW:/R@@  
B=bI'S8\  
没有错误发生 NZC='3Uz  
uWB:"&!^  
u:uSsAn0$  
AccurateRip 摘要 %-ZR~*  
`$V[;ld(mz  
音轨  1  精确地校准抓取  2)  [9B8233E6]  (AR v2) 0Z A#T:4  
音轨  2  精确地校准抓取  2)  [64E8FE3C]  (AR v2)  !u53 3  
音轨  3  精确地校准抓取  2)  [E9071469]  (AR v2) {b|3]_-/  
音轨  4  精确地校准抓取  2)  [CF1B7C0D]  (AR v2) =!?[]>Dh  
音轨  5  精确地校准抓取  3)  [C3823C63]  (AR v2) stg30><  
音轨  6  精确地校准抓取  2)  [A273DB30]  (AR v2) Uz6{>OCvk|  
音轨  7  精确地校准抓取  2)  [DFD91B6C]  (AR v2) oLrkOn/aY  
音轨  8  精确地校准抓取  2)  [E1009224]  (AR v2) k^H0b\hYY  
&mN'Tk  
所有音轨精确校准抓取 &Ki> h  
[J a)<!]<  
状态报告结尾
3p:=xL  
}5Yj  
链接:http://pan.baidu.com/s/1pJzTskN 密码: 8]S,u:E:N  
此帖售价 10 金钱,已有 19 人购买 [记录] [购买]
购买后,将显示帖子中所有出售内容。
若发现会员采用欺骗的方法获取财富,请立刻举报,我们会对会员处以2-N倍的罚金,严重者封掉ID!
此段为出售的内容,购买后显示
离线耶稣

发帖
7139
金钱
270007
威望
2488
贡献值
1652
交易币
11198
只看该作者 1楼 发表于: 2015-12-02
这是极好的…… pQa:pX  





离线wannam

发帖
2702
金钱
87012
威望
382
贡献值
189
交易币
3345
只看该作者 2楼 发表于: 2015-12-02
谢谢
离线小李

发帖
233
金钱
190
威望
99
贡献值
8
交易币
205
只看该作者 3楼 发表于: 2015-12-03
恭喜又收到好东西了,哈哈哈哈
离线mich008

发帖
831
金钱
5831
威望
24
贡献值
15
交易币
893
只看该作者 4楼 发表于: 2015-12-03
收到的就是惊喜
离线lifan_npl

发帖
2185
金钱
16546
威望
783
贡献值
348
交易币
2542
只看该作者 5楼 发表于: 2015-12-03
谢谢分享  辛苦了
我的淘宝:
http://shop63152617.taobao.com  
离线michael0829

发帖
954
金钱
9759
威望
90
贡献值
70
交易币
1203
只看该作者 6楼 发表于: 2015-12-12
感谢分享了,楼主辛苦!
I Love You Michael Jackson Forever!
I Just Can't Stop Loving You Michel!
离线肯尼

发帖
955
金钱
7410
威望
431
贡献值
228
交易币
1440
只看该作者 7楼 发表于: 2015-12-30
多谢分享!
顺势待发张元穹 Kenny Saxton @肯尼 & 齐奕同Michael Qi @迈颤我栗
2014年6月25日 合辑 火热制作中
2014 MJFantastics Music International Ltd.
离线魏聪

发帖
168
金钱
2713
威望
41
贡献值
21
交易币
103
只看该作者 8楼 发表于: 2015-12-31
楼主辛苦
离线Mr灬W

发帖
1129
金钱
12950
威望
161
贡献值
56
交易币
1282
只看该作者 9楼 发表于: 2016-01-04
支持支持~
Heal The World
快速回复
限100 字节
 
上一个 下一个