论坛风格切换切换到宽版
  • 1754阅读
  • 20回复

[亲传][Single] 1992 Jam (AU - EPC 658228 2) - WAV整轨 ♬by幽灵 [复制链接]

上一主题 下一主题
离线mjghosts
 

发帖
8257
金钱
219515
威望
9187
贡献值
2734
交易币
4792
只看楼主 倒序阅读 楼主  发表于: 2015-12-02
— 本帖被 mjghosts 执行加亮操作(2015-12-02) —
注:独家整理,转载请注明出处!EAC无损整轨(压缩包内含CD图片) y$|%K3  
GK .^Gd  
解压密码:www.mjsunny.com
L[lX?g?Ob  
v_mk{  
Jam·澳大利亚薄盒单曲 [~*5uSG  
w=:o//~6j  
发行年:1992 J9eOBom8e<  
CD编号:EPC 658228 2 pMB!I9q  
条形码:9 399765 822820 k-IL%+U  
内圈:MADE BY DISCTRONICS B ** 658228.2** #03 /Cy4]1dw  
3}aKok"k  
注:罕见的澳大利亚版单曲,收录完整版"Come Together"等8首歌,长达45分钟! >RJjm&M  
;\j7jz^uC  
Tracklist F-AU'o *  
1 Jam (Roger's Club Mix) 6:20 %O6r  
2 Jam (Atlanta Techno Mix) 6:06 5.ibH  
3 Jam (Teddy's Jam) 5:48 $B%wK`J  
4 Jam (7" Edit) 4:03 `_aX>fw  
5 Come Together 5:27 ezimQ  
6 Don't Stop 'Til You Get Enough (Roger's Underground Solution Mix) 6:22 Vu.VH([b]Q  
7 Jam (Roger's Jeep Mix) 5:54 M[  {O%!  
8 Jam (E-Smoove's Jazzy Jam) 6:44 @k=UB&?I  
V>Dqw!  
i;Dj16h  
}NjZfBQW`  
;w/@_!~  
/!Ay12lKE}  
Exact Audio Copy V1.0 beta 6 from 9. April 2015 )]}G8A  
a\m_Q{:  
EAC 抓取日志文件从30. 十一月 2015, 21:37 ZnKjU ]m  
K;z$~;F  
Michael Jackson / Jam O&dBLh!G  
pfBe24q  
使用驱动器  :MATSHITADVD-RAM UJ890AS   Adapter: 1  ID: 1 |\zzOfaO  
acrR  
读取模式      : 可靠Secure <Y]e  
使用精确流     : 是 SZ29B  
清空音频缓存    : 否 ?g\emhG  
使用 C2 指示器 : 是 /#WvC;B  
aFaioE#h(  
读取偏移校正:               : 102 8.,d`~  
读取 Lead-In 和 Lead-Out : 否 }* \*<d 3  
用静音填充抓取中丢失偏移的采样       : 是 PYBE?td  
去除首尾静音块               : 否 4O{G^;  
在CRC 计算中使用了空样本       : 是 G6QD`ED  
已用接口                  : Win NT 及 2000 本地 Win32 接口 h!@7'Q  
QM![tZt%;  
所用输出模式: : 内部 WAV 函数 uu9IUqEq2  
样本格式    : 44.100 Hz; 16 Bit; 立体声 j]FK.G'  
35Fxzj $  
;yajt\a  
已抓取 CD 的 TOC C1'y6{,@  
\-pqqSy  
     音轨 |    起始    |    长度    |  起始扇区  |  结束扇区   ,{mv6?_  
    -------------------------------------------- Vpne-PW  
      1 |  0:00.00 |  6:17.72 |      0 |  28346 .%y'q!?  
      2 |  6:17.72 |  6:07.70 |  28347 |  55941 }K8e(i6z  
      3 | 12:25.67 |  5:43.15 |  55942 |  81681 m~ 5"q%;  
      4 | 18:09.07 |  4:12.15 |  81682 | 100596 JO*/UC>"  
      5 | 22:21.22 |  5:28.43 | 100597 | 125239 ]=VRct "  
      6 | 27:49.65 |  6:22.20 | 125240 | 153909  63 'X#S  
      7 | 34:12.10 |  6:04.15 | 153910 | 181224 ^D5Jqh)  
      8 | 40:16.25 |  6:47.65 | 181225 | 211814 }NoP(&ebz*  
{g#4E0.A!  
A+!,{G  
范围状态及错误 Pw| h`[h  
J,:&U wkv  
已选择范围 ^P^%Q)QXl  
W^H3=hZ  
     文件名 J:\12 Music*音乐\CDImage.wav ]VxC]a2  
CxeW5qc  
     峰值电平 100.0 % MW6z&+Z  
     抓取速度 6.3 X ? "r=08  
     范围质量 100.0 % ;RJ 8h x  
     复制 CRC E6E4EB6C >> "gb/x,  
     复制成功 F^'$%XKV  
VK]U*V1  
没有错误发生 l>}f{az-T  
xsB0LUt  
g/JF(nkP  
AccurateRip 摘要 ey=KAt  
P2a5<#_|  
音轨  1  精确地校准抓取  2)  [9B8233E6]  (AR v2) zk FX[-'O  
音轨  2  精确地校准抓取  2)  [64E8FE3C]  (AR v2) =&}_bd/]  
音轨  3  精确地校准抓取  2)  [E9071469]  (AR v2) u*G<?  
音轨  4  精确地校准抓取  2)  [CF1B7C0D]  (AR v2) &jHsFS  
音轨  5  精确地校准抓取  3)  [C3823C63]  (AR v2) lb. Q^TghU  
音轨  6  精确地校准抓取  2)  [A273DB30]  (AR v2) }I&.xzJ  
音轨  7  精确地校准抓取  2)  [DFD91B6C]  (AR v2) Ctz#9[|  
音轨  8  精确地校准抓取  2)  [E1009224]  (AR v2) X`KSj N&(  
Gv &G2^  
所有音轨精确校准抓取 z~pp7  
Nv7-6C6<  
状态报告结尾
-!Myw&*\V  
x3=1/#9  
链接:http://pan.baidu.com/s/1pJzTskN 密码: YpDJ(61+  
此帖售价 10 金钱,已有 20 人购买 [记录] [购买]
购买后,将显示帖子中所有出售内容。
若发现会员采用欺骗的方法获取财富,请立刻举报,我们会对会员处以2-N倍的罚金,严重者封掉ID!
此段为出售的内容,购买后显示
离线耶稣

发帖
7203
金钱
277425
威望
2521
贡献值
1672
交易币
11342
只看该作者 1楼 发表于: 2015-12-02
这是极好的…… DKIH{:L7  



离线wannam

发帖
2703
金钱
87079
威望
382
贡献值
189
交易币
3346
只看该作者 2楼 发表于: 2015-12-02
谢谢
离线小李

发帖
240
金钱
1125
威望
9
贡献值
8
交易币
212
只看该作者 3楼 发表于: 2015-12-03
恭喜又收到好东西了,哈哈哈哈
离线mich008

发帖
854
金钱
6406
威望
24
贡献值
15
交易币
916
只看该作者 4楼 发表于: 2015-12-03
收到的就是惊喜
离线lifan_npl

发帖
2213
金钱
31997
威望
853
贡献值
430
交易币
2594
只看该作者 5楼 发表于: 2015-12-03
谢谢分享  辛苦了
我的淘宝店:
http://shop63152617.taobao.com  
离线michael0829

发帖
957
金钱
10414
威望
90
贡献值
70
交易币
1206
只看该作者 6楼 发表于: 2015-12-12
感谢分享了,楼主辛苦!
I Love You Michael Jackson Forever!
I Just Can't Stop Loving You Michel!
离线肯尼

发帖
959
金钱
6465
威望
442
贡献值
239
交易币
1468
只看该作者 7楼 发表于: 2015-12-30
多谢分享!
Remixed & Designed by Kenny Saxton ©
离线魏聪

发帖
168
金钱
2713
威望
41
贡献值
21
交易币
103
只看该作者 8楼 发表于: 2015-12-31
楼主辛苦
离线Mr灬W

发帖
1130
金钱
12952
威望
161
贡献值
56
交易币
1283
只看该作者 9楼 发表于: 2016-01-04
支持支持~
Heal The World
快速回复
限100 字节
 
上一个 下一个