论坛风格切换切换到宽版
  • 1401阅读
  • 20回复

[亲传][Single] 1992 Jam (AU - EPC 658228 2) - WAV整轨 ♬by幽灵 [复制链接]

上一主题 下一主题
离线mjghosts
 

发帖
8251
金钱
218667
威望
9176
贡献值
2723
交易币
4762
只看楼主 倒序阅读 楼主  发表于: 2015-12-02
— 本帖被 mjghosts 执行加亮操作(2015-12-02) —
注:独家整理,转载请注明出处!EAC无损整轨(压缩包内含CD图片) XDpfpJ,z"}  
e~+(7_2  
解压密码:www.mjsunny.com
`%t$s,TiP  
:H!(?(Pie  
Jam·澳大利亚薄盒单曲 i<4>\nc  
AezvBY0'`z  
发行年:1992 lX98"}  
CD编号:EPC 658228 2 a>wfhmr  
条形码:9 399765 822820 w~kHQ%A  
内圈:MADE BY DISCTRONICS B ** 658228.2** #03 >aEL;V=}P  
?w+ QbT  
注:罕见的澳大利亚版单曲,收录完整版"Come Together"等8首歌,长达45分钟! ^Yj"RM$;N  
V I6\   
Tracklist Qw24/DJK  
1 Jam (Roger's Club Mix) 6:20 Q~fwWp-J  
2 Jam (Atlanta Techno Mix) 6:06 T*h!d(  
3 Jam (Teddy's Jam) 5:48 -"W)|oC_  
4 Jam (7" Edit) 4:03 /635B*g  
5 Come Together 5:27 ![^EsgEB*  
6 Don't Stop 'Til You Get Enough (Roger's Underground Solution Mix) 6:22 ,f} h}  
7 Jam (Roger's Jeep Mix) 5:54 }qc#lz  
8 Jam (E-Smoove's Jazzy Jam) 6:44 W8f`J2^"M  
cyW;,uT)D  
blJIto '  
hVMYB_<~  
B{s]juPG  
h^}_YaT\  
Exact Audio Copy V1.0 beta 6 from 9. April 2015 Vy]A,Rn7  
Mv|vRx^b  
EAC 抓取日志文件从30. 十一月 2015, 21:37 $Axng J c  
_1sP.0 t  
Michael Jackson / Jam ,{?wKXJ}L!  
#nKRTb+{  
使用驱动器  :MATSHITADVD-RAM UJ890AS   Adapter: 1  ID: 1 cv3L&zg M  
hQXxG/yFm  
读取模式      : 可靠Secure |Eb&}m:E$  
使用精确流     : 是 y =R aJm  
清空音频缓存    : 否 <nBo}0O}  
使用 C2 指示器 : 是 !~WZ_z  
Qh^R Ax  
读取偏移校正:               : 102 0A.PD rM:  
读取 Lead-In 和 Lead-Out : 否 ei@3,{~5  
用静音填充抓取中丢失偏移的采样       : 是 <KtBv Ip]  
去除首尾静音块               : 否 m=H_?W;  
在CRC 计算中使用了空样本       : 是 aVP5%  
已用接口                  : Win NT 及 2000 本地 Win32 接口 N r<9u$d9=  
%VWp&a8  
所用输出模式: : 内部 WAV 函数 gV|Y54}T  
样本格式    : 44.100 Hz; 16 Bit; 立体声 `$at9  
6+iK!&+=  
VgA48qZ  
已抓取 CD 的 TOC fWj@e"G  
:9`qogF>  
     音轨 |    起始    |    长度    |  起始扇区  |  结束扇区   : W~f;k  
    -------------------------------------------- GMdI0jaG#  
      1 |  0:00.00 |  6:17.72 |      0 |  28346 ';6X!KY+]  
      2 |  6:17.72 |  6:07.70 |  28347 |  55941 80}4/8  
      3 | 12:25.67 |  5:43.15 |  55942 |  81681 OF8WDo`  
      4 | 18:09.07 |  4:12.15 |  81682 | 100596 -D#5o,]3  
      5 | 22:21.22 |  5:28.43 | 100597 | 125239 KzG_ <<  
      6 | 27:49.65 |  6:22.20 | 125240 | 153909 Rboof`pVt  
      7 | 34:12.10 |  6:04.15 | 153910 | 181224 \!<"7=(J{4  
      8 | 40:16.25 |  6:47.65 | 181225 | 211814 wWTQ6~Y%d  
 %}h`+L  
MqdB\OW&  
范围状态及错误 y\#o2PVmY  
j=W@P-  
已选择范围 O: JPJ"!  
2h )8Fq_"  
     文件名 J:\12 Music*音乐\CDImage.wav uoCGSXsi  
%K zbO0  
     峰值电平 100.0 % p+[} Hxx=  
     抓取速度 6.3 X \f"1}f  
     范围质量 100.0 % :Fw?{0  
     复制 CRC E6E4EB6C 9|=nV|R'6  
     复制成功 ~^7r?<aKc  
fhRjYYGI  
没有错误发生 + |C=ZU  
B {aU;{1  
oLS7`+b$  
AccurateRip 摘要 0`n 5x0R  
hVUIBJ/5(-  
音轨  1  精确地校准抓取  2)  [9B8233E6]  (AR v2) b_vTGl1_6  
音轨  2  精确地校准抓取  2)  [64E8FE3C]  (AR v2) jdM=SBy7q  
音轨  3  精确地校准抓取  2)  [E9071469]  (AR v2) s.:r;%a  
音轨  4  精确地校准抓取  2)  [CF1B7C0D]  (AR v2) ^|?1_r  
音轨  5  精确地校准抓取  3)  [C3823C63]  (AR v2) s$GF 95^  
音轨  6  精确地校准抓取  2)  [A273DB30]  (AR v2) Hku=pr3Gn  
音轨  7  精确地校准抓取  2)  [DFD91B6C]  (AR v2) cZi[(K  
音轨  8  精确地校准抓取  2)  [E1009224]  (AR v2) ezZph"&  
C9jbv/c  
所有音轨精确校准抓取 U$'y_}V  
&fSTR-8ev#  
状态报告结尾
IN^_BKQt  
2Va4i7"X\  
链接:http://pan.baidu.com/s/1pJzTskN 密码: [5Y<7DS  
此帖售价 10 金钱,已有 20 人购买 [记录] [购买]
购买后,将显示帖子中所有出售内容。
若发现会员采用欺骗的方法获取财富,请立刻举报,我们会对会员处以2-N倍的罚金,严重者封掉ID!
此段为出售的内容,购买后显示
离线耶稣

发帖
7158
金钱
273560
威望
2493
贡献值
1657
交易币
11237
只看该作者 1楼 发表于: 2015-12-02
这是极好的…… I]uhi{\C  




离线wannam

发帖
2702
金钱
87018
威望
382
贡献值
189
交易币
3345
只看该作者 2楼 发表于: 2015-12-02
谢谢
离线小李

发帖
238
金钱
1115
威望
9
贡献值
8
交易币
210
只看该作者 3楼 发表于: 2015-12-03
恭喜又收到好东西了,哈哈哈哈
离线mich008

发帖
839
金钱
5917
威望
24
贡献值
15
交易币
901
只看该作者 4楼 发表于: 2015-12-03
收到的就是惊喜
离线lifan_npl

发帖
2196
金钱
31917
威望
851
贡献值
428
交易币
2569
只看该作者 5楼 发表于: 2015-12-03
谢谢分享  辛苦了
我的淘宝:
http://shop63152617.taobao.com  
离线michael0829

发帖
955
金钱
9809
威望
90
贡献值
70
交易币
1204
只看该作者 6楼 发表于: 2015-12-12
感谢分享了,楼主辛苦!
I Love You Michael Jackson Forever!
I Just Can't Stop Loving You Michel!
离线肯尼

发帖
955
金钱
6312
威望
431
贡献值
228
交易币
1440
只看该作者 7楼 发表于: 2015-12-30
多谢分享!
顺势待发张元穹 Kenny Saxton @肯尼 & 齐奕同Michael Qi @迈颤我栗
2014年6月25日 合辑 火热制作中
2014 MJFantastics Music International Ltd.
离线魏聪

发帖
168
金钱
2713
威望
41
贡献值
21
交易币
103
只看该作者 8楼 发表于: 2015-12-31
楼主辛苦
离线Mr灬W

发帖
1130
金钱
12952
威望
161
贡献值
56
交易币
1283
只看该作者 9楼 发表于: 2016-01-04
支持支持~
Heal The World
快速回复
限100 字节
 
上一个 下一个