论坛风格切换切换到宽版
  • 1178阅读
  • 19回复

[亲传][Single] 1992 Jam (AU - EPC 658228 2) - WAV整轨 ♬by幽灵 [复制链接]

上一主题 下一主题
离线mjghosts
 

发帖
8240
金钱
216437
威望
9172
贡献值
2721
交易币
4743
只看楼主 倒序阅读 楼主  发表于: 2015-12-02
— 本帖被 mjghosts 执行加亮操作(2015-12-02) —
注:独家整理,转载请注明出处!EAC无损整轨(压缩包内含CD图片) &|E2L1  
`&9#!T.  
解压密码:www.mjsunny.com
S-f3rL[?  
RXx +rdF0  
Jam·澳大利亚薄盒单曲 & bw1  
@fE^w^K7  
发行年:1992 Vj?.'(  
CD编号:EPC 658228 2 w@%W{aUC  
条形码:9 399765 822820 =$`DBLX   
内圈:MADE BY DISCTRONICS B ** 658228.2** #03 MzG(+B  
 B-&J]H  
注:罕见的澳大利亚版单曲,收录完整版"Come Together"等8首歌,长达45分钟! 09%eaoW  
\GvVs  
Tracklist !w)Mm P Xb  
1 Jam (Roger's Club Mix) 6:20 *V"cu  
2 Jam (Atlanta Techno Mix) 6:06 J<`RlDI  
3 Jam (Teddy's Jam) 5:48 Y\%}VD2k  
4 Jam (7" Edit) 4:03 EhD|\WLx!  
5 Come Together 5:27 q/B+F%QiMQ  
6 Don't Stop 'Til You Get Enough (Roger's Underground Solution Mix) 6:22 AV2q*  
7 Jam (Roger's Jeep Mix) 5:54 hr{%'DAS  
8 Jam (E-Smoove's Jazzy Jam) 6:44 rL,)Tc|"  
[{{?e6J  
x!$,Hcph,  
|@@mq!>-  
Qrt8O7&('  
Asn0&Ys4  
Exact Audio Copy V1.0 beta 6 from 9. April 2015 AngECkF-  
,X$Avdc2  
EAC 抓取日志文件从30. 十一月 2015, 21:37 e N-{  
$@Ay0GEI"  
Michael Jackson / Jam 7O9s 5  
FSQ&J|O  
使用驱动器  :MATSHITADVD-RAM UJ890AS   Adapter: 1  ID: 1 !:n),sFv45  
aW6+Up+G*  
读取模式      : 可靠Secure w7Pe< vT  
使用精确流     : 是 I| j tpv}  
清空音频缓存    : 否 QlS5B.h,  
使用 C2 指示器 : 是 (En\odbvt  
%'t~e?d!  
读取偏移校正:               : 102 4y1> !~f  
读取 Lead-In 和 Lead-Out : 否 mWusRgj+8  
用静音填充抓取中丢失偏移的采样       : 是 n>E*g|a  
去除首尾静音块               : 否 ommKf[h%i  
在CRC 计算中使用了空样本       : 是 PD}R7[".>  
已用接口                  : Win NT 及 2000 本地 Win32 接口 &V?q d{39  
_M&.kha  
所用输出模式: : 内部 WAV 函数 @*DIB+K  
样本格式    : 44.100 Hz; 16 Bit; 立体声 ILi5WuOYX  
V{h@nhq  
,OKM\N ,  
已抓取 CD 的 TOC @"I#b99  
Y/S3)o  
     音轨 |    起始    |    长度    |  起始扇区  |  结束扇区   =GQ^uVf1  
    -------------------------------------------- Xo@YTol  
      1 |  0:00.00 |  6:17.72 |      0 |  28346 hf<$vRti>  
      2 |  6:17.72 |  6:07.70 |  28347 |  55941 lkfFAwnc  
      3 | 12:25.67 |  5:43.15 |  55942 |  81681 s\W  
      4 | 18:09.07 |  4:12.15 |  81682 | 100596 +?iM$}8!U  
      5 | 22:21.22 |  5:28.43 | 100597 | 125239 |"yf@^kdC  
      6 | 27:49.65 |  6:22.20 | 125240 | 153909 |)q K g  
      7 | 34:12.10 |  6:04.15 | 153910 | 181224 v\Y}(fD  
      8 | 40:16.25 |  6:47.65 | 181225 | 211814 v1C.\fL  
Q$)|/Y))  
<M,H9^&#l3  
范围状态及错误 $a^isd4  
_GO+fB/Q1  
已选择范围 v{2DBr  
b%;59^4AjD  
     文件名 J:\12 Music*音乐\CDImage.wav ~B!O~nvdQ  
=u8D!AxT  
     峰值电平 100.0 % !&`\ LJ=j  
     抓取速度 6.3 X 6!B^xm.R@  
     范围质量 100.0 % d>, V  
     复制 CRC E6E4EB6C _~[?> cF%  
     复制成功 5}eQaW48  
_;:rkC fj  
没有错误发生 UQ3@@:L_  
"XNu-_$N<a  
uyNJN  
AccurateRip 摘要 YN@6}B#1  
fYhR#FVI  
音轨  1  精确地校准抓取  2)  [9B8233E6]  (AR v2) jJVT_8J  
音轨  2  精确地校准抓取  2)  [64E8FE3C]  (AR v2) GVG!sM mnX  
音轨  3  精确地校准抓取  2)  [E9071469]  (AR v2) #+" 4&:my  
音轨  4  精确地校准抓取  2)  [CF1B7C0D]  (AR v2) @8nLQh^  
音轨  5  精确地校准抓取  3)  [C3823C63]  (AR v2) S= -M3fP~  
音轨  6  精确地校准抓取  2)  [A273DB30]  (AR v2) =3|pHc hJ4  
音轨  7  精确地校准抓取  2)  [DFD91B6C]  (AR v2) H#L#2M%  
音轨  8  精确地校准抓取  2)  [E1009224]  (AR v2) .Z=Ce!  
PW%1xHLfk  
所有音轨精确校准抓取 'j,oIqx  
> BNw  
状态报告结尾
lwOf)jK:J  
4.|-m.a  
链接:http://pan.baidu.com/s/1pJzTskN 密码: P8wy*JvT  
此帖售价 10 金钱,已有 19 人购买 [记录] [购买]
购买后,将显示帖子中所有出售内容。
若发现会员采用欺骗的方法获取财富,请立刻举报,我们会对会员处以2-N倍的罚金,严重者封掉ID!
此段为出售的内容,购买后显示
离线耶稣

发帖
7121
金钱
265688
威望
2471
贡献值
1638
交易币
11152
只看该作者 1楼 发表于: 2015-12-02
这是极好的…… mDfwn7f  


离线wannam

发帖
2701
金钱
86997
威望
382
贡献值
189
交易币
3344
只看该作者 2楼 发表于: 2015-12-02
谢谢
离线小李

发帖
232
金钱
230
威望
99
贡献值
8
交易币
204
只看该作者 3楼 发表于: 2015-12-03
恭喜又收到好东西了,哈哈哈哈
离线mich008

发帖
824
金钱
5504
威望
24
贡献值
15
交易币
886
只看该作者 4楼 发表于: 2015-12-03
收到的就是惊喜
离线lifan_npl

发帖
2173
金钱
16819
威望
782
贡献值
347
交易币
2526
只看该作者 5楼 发表于: 2015-12-03
谢谢分享  辛苦了
我的淘宝:
http://shop63152617.taobao.com  
离线michael0829

发帖
954
金钱
9369
威望
90
贡献值
70
交易币
1203
只看该作者 6楼 发表于: 2015-12-12
感谢分享了,楼主辛苦!
I Love You Michael Jackson Forever!
I Just Can't Stop Loving You Michel!
离线肯尼

发帖
953
金钱
7180
威望
431
贡献值
228
交易币
1438
只看该作者 7楼 发表于: 2015-12-30
多谢分享!
顺势待发张元穹 Kenny Saxton @肯尼 & 齐奕同Michael Qi @迈颤我栗
2014年6月25日 合辑 火热制作中
2014 MJFantastics Music International Ltd.
离线魏聪

发帖
168
金钱
2713
威望
41
贡献值
21
交易币
103
只看该作者 8楼 发表于: 2015-12-31
楼主辛苦
离线Mr灬W

发帖
1129
金钱
12950
威望
161
贡献值
56
交易币
1282
只看该作者 9楼 发表于: 2016-01-04
支持支持~
Heal The World
快速回复
限100 字节
 
上一个 下一个