论坛风格切换切换到宽版
  • 2418阅读
  • 27回复

[亲传][Album] BAD25·2CD (US - 88691999702) - WAV整轨 ♬by幽灵 [复制链接]

上一主题 下一主题
离线mjghosts
 

发帖
8257
金钱
219515
威望
9187
贡献值
2734
交易币
4792
只看楼主 倒序阅读 楼主  发表于: 2015-12-29
— 本帖被 mjghosts 执行加亮操作(2015-12-29) —
*美版,完美精确校准抓轨。至于豪华套装3CD+DVD收藏了不舍得拆封,所以分享个简装版2CD版本,CD1是原始专辑,CD2是此前未发行的BAD时期歌曲。网络上找不到美版封底图,用欧版替代。* >~wk  
=!P?/  
注:独家整理,转载请注明出处!EAC无损整轨(压缩包内含CD图片) gjN!_^ _  
Md?bAMnG+}  
解压密码:www.mjsunny.com
B[_bJ *  
#m$%S%s  
}:D~yEP  
bq&S?! =s  
ST8/ ;S#c  
q.b4m 'J  
Exact Audio Copy V1.0 beta 6 from 9. April 2015 l}-`E@w  
sCCr%r]zL  
EAC 抓取日志文件从27. 十二月 2015, 21:02 ;AB,:*  
E1ob+h:`d  
Michael Jackson / Bad 25 3v>,c>b([  
B:#0B[  
使用驱动器  :MATSHITADVD-RAM UJ890AS   Adapter: 1  ID: 1 d4h(F,K7V  
2OlC7X{  
读取模式      : 可靠Secure EjE`S_i=  
使用精确流     : 是 iSLf:  
清空音频缓存    : 否 t\d;}@bl  
使用 C2 指示器 : 是 kR?n%`&k  
IMrOPwjc  
读取偏移校正:               : 102  pytfsVM  
读取 Lead-In 和 Lead-Out : 否 xm, yqM!0A  
用静音填充抓取中丢失偏移的采样       : 是 b+apNph  
去除首尾静音块               : 否 VZ@@j[F(  
在CRC 计算中使用了空样本       : 是 !O_^Rn+<2  
已用接口                  : Win NT 及 2000 本地 Win32 接口 #N}}8RL  
*.Hnt\4|  
所用输出模式: : 内部 WAV 函数 d}J#wT  
样本格式    : 44.100 Hz; 16 Bit; 立体声 _Fy:3,(  
G=Bj1ss.  
4HmRsOl  
已抓取 CD 的 TOC S@-X?Lu  
KJZY.7  
     音轨 |    起始    |    长度    |  起始扇区  |  结束扇区   9j9?;3;  
    -------------------------------------------- u{G6xuPWf  
      1 |  0:00.00 |  4:07.43 |      0 |  18567 q\Z1-sl~s  
      2 |  4:07.43 |  4:59.13 |  18568 |  41005 ZH :X 4!  
      3 |  9:06.56 |  4:04.58 |  41006 |  59363 8yl /!O,v  
      4 | 13:11.39 |  3:49.43 |  59364 |  76581 EQ-~e   
      5 | 17:01.07 |  4:07.41 |  76582 |  95147 H& +s&F{%  
      6 | 21:08.48 |  3:55.01 |  95148 | 112773 c8MNo'h  
      7 | 25:03.49 |  5:18.56 | 112774 | 136679 h#9)M  
      8 | 30:22.30 |  4:10.73 | 136680 | 155502 S/aPYrk>6  
      9 | 34:33.28 |  4:42.21 | 155503 | 176673 ^&%?Q_]  
     10 | 39:15.49 |  4:18.51 | 176674 | 196074 DTY=k  
     11 | 43:34.25 |  4:40.07 | 196075 | 217081 *V}}3Degh  
b04~z&Xv  
LWE !+(n  
范围状态及错误 |r%P.f:y{X  
KpL82  
已选择范围 n3w2&  
<tNx*ce5  
     文件名 J:\12 Music*音乐\CDImage.wav uIu0"pv`x  
dNR4h  
     峰值电平 100.0 % wR KGJ  
     抓取速度 6.2 X x>Kem$z  
     范围质量 99.9 % n\QG-?%Pi  
     复制 CRC 475C98B0 5VI'hxU4Qg  
     复制成功 yF*JzE 7,  
A;kB"Tx  
没有错误发生 u3q!te  
6Cibc .vt  
%K zURv  
AccurateRip 摘要 pgI@[zp7  
*d@}'De{8  
音轨  1  精确地校准抓取  63)  [29FF250E]  (AR v2) __zsrIUJ  
音轨  2  精确地校准抓取  63)  [7913F3A1]  (AR v2) Y yI|^f8C  
音轨  3  精确地校准抓取  63)  [A5035CB9]  (AR v2) ,O2Uj3"  
音轨  4  精确地校准抓取  62)  [6B61893B]  (AR v2) ]E`DG  
音轨  5  精确地校准抓取  61)  [ECE1F2E5]  (AR v2) wLW!_D,/R  
音轨  6  精确地校准抓取  61)  [C5662DBE]  (AR v2) ] Qj65]  
音轨  7  精确地校准抓取  62)  [1782288A]  (AR v2) )\t#e`3  
音轨  8  精确地校准抓取  62)  [D6EA2B90]  (AR v2) a "8/y4Y  
音轨  9  精确地校准抓取  63)  [84256184]  (AR v2) R\6#J0&Y-  
音轨 10  精确地校准抓取  63)  [F4EC9974]  (AR v2) :  wb\N'b  
音轨 11  精确地校准抓取  61)  [3FD35C5D]  (AR v2) 1Hzj-u&N/  
H!HkXm"  
所有音轨精确校准抓取 i $#bg^  
^+!!:J|ra  
状态报告结尾
'd'*4 )]k  
/id(atiF^  
Exact Audio Copy V1.0 beta 6 from 9. April 2015 pv;}Sv$ ]-  
x~Y]c"'D  
EAC 抓取日志文件从27. 十二月 2015, 20:40 6xvyhg#B  
G"3D"7f a  
Michael Jackson / Bad 25 ldO6W7 G|h  
]|@RWzA  
使用驱动器  :MATSHITADVD-RAM UJ890AS   Adapter: 1  ID: 1 [2WJ>2r}6  
gk1I1)p  
读取模式      : 可靠Secure Z4b<$t[u  
使用精确流     : 是 hWP$U  
清空音频缓存    : 否 0hp*(, L  
使用 C2 指示器 : 是 .BuXg<`  
8vjaQ5  
读取偏移校正:               : 102 RP?UKOc  
读取 Lead-In 和 Lead-Out : 否 6p|*H?|It  
用静音填充抓取中丢失偏移的采样       : 是 t2Q40' `  
去除首尾静音块               : 否 -HutEbkjx  
在CRC 计算中使用了空样本       : 是 o&g-0!"  
已用接口                  : Win NT 及 2000 本地 Win32 接口 n#8N{ya5x1  
A2.[P==  
所用输出模式: : 内部 WAV 函数 P4@<`Eb  
样本格式    : 44.100 Hz; 16 Bit; 立体声 i]oSVXx4WC  
/|v:$iH,C  
`hJSo?G>  
已抓取 CD 的 TOC <7Igd6u  
&aD ]_+b  
     音轨 |    起始    |    长度    |  起始扇区  |  结束扇区   @ChEkTn  
    -------------------------------------------- e+J|se4L5  
      1 |  0:00.00 |  4:20.28 |      0 |  19527 J<8~w; i  
      2 |  4:20.28 |  4:09.44 |  19528 |  38246 gHCk;dmq81  
      3 |  8:29.72 |  4:28.60 |  38247 |  58406 O}VI8OB(&  
      4 | 12:58.57 |  4:27.06 |  58407 |  78437 nFE0y3GD8  
      5 | 17:25.63 |  4:35.32 |  78438 |  99094 ;Kb]v\C:  
      6 | 22:01.20 |  3:36.54 |  99095 | 115348 [p3)C<;ZC  
      7 | 25:37.74 |  5:55.66 | 115349 | 142039 tg%U 2+.q  
      8 | 31:33.65 |  3:28.57 | 142040 | 157696 +jk_tPSe  
      9 | 35:02.47 |  4:11.34 | 157697 | 176555 adEcIvN$  
     10 | 39:14.06 |  4:07.59 | 176556 | 195139 m*VM1kV  
     11 | 43:21.65 |  4:30.58 | 195140 | 215447 B@w Q [  
     12 | 47:52.48 |  4:13.39 | 215448 | 234461 A]nDI:pO|  
     13 | 52:06.12 |  7:35.58 | 234462 | 268644 8<u_ wt@  
{: EQ  
)|/t}|DIx  
范围状态及错误 GpF,=:  
\`x'r$CV  
已选择范围 rjU $*+  
s@o"V >t  
     文件名 J:\12 Music*音乐\CDImage.wav l;Zc[6  
-<&"geJA  
     峰值电平 100.0 % \@OKB<ra  
     抓取速度 6.6 X G`|mP:T:o  
     范围质量 100.0 % >E"FoZM=  
     复制 CRC 22B23CB6 40%p lNPj  
     复制成功 f$V']dOj1q  
AH=6xtS-  
没有错误发生 L/nz95  
ew?UHV  
d2X#_(+d  
AccurateRip 摘要 (:T~*7/"  
k )){1O  
音轨  1  精确地校准抓取  59)  [ECA50280]  (AR v2) L**!$k"{5  
音轨  2  精确地校准抓取  59)  [A1A74F19]  (AR v2) /.WD '*H  
音轨  3  精确地校准抓取  59)  [AAA309A4]  (AR v2) l^0 <a<P  
音轨  4  精确地校准抓取  59)  [E6BE92A0]  (AR v2) C5sV-UMR  
音轨  5  精确地校准抓取  59)  [027E3087]  (AR v2) n}MG  
音轨  6  精确地校准抓取  59)  [71A09DC1]  (AR v2) o~GhV4vq  
音轨  7  精确地校准抓取  58)  [9F5A0BE8]  (AR v2) HmX (= Y  
音轨  8  精确地校准抓取  57)  [716CEFC6]  (AR v2) >/'WU79TYE  
音轨  9  精确地校准抓取  58)  [90642CA3]  (AR v2) T_gW't>   
音轨 10  精确地校准抓取  58)  [ECA594D7]  (AR v2) ^Y'>3o21f  
音轨 11  精确地校准抓取  58)  [B066E587]  (AR v2) iWtWT1n8n  
音轨 12  精确地校准抓取  59)  [A19875AF]  (AR v2) \j K?R 6  
音轨 13  精确地校准抓取  56)  [1BC784D4]  (AR v2) v.Q)Obyn  
%l5J  
所有音轨精确校准抓取 ex29rL3  
r<b g->lX  
状态报告结尾
WRo#ZVt9$  
2=U4'C4#  
链接: http://pan.baidu.com/s/1dDYl75v 密码: 7qnw.7p  
此帖售价 25 金钱,已有 20 人购买 [记录] [购买]
购买后,将显示帖子中所有出售内容。
若发现会员采用欺骗的方法获取财富,请立刻举报,我们会对会员处以2-N倍的罚金,严重者封掉ID!
此段为出售的内容,购买后显示
oFY'Ek;d  
离线小董

发帖
748
金钱
1258
威望
150
贡献值
44
交易币
286
只看该作者 1楼 发表于: 2015-12-29
为楼主赞一个!
离线MC雷战

发帖
684
金钱
23310
威望
207
贡献值
148
交易币
41
只看该作者 2楼 发表于: 2015-12-29
可以啊。
[img]
离线肯尼

发帖
959
金钱
6465
威望
442
贡献值
239
交易币
1468
只看该作者 3楼 发表于: 2015-12-29
感谢分享。
Remixed & Designed by Kenny Saxton ©
离线耶稣

发帖
7203
金钱
277425
威望
2521
贡献值
1672
交易币
11342
只看该作者 4楼 发表于: 2015-12-29
……幽灵君潜水a few weeks。 CWkWW/ZI  



离线jailim9300

发帖
299
金钱
1
威望
15
贡献值
12
交易币
348
只看该作者 5楼 发表于: 2015-12-29
好感谢,谢谢
离线自作主张

发帖
363
金钱
5496
威望
107
贡献值
46
交易币
468
只看该作者 6楼 发表于: 2015-12-29
终于来了,没有第三碟是遗憾,谢谢分享
离线mich008

发帖
854
金钱
6411
威望
24
贡献值
15
交易币
916
只看该作者 7楼 发表于: 2015-12-29
绝对要收下
离线zhouquan311

发帖
734
金钱
7771
威望
136
贡献值
66
交易币
974
只看该作者 8楼 发表于: 2015-12-29
这是好东西!
Forever MJ
       我要去减肥,除非冰淇淋,
  
  不再那么贵,三块二毛一,
  
  我也要人陪,除非我有米,
  
  去换红玫瑰,然后送给你,
  
离线christinacc

发帖
12464
金钱
48666
威望
4066
贡献值
2409
交易币
19671
只看该作者 9楼 发表于: 2015-12-30
帅哥,CD2解压不了啊
快速回复
限100 字节
 
上一个 下一个