论坛风格切换切换到宽版
  • 2081阅读
  • 27回复

[亲传][Album] BAD25·2CD (US - 88691999702) - WAV整轨 ♬by幽灵 [复制链接]

上一主题 下一主题
离线mjghosts
 

发帖
8251
金钱
218601
威望
9176
贡献值
2723
交易币
4762
只看楼主 倒序阅读 楼主  发表于: 2015-12-29
— 本帖被 mjghosts 执行加亮操作(2015-12-29) —
*美版,完美精确校准抓轨。至于豪华套装3CD+DVD收藏了不舍得拆封,所以分享个简装版2CD版本,CD1是原始专辑,CD2是此前未发行的BAD时期歌曲。网络上找不到美版封底图,用欧版替代。* kem(U{m  
u.*}'C>^^v  
注:独家整理,转载请注明出处!EAC无损整轨(压缩包内含CD图片) =(Y0wZP|  
HIt9W]koO  
解压密码:www.mjsunny.com
-1~o~yGE  
1*'gaa&y  
+JM@kdE5b  
rZ)7(0BBs  
aT+w6{%Z  
P2 qC[1hYH  
Exact Audio Copy V1.0 beta 6 from 9. April 2015 YXh!+}  
ITEf Q@#jU  
EAC 抓取日志文件从27. 十二月 2015, 21:02 0%Y}CDn_  
`B:hXeI  
Michael Jackson / Bad 25 :7JP(j2  
*~*"p)`<  
使用驱动器  :MATSHITADVD-RAM UJ890AS   Adapter: 1  ID: 1 q}0I`$MU  
2$VSH&  
读取模式      : 可靠Secure G )`gn  
使用精确流     : 是 k,; (`L  
清空音频缓存    : 否 "3|OB, <;:  
使用 C2 指示器 : 是 A/fM30  
~2yhZ  
读取偏移校正:               : 102 X?JtEQ~>  
读取 Lead-In 和 Lead-Out : 否 Uz[#ye  
用静音填充抓取中丢失偏移的采样       : 是 O*B9 Bah  
去除首尾静音块               : 否 }<w9Jfr"X  
在CRC 计算中使用了空样本       : 是 ='C;^ Bk  
已用接口                  : Win NT 及 2000 本地 Win32 接口 3H4T*&9;n  
V?`|Ha}  
所用输出模式: : 内部 WAV 函数 ;XlCd[J<  
样本格式    : 44.100 Hz; 16 Bit; 立体声 B<$6Dj%L  
^P A|RFP  
~ahu{A4Bw  
已抓取 CD 的 TOC #J8(*!I  
d>c`hQ(V  
     音轨 |    起始    |    长度    |  起始扇区  |  结束扇区   r(_Fr#Qn  
    -------------------------------------------- JE*?O*&|Q  
      1 |  0:00.00 |  4:07.43 |      0 |  18567 cS@p`A7Tpo  
      2 |  4:07.43 |  4:59.13 |  18568 |  41005 >?G!>kw  
      3 |  9:06.56 |  4:04.58 |  41006 |  59363 qLKL*m  
      4 | 13:11.39 |  3:49.43 |  59364 |  76581 7uF @Xh  
      5 | 17:01.07 |  4:07.41 |  76582 |  95147 ymnK`/J!Q  
      6 | 21:08.48 |  3:55.01 |  95148 | 112773 EaH/Gg3  
      7 | 25:03.49 |  5:18.56 | 112774 | 136679 g?Rq .py]!  
      8 | 30:22.30 |  4:10.73 | 136680 | 155502 !|9k&o  
      9 | 34:33.28 |  4:42.21 | 155503 | 176673 Nd@/U c  
     10 | 39:15.49 |  4:18.51 | 176674 | 196074 #G?",,&dM  
     11 | 43:34.25 |  4:40.07 | 196075 | 217081 "+ k}#<P4\  
!ZCxi  
73{<;z}i  
范围状态及错误 yZNg[KH  
{ Q!Xxe>6  
已选择范围 kKDf%=  
lR`.V0xA   
     文件名 J:\12 Music*音乐\CDImage.wav oJ#;XR  
!.4q{YWcYk  
     峰值电平 100.0 % ?[DVYP  
     抓取速度 6.2 X C*t0`3g d  
     范围质量 99.9 % _=cuOo"!  
     复制 CRC 475C98B0 %;Z_`W  
     复制成功 bhfKhXh8  
"tDB[?  
没有错误发生 "-G7eGQ  
X2P8Zq=%a  
V~Jt  
AccurateRip 摘要 0a,B&o1  
n S Vr,wU  
音轨  1  精确地校准抓取  63)  [29FF250E]  (AR v2) ^ 7)H;$  
音轨  2  精确地校准抓取  63)  [7913F3A1]  (AR v2) _5OxESE  
音轨  3  精确地校准抓取  63)  [A5035CB9]  (AR v2) >yLdrf  
音轨  4  精确地校准抓取  62)  [6B61893B]  (AR v2) a,n#E!zT?w  
音轨  5  精确地校准抓取  61)  [ECE1F2E5]  (AR v2) p>+Q6o9O  
音轨  6  精确地校准抓取  61)  [C5662DBE]  (AR v2) R[QBFL<  
音轨  7  精确地校准抓取  62)  [1782288A]  (AR v2) bY~V?yNgKM  
音轨  8  精确地校准抓取  62)  [D6EA2B90]  (AR v2) _~ 2o  
音轨  9  精确地校准抓取  63)  [84256184]  (AR v2) { / ,?3  
音轨 10  精确地校准抓取  63)  [F4EC9974]  (AR v2) Ac}5,  
音轨 11  精确地校准抓取  61)  [3FD35C5D]  (AR v2) [LV>z  
m;U_oxb  
所有音轨精确校准抓取 /8"rCh|m-  
Q4g69IE  
状态报告结尾
bH%d*  
c&PaJm  
Exact Audio Copy V1.0 beta 6 from 9. April 2015 5d-rF:#  
vu:] [2"0  
EAC 抓取日志文件从27. 十二月 2015, 20:40 NuXII-  
m<J:6^H@  
Michael Jackson / Bad 25  LYyud  
z]&?}o  
使用驱动器  :MATSHITADVD-RAM UJ890AS   Adapter: 1  ID: 1 &@w0c>Y  
, hp8b$  
读取模式      : 可靠Secure E=]|v+#~  
使用精确流     : 是 Sf2xI'  
清空音频缓存    : 否 YhP+{Y8t  
使用 C2 指示器 : 是 O0eM*~zI  
a.a ,_  
读取偏移校正:               : 102 |FSp`P  
读取 Lead-In 和 Lead-Out : 否 hUEA)c  
用静音填充抓取中丢失偏移的采样       : 是 /<"ok;Pu7  
去除首尾静音块               : 否 k:N/-P&+  
在CRC 计算中使用了空样本       : 是 ?}(B8^  
已用接口                  : Win NT 及 2000 本地 Win32 接口 '($$-P\/  
>Sb3]$$  
所用输出模式: : 内部 WAV 函数 F45-M[z  
样本格式    : 44.100 Hz; 16 Bit; 立体声 e`Co ='  
rE0%R+4?  
+zEyCx=8H  
已抓取 CD 的 TOC e\!Aoky  
oVW>PEgB-  
     音轨 |    起始    |    长度    |  起始扇区  |  结束扇区   "]\3t;IT  
    -------------------------------------------- x~K79Mya  
      1 |  0:00.00 |  4:20.28 |      0 |  19527 .hnq>R\  
      2 |  4:20.28 |  4:09.44 |  19528 |  38246 I+31:#d  
      3 |  8:29.72 |  4:28.60 |  38247 |  58406 ,5AEtoF  
      4 | 12:58.57 |  4:27.06 |  58407 |  78437 #w:nj1{_  
      5 | 17:25.63 |  4:35.32 |  78438 |  99094  ;v/un  
      6 | 22:01.20 |  3:36.54 |  99095 | 115348 dnh~An 9  
      7 | 25:37.74 |  5:55.66 | 115349 | 142039 rinTB|5  
      8 | 31:33.65 |  3:28.57 | 142040 | 157696 /Z[HU{4  
      9 | 35:02.47 |  4:11.34 | 157697 | 176555 0& ?L%Y  
     10 | 39:14.06 |  4:07.59 | 176556 | 195139 _]{LjJ!M  
     11 | 43:21.65 |  4:30.58 | 195140 | 215447 f .$*9Fkw  
     12 | 47:52.48 |  4:13.39 | 215448 | 234461 J~50#vHY  
     13 | 52:06.12 |  7:35.58 | 234462 | 268644 ?Iq{6O>D.  
O%haaL\  
e1%kW1Z9  
范围状态及错误 9A/bA|$  
IW-|"5?9'  
已选择范围 @;N(3| n7  
cBv"d ~  
     文件名 J:\12 Music*音乐\CDImage.wav ,eWLig  
)dh`aQ%N "  
     峰值电平 100.0 % )lz~Rt;1i  
     抓取速度 6.6 X ~qIr'?D  
     范围质量 100.0 % 67 ~pn  
     复制 CRC 22B23CB6 FCWk8/  
     复制成功 !IA\c(c^  
Uw!d;YQm  
没有错误发生 6 jm@`pYbE  
F ^aD#  
WW>m`RU`  
AccurateRip 摘要 9v?@2sOoE  
P}qpy\/(4  
音轨  1  精确地校准抓取  59)  [ECA50280]  (AR v2) 3^xq+{\)  
音轨  2  精确地校准抓取  59)  [A1A74F19]  (AR v2) WglpWp)  
音轨  3  精确地校准抓取  59)  [AAA309A4]  (AR v2) 29VX-45  
音轨  4  精确地校准抓取  59)  [E6BE92A0]  (AR v2) 9qgs*]J  
音轨  5  精确地校准抓取  59)  [027E3087]  (AR v2) hUuKkUR+Ir  
音轨  6  精确地校准抓取  59)  [71A09DC1]  (AR v2) O&yAFiCd  
音轨  7  精确地校准抓取  58)  [9F5A0BE8]  (AR v2) qxsHhyB_n;  
音轨  8  精确地校准抓取  57)  [716CEFC6]  (AR v2) >(wQx05^D  
音轨  9  精确地校准抓取  58)  [90642CA3]  (AR v2) -A=3W3:C  
音轨 10  精确地校准抓取  58)  [ECA594D7]  (AR v2) o4J@M{xb_  
音轨 11  精确地校准抓取  58)  [B066E587]  (AR v2) BG= J8  
音轨 12  精确地校准抓取  59)  [A19875AF]  (AR v2) I,`;#Q)nx  
音轨 13  精确地校准抓取  56)  [1BC784D4]  (AR v2) YOj&1ymBZ  
Xo] 2iQy  
所有音轨精确校准抓取 O`"~AY&  
DV[FZ  
状态报告结尾
q=D8 Nz  
`JpFqZ'58  
链接: http://pan.baidu.com/s/1dDYl75v 密码: >]xW{71F@  
此帖售价 25 金钱,已有 20 人购买 [记录] [购买]
购买后,将显示帖子中所有出售内容。
若发现会员采用欺骗的方法获取财富,请立刻举报,我们会对会员处以2-N倍的罚金,严重者封掉ID!
此段为出售的内容,购买后显示
o 9/,@Ri\5  
离线小董

发帖
746
金钱
1400
威望
150
贡献值
44
交易币
284
只看该作者 1楼 发表于: 2015-12-29
为楼主赞一个!
离线MC雷战

发帖
682
金钱
23300
威望
207
贡献值
148
交易币
39
只看该作者 2楼 发表于: 2015-12-29
可以啊。
[img]
离线肯尼

发帖
955
金钱
6312
威望
431
贡献值
228
交易币
1440
只看该作者 3楼 发表于: 2015-12-29
感谢分享。
顺势待发张元穹 Kenny Saxton @肯尼 & 齐奕同Michael Qi @迈颤我栗
2014年6月25日 合辑 火热制作中
2014 MJFantastics Music International Ltd.
离线耶稣

发帖
7158
金钱
273560
威望
2493
贡献值
1657
交易币
11237
只看该作者 4楼 发表于: 2015-12-29
……幽灵君潜水a few weeks。 qV$0 ";d  




离线jailim9300

发帖
299
金钱
1
威望
15
贡献值
12
交易币
348
只看该作者 5楼 发表于: 2015-12-29
好感谢,谢谢
离线自作主张

发帖
348
金钱
3202
威望
80
贡献值
43
交易币
445
只看该作者 6楼 发表于: 2015-12-29
终于来了,没有第三碟是遗憾,谢谢分享
离线mich008

发帖
839
金钱
5912
威望
24
贡献值
15
交易币
901
只看该作者 7楼 发表于: 2015-12-29
绝对要收下
离线zhouquan311

发帖
734
金钱
7771
威望
136
贡献值
66
交易币
974
只看该作者 8楼 发表于: 2015-12-29
这是好东西!
Forever MJ
       我要去减肥,除非冰淇淋,
  
  不再那么贵,三块二毛一,
  
  我也要人陪,除非我有米,
  
  去换红玫瑰,然后送给你,
  
离线christinacc

发帖
12461
金钱
48651
威望
4066
贡献值
2409
交易币
19668
只看该作者 9楼 发表于: 2015-12-30
帅哥,CD2解压不了啊
快速回复
限100 字节
 
上一个 下一个