论坛风格切换切换到宽版
  • 2217阅读
  • 27回复

[亲传][Album] BAD25·2CD (US - 88691999702) - WAV整轨 ♬by幽灵 [复制链接]

上一主题 下一主题
离线mjghosts
 

发帖
8256
金钱
219309
威望
9187
贡献值
2734
交易币
4791
只看楼主 倒序阅读 楼主  发表于: 2015-12-29
— 本帖被 mjghosts 执行加亮操作(2015-12-29) —
*美版,完美精确校准抓轨。至于豪华套装3CD+DVD收藏了不舍得拆封,所以分享个简装版2CD版本,CD1是原始专辑,CD2是此前未发行的BAD时期歌曲。网络上找不到美版封底图,用欧版替代。* +/u)/ey  
<9zzjgzG{c  
注:独家整理,转载请注明出处!EAC无损整轨(压缩包内含CD图片) : utY4  
8<BYAHY^  
解压密码:www.mjsunny.com
u6hDjN  
ckR>ps[u  
!*2cK>`  
gc~nT/lfK  
ZAe'lgS  
GyU9,>|~T  
Exact Audio Copy V1.0 beta 6 from 9. April 2015 F@m]Imn5Dx  
yVF1*#"  
EAC 抓取日志文件从27. 十二月 2015, 21:02 Be~__pd  
6"3-8orj   
Michael Jackson / Bad 25 E}^np[u7  
12{F  
使用驱动器  :MATSHITADVD-RAM UJ890AS   Adapter: 1  ID: 1 c@SNbY4}%  
}kJfTsFS  
读取模式      : 可靠Secure /l.:GH36f  
使用精确流     : 是 1omjP`]|,  
清空音频缓存    : 否 u{| Q[hf[  
使用 C2 指示器 : 是 v,T :V#f^  
?L K n  
读取偏移校正:               : 102 fL xGaOT  
读取 Lead-In 和 Lead-Out : 否 ^$FNu~|K  
用静音填充抓取中丢失偏移的采样       : 是 ON(OYXj  
去除首尾静音块               : 否 { ^J/S}L]  
在CRC 计算中使用了空样本       : 是 CdEQiu  
已用接口                  : Win NT 及 2000 本地 Win32 接口 i2+r#Hw#5R  
9f#~RY|#m  
所用输出模式: : 内部 WAV 函数 ^`~s#L7  
样本格式    : 44.100 Hz; 16 Bit; 立体声 [c^!;YBp)  
64LX[8Ax#  
8=K%7:b  
已抓取 CD 的 TOC x5w5xw  
1;*4y J2  
     音轨 |    起始    |    长度    |  起始扇区  |  结束扇区   N!PPL"5z  
    -------------------------------------------- ._E 6?  
      1 |  0:00.00 |  4:07.43 |      0 |  18567 ]KQv ]'  
      2 |  4:07.43 |  4:59.13 |  18568 |  41005 d/8p?Km  
      3 |  9:06.56 |  4:04.58 |  41006 |  59363 "L0Q"t:  
      4 | 13:11.39 |  3:49.43 |  59364 |  76581 elqm/u  
      5 | 17:01.07 |  4:07.41 |  76582 |  95147 x/pX?k  
      6 | 21:08.48 |  3:55.01 |  95148 | 112773 v~*Co}0OB  
      7 | 25:03.49 |  5:18.56 | 112774 | 136679 7z2Q!0Sz  
      8 | 30:22.30 |  4:10.73 | 136680 | 155502 8|LU=p`y'  
      9 | 34:33.28 |  4:42.21 | 155503 | 176673 K/YXLR +  
     10 | 39:15.49 |  4:18.51 | 176674 | 196074 \y(ZeNs  
     11 | 43:34.25 |  4:40.07 | 196075 | 217081 <.Dg3RH  
y$}o{VE{x  
WK.K-bd  
范围状态及错误 !gm@QO cF  
,rNv}  
已选择范围 ${5E  
 /M@[ 8  
     文件名 J:\12 Music*音乐\CDImage.wav 6zp]SPY  
Lng@'Yr  
     峰值电平 100.0 %  \62!{  
     抓取速度 6.2 X J)EL<K$Z[  
     范围质量 99.9 % pupt__NZ)n  
     复制 CRC 475C98B0 KRM:h`+-.-  
     复制成功 R:`)*=rL%  
`|<? sjY  
没有错误发生 **.g^Pyc  
t[ZGY,8  
\[d~O>k2  
AccurateRip 摘要 -6xh  
Y[s}?Xu]w#  
音轨  1  精确地校准抓取  63)  [29FF250E]  (AR v2) MvTp%d.  
音轨  2  精确地校准抓取  63)  [7913F3A1]  (AR v2) ?1**@E0  
音轨  3  精确地校准抓取  63)  [A5035CB9]  (AR v2) 7M~/[f7Z{  
音轨  4  精确地校准抓取  62)  [6B61893B]  (AR v2) J(SGaHm@  
音轨  5  精确地校准抓取  61)  [ECE1F2E5]  (AR v2) _Nh`-R%B)  
音轨  6  精确地校准抓取  61)  [C5662DBE]  (AR v2) Fd<eh(g9P  
音轨  7  精确地校准抓取  62)  [1782288A]  (AR v2) Yq'D-$@  
音轨  8  精确地校准抓取  62)  [D6EA2B90]  (AR v2) K'y|_XsBB)  
音轨  9  精确地校准抓取  63)  [84256184]  (AR v2) A1*\ \[  
音轨 10  精确地校准抓取  63)  [F4EC9974]  (AR v2) {&a6<y#-  
音轨 11  精确地校准抓取  61)  [3FD35C5D]  (AR v2) ">5$;{;2r  
q8HnPXV  
所有音轨精确校准抓取 y8Rq2jI;(e  
T^A[m0mk  
状态报告结尾
p K ^$^*#  
QP<.~^ao  
Exact Audio Copy V1.0 beta 6 from 9. April 2015 Vt,P.CfdC  
w"W;PdH)  
EAC 抓取日志文件从27. 十二月 2015, 20:40 @>8 {J6%\  
d\zUtcJwC  
Michael Jackson / Bad 25 :F9Oj1lM%  
!R@jbM  
使用驱动器  :MATSHITADVD-RAM UJ890AS   Adapter: 1  ID: 1 Q- w_ @~  
ddbQFAQQQ  
读取模式      : 可靠Secure oKH+Q6S:  
使用精确流     : 是 !R gj'{  
清空音频缓存    : 否 fwlicbs'  
使用 C2 指示器 : 是 (;H% r &  
z`NJelcuz\  
读取偏移校正:               : 102 w9mAeGyE  
读取 Lead-In 和 Lead-Out : 否 EEo I|  
用静音填充抓取中丢失偏移的采样       : 是 3(nnN[?N,5  
去除首尾静音块               : 否 .g?D3$|K  
在CRC 计算中使用了空样本       : 是 ] W$V#  
已用接口                  : Win NT 及 2000 本地 Win32 接口 WBA7G  
MmePhHf  
所用输出模式: : 内部 WAV 函数 y y[Y=  
样本格式    : 44.100 Hz; 16 Bit; 立体声 y~wr4Q=  
-t>"s'kv  
>oaL-01i  
已抓取 CD 的 TOC wXKt)3dmu  
8?x:PkK  
     音轨 |    起始    |    长度    |  起始扇区  |  结束扇区   3-)}.8F  
    -------------------------------------------- X#K;(.},h  
      1 |  0:00.00 |  4:20.28 |      0 |  19527 rk@qcQR  
      2 |  4:20.28 |  4:09.44 |  19528 |  38246 +P,ic*Kq*  
      3 |  8:29.72 |  4:28.60 |  38247 |  58406 -P&uY`  
      4 | 12:58.57 |  4:27.06 |  58407 |  78437 bNiJ"k<pN  
      5 | 17:25.63 |  4:35.32 |  78438 |  99094 o^//|]H3Y  
      6 | 22:01.20 |  3:36.54 |  99095 | 115348 ;ceg:-Zqo  
      7 | 25:37.74 |  5:55.66 | 115349 | 142039 kC6Y?g  
      8 | 31:33.65 |  3:28.57 | 142040 | 157696 R rYNtc  
      9 | 35:02.47 |  4:11.34 | 157697 | 176555 Aayd3Ph0%  
     10 | 39:14.06 |  4:07.59 | 176556 | 195139 6E:H  
     11 | 43:21.65 |  4:30.58 | 195140 | 215447 0Zo><=  
     12 | 47:52.48 |  4:13.39 | 215448 | 234461 [7[Qw]J  
     13 | 52:06.12 |  7:35.58 | 234462 | 268644 4;gw&sFF  
G\,B*$3   
;X0uA?  
范围状态及错误 (nuTfmt>  
O:RN4/17  
已选择范围 Gv }  
gSyBoY  
     文件名 J:\12 Music*音乐\CDImage.wav i.?rom  
-49I3&  
     峰值电平 100.0 % \_(0V"  
     抓取速度 6.6 X I69Z'}+qz  
     范围质量 100.0 % [z= !OFdE  
     复制 CRC 22B23CB6 0JR)-*  
     复制成功 {Dy,|}7s  
/7,@q?v  
没有错误发生 85] 'I%gT  
Q`Pe4CrWvu  
erTly2-SJ  
AccurateRip 摘要 3!QXzT$E  
m6 xbO  
音轨  1  精确地校准抓取  59)  [ECA50280]  (AR v2) ,+gtr.  
音轨  2  精确地校准抓取  59)  [A1A74F19]  (AR v2) ?>vkY^/  
音轨  3  精确地校准抓取  59)  [AAA309A4]  (AR v2) w Bm4~ ~_  
音轨  4  精确地校准抓取  59)  [E6BE92A0]  (AR v2) ];g ~)z  
音轨  5  精确地校准抓取  59)  [027E3087]  (AR v2) kXUJlLod  
音轨  6  精确地校准抓取  59)  [71A09DC1]  (AR v2) fLSDt(c',  
音轨  7  精确地校准抓取  58)  [9F5A0BE8]  (AR v2) 4Sdj#w  
音轨  8  精确地校准抓取  57)  [716CEFC6]  (AR v2) cP@H8|c=  
音轨  9  精确地校准抓取  58)  [90642CA3]  (AR v2) ?hIDyM  
音轨 10  精确地校准抓取  58)  [ECA594D7]  (AR v2) M;KeY[u  
音轨 11  精确地校准抓取  58)  [B066E587]  (AR v2) K!E\v4  
音轨 12  精确地校准抓取  59)  [A19875AF]  (AR v2) >Apa^Bp  
音轨 13  精确地校准抓取  56)  [1BC784D4]  (AR v2) j-FMWEp  
Olt;^> MQ  
所有音轨精确校准抓取 "15frr?  
LHA :frC  
状态报告结尾
~52'iI)Mw  
G[OJ <px  
链接: http://pan.baidu.com/s/1dDYl75v 密码: ;\ j'~AyCn  
此帖售价 25 金钱,已有 20 人购买 [记录] [购买]
购买后,将显示帖子中所有出售内容。
若发现会员采用欺骗的方法获取财富,请立刻举报,我们会对会员处以2-N倍的罚金,严重者封掉ID!
此段为出售的内容,购买后显示
6KN6SN$  
离线小董

发帖
748
金钱
1258
威望
150
贡献值
44
交易币
286
只看该作者 1楼 发表于: 2015-12-29
为楼主赞一个!
离线MC雷战

发帖
682
金钱
23300
威望
207
贡献值
148
交易币
39
只看该作者 2楼 发表于: 2015-12-29
可以啊。
[img]
离线肯尼

发帖
959
金钱
6465
威望
442
贡献值
239
交易币
1468
只看该作者 3楼 发表于: 2015-12-29
感谢分享。
Remixed & Designed by Kenny Saxton ©
离线耶稣

发帖
7192
金钱
276351
威望
2517
贡献值
1670
交易币
11323
只看该作者 4楼 发表于: 2015-12-29
……幽灵君潜水a few weeks。 <Y?Z&rNb  



离线jailim9300

发帖
299
金钱
1
威望
15
贡献值
12
交易币
348
只看该作者 5楼 发表于: 2015-12-29
好感谢,谢谢
离线自作主张

发帖
363
金钱
5367
威望
107
贡献值
46
交易币
468
只看该作者 6楼 发表于: 2015-12-29
终于来了,没有第三碟是遗憾,谢谢分享
离线mich008

发帖
849
金钱
5976
威望
24
贡献值
15
交易币
911
只看该作者 7楼 发表于: 2015-12-29
绝对要收下
离线zhouquan311

发帖
734
金钱
7771
威望
136
贡献值
66
交易币
974
只看该作者 8楼 发表于: 2015-12-29
这是好东西!
Forever MJ
       我要去减肥,除非冰淇淋,
  
  不再那么贵,三块二毛一,
  
  我也要人陪,除非我有米,
  
  去换红玫瑰,然后送给你,
  
离线christinacc

发帖
12464
金钱
48666
威望
4066
贡献值
2409
交易币
19671
只看该作者 9楼 发表于: 2015-12-30
帅哥,CD2解压不了啊
快速回复
限100 字节
 
上一个 下一个