论坛风格切换切换到宽版
  • 2019阅读
  • 27回复

[亲传][Album] BAD25·2CD (US - 88691999702) - WAV整轨 ♬by幽灵 [复制链接]

上一主题 下一主题
离线mjghosts
 

发帖
8244
金钱
217720
威望
9174
贡献值
2723
交易币
4755
只看楼主 倒序阅读 楼主  发表于: 2015-12-29
— 本帖被 mjghosts 执行加亮操作(2015-12-29) —
*美版,完美精确校准抓轨。至于豪华套装3CD+DVD收藏了不舍得拆封,所以分享个简装版2CD版本,CD1是原始专辑,CD2是此前未发行的BAD时期歌曲。网络上找不到美版封底图,用欧版替代。* {"X n`@Y  
F?!P7 zW  
注:独家整理,转载请注明出处!EAC无损整轨(压缩包内含CD图片) S/ YT V  
I9S=VFhZ`  
解压密码:www.mjsunny.com
E(J@A'cX  
(,Zy 2wr=  
*'5 )CC  
Ore>j+  
YbaaX{7^  
oNW.-gNT  
Exact Audio Copy V1.0 beta 6 from 9. April 2015 }^|g|xl!  
Lhg4fuos@)  
EAC 抓取日志文件从27. 十二月 2015, 21:02 S0,q@LV  
kKbq?}W[  
Michael Jackson / Bad 25 q-7C7q  
[ .] x y  
使用驱动器  :MATSHITADVD-RAM UJ890AS   Adapter: 1  ID: 1 Swugt"`nN  
-Jqm0)2  
读取模式      : 可靠Secure pib i#  
使用精确流     : 是 E P1f6ps  
清空音频缓存    : 否 NifD pqjgt  
使用 C2 指示器 : 是 kV >[$6  
UB%Zq1D|t  
读取偏移校正:               : 102 'gBns  
读取 Lead-In 和 Lead-Out : 否 *\#/4_yB}  
用静音填充抓取中丢失偏移的采样       : 是 0L->e(Vf7u  
去除首尾静音块               : 否 fU/&e^, 's  
在CRC 计算中使用了空样本       : 是 y]3`U UvXD  
已用接口                  : Win NT 及 2000 本地 Win32 接口 @;\2 PD  
;_$Q~X  
所用输出模式: : 内部 WAV 函数 Lzr&Q(mL  
样本格式    : 44.100 Hz; 16 Bit; 立体声 g`7C1&U*T  
VtP^fM^{  
Bf5Z  
已抓取 CD 的 TOC "Wz8f  
2/WtOQI B  
     音轨 |    起始    |    长度    |  起始扇区  |  结束扇区   K#"J8h;x  
    -------------------------------------------- <bSG|VqnH  
      1 |  0:00.00 |  4:07.43 |      0 |  18567 _h6j, )  
      2 |  4:07.43 |  4:59.13 |  18568 |  41005 ~^{>!wU+  
      3 |  9:06.56 |  4:04.58 |  41006 |  59363 UC e{V]T  
      4 | 13:11.39 |  3:49.43 |  59364 |  76581 \T'.b93~B  
      5 | 17:01.07 |  4:07.41 |  76582 |  95147 O'Mo/ u1-  
      6 | 21:08.48 |  3:55.01 |  95148 | 112773 |mMK9OEu  
      7 | 25:03.49 |  5:18.56 | 112774 | 136679 "h@=O c  
      8 | 30:22.30 |  4:10.73 | 136680 | 155502 ^l:~r2  
      9 | 34:33.28 |  4:42.21 | 155503 | 176673 X!b+Dk  
     10 | 39:15.49 |  4:18.51 | 176674 | 196074 @$Xl*WT7  
     11 | 43:34.25 |  4:40.07 | 196075 | 217081 \DiAfx<Ub  
R7o'V* d  
A`B>fI  
范围状态及错误 v~*Co}0OB  
l`bl^~xRo  
已选择范围 a1>Tz  
!V'~<&  
     文件名 J:\12 Music*音乐\CDImage.wav |C"zK  
Zt"#'1  
     峰值电平 100.0 % 4<j7F4  
     抓取速度 6.2 X B,q)<z6<  
     范围质量 99.9 % >"q?P^f/  
     复制 CRC 475C98B0 GI<3L K\  
     复制成功 WK.K-bd  
&s(mbpV  
没有错误发生 h+c9FN  
ZBk br  
.MS41 E!  
AccurateRip 摘要 cGSG}m@B`  
p[K!.vOt+  
音轨  1  精确地校准抓取  63)  [29FF250E]  (AR v2) czLY+I;V3  
音轨  2  精确地校准抓取  63)  [7913F3A1]  (AR v2) 0<XxR6w  
音轨  3  精确地校准抓取  63)  [A5035CB9]  (AR v2) OJ1MV7&  
音轨  4  精确地校准抓取  62)  [6B61893B]  (AR v2) g5;Ig  
音轨  5  精确地校准抓取  61)  [ECE1F2E5]  (AR v2) vd [?73:C  
音轨  6  精确地校准抓取  61)  [C5662DBE]  (AR v2) KJ7-Vl>  
音轨  7  精确地校准抓取  62)  [1782288A]  (AR v2) (]nX:t  
音轨  8  精确地校准抓取  62)  [D6EA2B90]  (AR v2) #0f6X,3  
音轨  9  精确地校准抓取  63)  [84256184]  (AR v2) 7lx]`u>  
音轨 10  精确地校准抓取  63)  [F4EC9974]  (AR v2) cl'wQ1<:   
音轨 11  精确地校准抓取  61)  [3FD35C5D]  (AR v2) z+K1[1SM  
[a!)w@I:  
所有音轨精确校准抓取 n}dLfg *  
uE}$ZBi q  
状态报告结尾
j6E|j>@u  
P}"T 3u\N  
Exact Audio Copy V1.0 beta 6 from 9. April 2015 K 8W99:v  
T7^?j :kJ/  
EAC 抓取日志文件从27. 十二月 2015, 20:40 X2E=2tXl`7  
B%WkM\\!^  
Michael Jackson / Bad 25 *mkVk7]c  
tC5>K9Ed  
使用驱动器  :MATSHITADVD-RAM UJ890AS   Adapter: 1  ID: 1 TU*Y?D L  
G1Vn[[%k  
读取模式      : 可靠Secure lMgPwvs'  
使用精确流     : 是 z<_a4 ffR  
清空音频缓存    : 否 :m<#\!?  
使用 C2 指示器 : 是 VNs3.  
t)mc~M9w  
读取偏移校正:               : 102 d(K}v\3!  
读取 Lead-In 和 Lead-Out : 否 m%b# B>J,n  
用静音填充抓取中丢失偏移的采样       : 是 6(>,qt,9S  
去除首尾静音块               : 否 (|pM^+  
在CRC 计算中使用了空样本       : 是 k\r^GB  
已用接口                  : Win NT 及 2000 本地 Win32 接口 o+Mc%O Z  
j@{B 8  
所用输出模式: : 内部 WAV 函数 MpTOC&NG%s  
样本格式    : 44.100 Hz; 16 Bit; 立体声 i0Rj;E=:]  
m ?*h\NaB  
}D-jTZlC  
已抓取 CD 的 TOC l h6N3d  
j<k-w  
     音轨 |    起始    |    长度    |  起始扇区  |  结束扇区   /t*Q"0X5  
    -------------------------------------------- x<7?  
      1 |  0:00.00 |  4:20.28 |      0 |  19527 FF;Fo}no-  
      2 |  4:20.28 |  4:09.44 |  19528 |  38246 ErgWsAw-  
      3 |  8:29.72 |  4:28.60 |  38247 |  58406 qt6@]Y  
      4 | 12:58.57 |  4:27.06 |  58407 |  78437 //RD$e?h~  
      5 | 17:25.63 |  4:35.32 |  78438 |  99094 D G|v' #  
      6 | 22:01.20 |  3:36.54 |  99095 | 115348 !N!AO(Z  
      7 | 25:37.74 |  5:55.66 | 115349 | 142039 =\mJ5v"hA  
      8 | 31:33.65 |  3:28.57 | 142040 | 157696 q,> C^p|2b  
      9 | 35:02.47 |  4:11.34 | 157697 | 176555 h6}rOchj  
     10 | 39:14.06 |  4:07.59 | 176556 | 195139 o' v!83$L  
     11 | 43:21.65 |  4:30.58 | 195140 | 215447 C=IN "  
     12 | 47:52.48 |  4:13.39 | 215448 | 234461 Xq<_r^  
     13 | 52:06.12 |  7:35.58 | 234462 | 268644 4P"XT  
!R@jbM  
qz.l  
范围状态及错误 m77 !i>V)  
dk"@2%xJ2d  
已选择范围 ^ 8YBW<9  
:D eJnE  
     文件名 J:\12 Music*音乐\CDImage.wav !R gj'{  
{;6a_L@q;|  
     峰值电平 100.0 % VDxF%!h(  
     抓取速度 6.6 X Z~}9^(qc  
     范围质量 100.0 % gVy`||z  
     复制 CRC 22B23CB6 !6z{~Z:   
     复制成功 @1' Y/dCyD  
3}fhU{-c  
没有错误发生 0cVxP)J+  
9XhH*tBn7(  
Y\+LBbB8  
AccurateRip 摘要 |n^rI\ p%  
g_A#WQyh\'  
音轨  1  精确地校准抓取  59)  [ECA50280]  (AR v2) kP5G}Bp  
音轨  2  精确地校准抓取  59)  [A1A74F19]  (AR v2) h%NM%;"H/  
音轨  3  精确地校准抓取  59)  [AAA309A4]  (AR v2) P,xJVo\  
音轨  4  精确地校准抓取  59)  [E6BE92A0]  (AR v2) Koj9]2<0  
音轨  5  精确地校准抓取  59)  [027E3087]  (AR v2) N2Ysi$  
音轨  6  精确地校准抓取  59)  [71A09DC1]  (AR v2) .p?SPR  
音轨  7  精确地校准抓取  58)  [9F5A0BE8]  (AR v2) GV28&!4sS  
音轨  8  精确地校准抓取  57)  [716CEFC6]  (AR v2) )C mHC3  
音轨  9  精确地校准抓取  58)  [90642CA3]  (AR v2) g}uSIv^  
音轨 10  精确地校准抓取  58)  [ECA594D7]  (AR v2) R@/"B?`(f  
音轨 11  精确地校准抓取  58)  [B066E587]  (AR v2) <"xqt7f  
音轨 12  精确地校准抓取  59)  [A19875AF]  (AR v2) q)KOI` A  
音轨 13  精确地校准抓取  56)  [1BC784D4]  (AR v2) 065=I+Vo  
^U96p0H"T  
所有音轨精确校准抓取 Yx,7e(AI`  
wu &lG!#  
状态报告结尾
_-^mxC|M  
c': 4e)  
链接: http://pan.baidu.com/s/1dDYl75v 密码: %y*'bS  
此帖售价 25 金钱,已有 20 人购买 [记录] [购买]
购买后,将显示帖子中所有出售内容。
若发现会员采用欺骗的方法获取财富,请立刻举报,我们会对会员处以2-N倍的罚金,严重者封掉ID!
此段为出售的内容,购买后显示
01uj-!D$@  
离线小董

发帖
743
金钱
2005
威望
150
贡献值
44
交易币
281
只看该作者 1楼 发表于: 2015-12-29
为楼主赞一个!
离线MC雷战

发帖
682
金钱
23300
威望
207
贡献值
148
交易币
39
只看该作者 2楼 发表于: 2015-12-29
可以啊。
[img]
离线肯尼

发帖
955
金钱
7435
威望
431
贡献值
228
交易币
1440
只看该作者 3楼 发表于: 2015-12-29
感谢分享。
顺势待发张元穹 Kenny Saxton @肯尼 & 齐奕同Michael Qi @迈颤我栗
2014年6月25日 合辑 火热制作中
2014 MJFantastics Music International Ltd.
离线耶稣

发帖
7147
金钱
272109
威望
2491
贡献值
1655
交易币
11218
只看该作者 4楼 发表于: 2015-12-29
……幽灵君潜水a few weeks。 ,-E'059  




离线jailim9300

发帖
299
金钱
1
威望
15
贡献值
12
交易币
348
只看该作者 5楼 发表于: 2015-12-29
好感谢,谢谢
离线自作主张

发帖
346
金钱
3101
威望
80
贡献值
43
交易币
443
只看该作者 6楼 发表于: 2015-12-29
终于来了,没有第三碟是遗憾,谢谢分享
离线mich008

发帖
832
金钱
5936
威望
24
贡献值
15
交易币
894
只看该作者 7楼 发表于: 2015-12-29
绝对要收下
离线zhouquan311

发帖
734
金钱
7771
威望
136
贡献值
66
交易币
974
只看该作者 8楼 发表于: 2015-12-29
这是好东西!
Forever MJ
       我要去减肥,除非冰淇淋,
  
  不再那么贵,三块二毛一,
  
  我也要人陪,除非我有米,
  
  去换红玫瑰,然后送给你,
  
离线christinacc

发帖
12459
金钱
48641
威望
4066
贡献值
2409
交易币
19666
只看该作者 9楼 发表于: 2015-12-30
帅哥,CD2解压不了啊
快速回复
限100 字节
 
上一个 下一个