论坛风格切换切换到宽版
  • 2720阅读
  • 27回复

[亲传][Album] BAD25·2CD (US - 88691999702) - WAV整轨 ♬by幽灵 [复制链接]

上一主题 下一主题
离线mjghosts
 

发帖
8263
金钱
219674
威望
9187
贡献值
2734
交易币
4798
只看楼主 倒序阅读 楼主  发表于: 2015-12-29
— 本帖被 mjghosts 执行加亮操作(2015-12-29) —
*美版,完美精确校准抓轨。至于豪华套装3CD+DVD收藏了不舍得拆封,所以分享个简装版2CD版本,CD1是原始专辑,CD2是此前未发行的BAD时期歌曲。网络上找不到美版封底图,用欧版替代。* z'l$;9(y  
^ `LqNG  
注:独家整理,转载请注明出处!EAC无损整轨(压缩包内含CD图片) x`E<]z*w}  
Snr(<u  
解压密码:www.mjsunny.com
]B>76?2W  
k>&cHCS`*  
Yxq!7J  
?/|Xie  
bjVk9XvH6  
%ap(=^|5  
Exact Audio Copy V1.0 beta 6 from 9. April 2015 [,Ehu<mEK  
l~Jd>9DwY  
EAC 抓取日志文件从27. 十二月 2015, 21:02 ,Zmjw@ w  
] SJ#:7  
Michael Jackson / Bad 25 $;5Q mKQ'  
tz ;3  
使用驱动器  :MATSHITADVD-RAM UJ890AS   Adapter: 1  ID: 1 )<5k+O~  
|]-Zz7N)  
读取模式      : 可靠Secure @gN"Q\;F  
使用精确流     : 是 `cp\UH@  
清空音频缓存    : 否 ?^VPO%  
使用 C2 指示器 : 是 "Z&.m..gc  
- l X4;  
读取偏移校正:               : 102 iC3z5_g*@  
读取 Lead-In 和 Lead-Out : 否 TuQGF$n@  
用静音填充抓取中丢失偏移的采样       : 是 ~,/@]6S&Y  
去除首尾静音块               : 否 cWAw-E5  
在CRC 计算中使用了空样本       : 是 |gE1P/%k  
已用接口                  : Win NT 及 2000 本地 Win32 接口 3(c-o0M  
m* m),mZ"  
所用输出模式: : 内部 WAV 函数 7^><Vh"qV  
样本格式    : 44.100 Hz; 16 Bit; 立体声 t5{P'v9J  
f$dPDbZQ  
gsL=_# ?  
已抓取 CD 的 TOC [v~,|N>w  
n^nE&'[?0g  
     音轨 |    起始    |    长度    |  起始扇区  |  结束扇区   ]s=|+tz\V  
    -------------------------------------------- )R7Sh51P  
      1 |  0:00.00 |  4:07.43 |      0 |  18567 -PV1x1|  
      2 |  4:07.43 |  4:59.13 |  18568 |  41005 C@XS  
      3 |  9:06.56 |  4:04.58 |  41006 |  59363 {<yapBMw  
      4 | 13:11.39 |  3:49.43 |  59364 |  76581 /x49!8  
      5 | 17:01.07 |  4:07.41 |  76582 |  95147 &Ym):pc  
      6 | 21:08.48 |  3:55.01 |  95148 | 112773 h]<S0/  
      7 | 25:03.49 |  5:18.56 | 112774 | 136679 *?<N3Rr*  
      8 | 30:22.30 |  4:10.73 | 136680 | 155502 ~ YH?wdT  
      9 | 34:33.28 |  4:42.21 | 155503 | 176673 p{Q6g>?[  
     10 | 39:15.49 |  4:18.51 | 176674 | 196074 h~>1 -T8  
     11 | 43:34.25 |  4:40.07 | 196075 | 217081 :9QU\{2  
h,{Q%sqO  
`Na()r$T  
范围状态及错误 5e7YM@ng  
R&cT Md  
已选择范围 n=!T (Hk  
@JGmOwZ  
     文件名 J:\12 Music*音乐\CDImage.wav Q:q0C  +T  
CE3l_[c  
     峰值电平 100.0 % eB~\~@  
     抓取速度 6.2 X Wx0i_HFR  
     范围质量 99.9 % U =J5lo  
     复制 CRC 475C98B0 qe.QF."y  
     复制成功 Zbnxs.i!  
N|i>|2EB  
没有错误发生 1]If< <  
!*v% s  
!l*A3qA  
AccurateRip 摘要 =G}a%)?As\  
~DD _n  
音轨  1  精确地校准抓取  63)  [29FF250E]  (AR v2) I<QUvs%e  
音轨  2  精确地校准抓取  63)  [7913F3A1]  (AR v2) %<kfW&_>w  
音轨  3  精确地校准抓取  63)  [A5035CB9]  (AR v2) w9Yx2  
音轨  4  精确地校准抓取  62)  [6B61893B]  (AR v2) +jE)kaV%  
音轨  5  精确地校准抓取  61)  [ECE1F2E5]  (AR v2) l-w4E"n3  
音轨  6  精确地校准抓取  61)  [C5662DBE]  (AR v2) %uo8z~+  
音轨  7  精确地校准抓取  62)  [1782288A]  (AR v2) 6 :4GI  
音轨  8  精确地校准抓取  62)  [D6EA2B90]  (AR v2) 21OfTV-+3  
音轨  9  精确地校准抓取  63)  [84256184]  (AR v2) bZ_&AfcB  
音轨 10  精确地校准抓取  63)  [F4EC9974]  (AR v2) XI`_PQco  
音轨 11  精确地校准抓取  61)  [3FD35C5D]  (AR v2) k$v 7@|Aw  
S+06pj4Ie  
所有音轨精确校准抓取 W^elzN(  
n`= S&oKH  
状态报告结尾
MLr L"I"  
<vl(a*4a  
Exact Audio Copy V1.0 beta 6 from 9. April 2015 .U(6])%;@  
cPIyD?c  
EAC 抓取日志文件从27. 十二月 2015, 20:40 u|23M,  
0 iSNom}m  
Michael Jackson / Bad 25 ~6#mVP5sU)  
qF3S\ C  
使用驱动器  :MATSHITADVD-RAM UJ890AS   Adapter: 1  ID: 1 cMi9 Z]  
1%M^MT%&  
读取模式      : 可靠Secure ,dba:D= l  
使用精确流     : 是 w+rw<,u%  
清空音频缓存    : 否 e77s?WxbK  
使用 C2 指示器 : 是 7# 'j>]  
I-.? qcy~  
读取偏移校正:               : 102 .aZB?M W  
读取 Lead-In 和 Lead-Out : 否 /_fZ2$/  
用静音填充抓取中丢失偏移的采样       : 是 J'cE@(US  
去除首尾静音块               : 否 MS SHMR  
在CRC 计算中使用了空样本       : 是 l$BKE{rg  
已用接口                  : Win NT 及 2000 本地 Win32 接口 ZbH6$2r  
e /XOmv  
所用输出模式: : 内部 WAV 函数 FlS)m`  
样本格式    : 44.100 Hz; 16 Bit; 立体声 7({.kD6  
6O5E4=  
^1}ffE(3>  
已抓取 CD 的 TOC suj}A  
<.7W:s,f=  
     音轨 |    起始    |    长度    |  起始扇区  |  结束扇区   Rx<[bohio  
    -------------------------------------------- b=Sl`&A  
      1 |  0:00.00 |  4:20.28 |      0 |  19527 {iq{<;)U?U  
      2 |  4:20.28 |  4:09.44 |  19528 |  38246 Us9$,(3  
      3 |  8:29.72 |  4:28.60 |  38247 |  58406 /=OSGIJzm  
      4 | 12:58.57 |  4:27.06 |  58407 |  78437 L3Q1az!Ct  
      5 | 17:25.63 |  4:35.32 |  78438 |  99094 \b88=^  
      6 | 22:01.20 |  3:36.54 |  99095 | 115348 !as<UH"\  
      7 | 25:37.74 |  5:55.66 | 115349 | 142039 5Q72.4HH  
      8 | 31:33.65 |  3:28.57 | 142040 | 157696 dR /UXzrc  
      9 | 35:02.47 |  4:11.34 | 157697 | 176555 kqAQrg]n  
     10 | 39:14.06 |  4:07.59 | 176556 | 195139 7]9s_13]  
     11 | 43:21.65 |  4:30.58 | 195140 | 215447 s.dn~|a  
     12 | 47:52.48 |  4:13.39 | 215448 | 234461 zT+yZA.L  
     13 | 52:06.12 |  7:35.58 | 234462 | 268644 qXW2a'~  
;/{Q4X{  
zZh`go02E  
范围状态及错误 tT#Q`cB  
B&Ci*#e  
已选择范围 E[Io8|QA  
RBgkC+2  
     文件名 J:\12 Music*音乐\CDImage.wav LP)mp cQ  
_&![s]  
     峰值电平 100.0 % y<.!TULa_  
     抓取速度 6.6 X |~CnELF)  
     范围质量 100.0 % quUJ%F  
     复制 CRC 22B23CB6 /+1Fa):  
     复制成功 Yh%wf3 UEO  
A07 P$3>/W  
没有错误发生 A0X0t  
X5/{Mx`8Oz  
aC$g(>xFt  
AccurateRip 摘要 C[&&.w8Pm  
h{xER IV1u  
音轨  1  精确地校准抓取  59)  [ECA50280]  (AR v2) jRkq^}  
音轨  2  精确地校准抓取  59)  [A1A74F19]  (AR v2) yl 8v&e{  
音轨  3  精确地校准抓取  59)  [AAA309A4]  (AR v2) 2M#CJ&  
音轨  4  精确地校准抓取  59)  [E6BE92A0]  (AR v2) l=]vC +mU  
音轨  5  精确地校准抓取  59)  [027E3087]  (AR v2) BD0-v`  
音轨  6  精确地校准抓取  59)  [71A09DC1]  (AR v2) $B?7u@>,  
音轨  7  精确地校准抓取  58)  [9F5A0BE8]  (AR v2) td&l T(7  
音轨  8  精确地校准抓取  57)  [716CEFC6]  (AR v2) ` j<tI6[e  
音轨  9  精确地校准抓取  58)  [90642CA3]  (AR v2) =5M>\vt]  
音轨 10  精确地校准抓取  58)  [ECA594D7]  (AR v2) ?mAw"Rb!  
音轨 11  精确地校准抓取  58)  [B066E587]  (AR v2) Aii[=x8  
音轨 12  精确地校准抓取  59)  [A19875AF]  (AR v2) ,7g;r_qwA  
音轨 13  精确地校准抓取  56)  [1BC784D4]  (AR v2) KTEis!w  
"\[>@_p h  
所有音轨精确校准抓取 7&)F;;H  
"y0 A<-~  
状态报告结尾
x+e _pb   
VC(|t} L4  
链接: http://pan.baidu.com/s/1dDYl75v 密码: fNJ;{&#  
此帖售价 25 金钱,已有 20 人购买 [记录] [购买]
购买后,将显示帖子中所有出售内容。
若发现会员采用欺骗的方法获取财富,请立刻举报,我们会对会员处以2-N倍的罚金,严重者封掉ID!
此段为出售的内容,购买后显示
j2Y(Q/i  
离线小董

发帖
749
金钱
1248
威望
150
贡献值
44
交易币
287
只看该作者 1楼 发表于: 2015-12-29
为楼主赞一个!
离线MC雷战

发帖
685
金钱
23328
威望
208
贡献值
149
交易币
46
只看该作者 2楼 发表于: 2015-12-29
可以啊。
[img]
离线肯尼

发帖
959
金钱
6535
威望
442
贡献值
239
交易币
1468
只看该作者 3楼 发表于: 2015-12-29
感谢分享。
Remixed & Designed by Kenny Saxton ©
离线耶稣

发帖
7227
金钱
279408
威望
2550
贡献值
1691
交易币
11410
只看该作者 4楼 发表于: 2015-12-29
……幽灵君潜水a few weeks。 nE W31 8  



离线jailim9300

发帖
300
金钱
6
威望
15
贡献值
12
交易币
349
只看该作者 5楼 发表于: 2015-12-29
好感谢,谢谢
离线自作主张

发帖
364
金钱
5870
威望
107
贡献值
46
交易币
469
只看该作者 6楼 发表于: 2015-12-29
终于来了,没有第三碟是遗憾,谢谢分享
离线mich008

发帖
862
金钱
7146
威望
24
贡献值
15
交易币
924
只看该作者 7楼 发表于: 2015-12-29
绝对要收下
离线zhouquan311

发帖
734
金钱
7771
威望
136
贡献值
66
交易币
974
只看该作者 8楼 发表于: 2015-12-29
这是好东西!
Forever MJ
       我要去减肥,除非冰淇淋,
  
  不再那么贵,三块二毛一,
  
  我也要人陪,除非我有米,
  
  去换红玫瑰,然后送给你,
  
离线christinacc

发帖
12465
金钱
48684
威望
4067
贡献值
2410
交易币
19676
只看该作者 9楼 发表于: 2015-12-30
帅哥,CD2解压不了啊
快速回复
限100 字节
 
上一个 下一个