论坛风格切换切换到宽版
  • 2566阅读
  • 26回复

[亲传][Album] 1982 Thriller 美国二版 ['DIDP 20022' JP] (US - EK 38112) - WAV整轨 ♬by幽灵 [复制链接]

上一主题 下一主题
离线mjghosts
 

发帖
8244
金钱
217720
威望
9174
贡献值
2723
交易币
4755
只看楼主 倒序阅读 楼主  发表于: 2016-01-06
— 本帖被 mjghosts 执行加亮操作(2016-01-06) —
*此次发布的版本是紧接首版后1984年美国发行的二版,经过重新编码和后期,与首版一样是日本压盘,此版CD音质是我目前听过最好的一个,特此分享!完美精确校准抓轨!* =QTmK/(|B  
hxP6C6S  
关于这张CD的更多详情请到:http://blog.sina.com.cn/s/blog_59c8cb6d0102wa3t.html
H.)fO ctbO  
~S! L!qY  
注:独家整理,转载请注明出处!EAC无损整轨(压缩包内含CD图片) ?TRW"%  
xqU^I5Z  
解压密码:www.mjsunny.com
Q1K"%  
J: L-15  
s_x=^S3~LO  
&f$a1#O}dx  
e OO!jrT:  
_a?wf!4>P  
Exact Audio Copy V1.0 beta 6 from 9. April 2015 `#-p,NElV  
x(exx )w  
EAC 抓取日志文件从5. 一月 2016, 19:01 lr)G:I#|  
w@<<zItSo  
Michael Jackson / Thriller J@=!w[v+  
NB~*sP-l&  
使用驱动器  :MATSHITADVD-RAM UJ890AS   Adapter: 1  ID: 1 853]CK<  
%3#b6m~  
读取模式      : 可靠Secure +btP]?04  
使用精确流     : 是 /9t*CEu\  
清空音频缓存    : 否 U O{xpY  
使用 C2 指示器 : 是 M[&.kH  
8. ~Euz  
读取偏移校正:               : 102 3 8ls 4v3  
读取 Lead-In 和 Lead-Out : 否 MXu+I,y*  
用静音填充抓取中丢失偏移的采样       : 是 +L<w."WG  
去除首尾静音块               : 否 hyr5D9d  
在CRC 计算中使用了空样本       : 是 x Ps& CyI  
已用接口                  : Win NT 及 2000 本地 Win32 接口 yp7,^l  
\&|w;  
所用输出模式: : 内部 WAV 函数 d#$i/&gE  
样本格式    : 44.100 Hz; 16 Bit; 立体声 [~rk`  
9dhFQWz"  
aWi]t'_  
已抓取 CD 的 TOC l2_E6U"  
H'(o}cn7~  
     音轨 |    起始    |    长度    |  起始扇区  |  结束扇区   [!|d[  
    -------------------------------------------- ?VHwYD.B  
      1 |  0:00.00 |  6:04.20 |      0 |  27319 F[qI fh4  
      2 |  6:04.20 |  4:20.62 |  27320 |  46881 hdWp  
      3 | 10:25.07 |  3:42.35 |  46882 |  63566 t~=@r9`S  
      4 | 14:07.42 |  5:59.33 |  63567 |  90524 V$]a&wM<5  
      5 | 20:07.00 |  4:18.65 |  90525 | 109939 ,lGwW8$R  
      6 | 24:25.65 |  4:54.30 | 109940 | 132019 ~.=!5Ry  
      7 | 29:20.20 |  4:06.25 | 132020 | 150494 [~%;E[ky$  
      8 | 33:26.45 |  3:59.20 | 150495 | 168439 n \NDi22  
      9 | 37:25.65 |  4:59.47 | 168440 | 190911 zU=[Kc=$  
m!>'}z  
xqZ%c/I3q  
范围状态及错误 X-WvKH(=w  
G#M]\)f%  
已选择范围 <qiap2  
#>oO[uaY  
     文件名 J:\12 Music*音乐\CDImage.wav LKG|S<s  
Sgy~Z^  
     峰值电平 100.0 % ? +!?$h  
     抓取速度 6.1 X a OHAG  
     范围质量 99.9 % tr+~@]I+  
     复制 CRC 3D156B45 9(]j e4Cn  
     复制成功 ?Fw/c0  
[G)Sq;  
没有错误发生 1j(,VW  
aT[7L9Cw  
,|/$|$'  
AccurateRip 摘要 sq$|Pad[  
[5-5tipvWp  
音轨  1  精确地校准抓取  3)  [4A3E3470]  (AR v1) p IToy;]  
音轨  2  精确地校准抓取  3)  [CC8CDDFD]  (AR v1) hW&UG#PY>  
音轨  3  精确地校准抓取  3)  [B3E6C1D3]  (AR v1) lB-7.  
音轨  4  精确地校准抓取  3)  [89E60A11]  (AR v1) ,8 seoX^  
音轨  5  精确地校准抓取  3)  [41C7E3A8]  (AR v1) T rW3@@}j  
音轨  6  精确地校准抓取  3)  [2A90B4B8]  (AR v1) o-_ a0j  
音轨  7  精确地校准抓取  3)  [A36C1D5D]  (AR v1) 5ZLH=8L  
音轨  8  精确地校准抓取  3)  [B5F491B6]  (AR v1) tti.-  
音轨  9  精确地校准抓取  3)  [0243B8C5]  (AR v1) <G={V fr  
D? ($R9t  
所有音轨精确校准抓取 /+iaw~={"  
n"JrjvS  
状态报告结尾
wC19  
fg2}~ 02n  
链接:http://pan.baidu.com/s/1gejapUz 密码: xAI<<[-  
此帖售价 15 金钱,已有 24 人购买 [记录] [购买]
购买后,将显示帖子中所有出售内容。
若发现会员采用欺骗的方法获取财富,请立刻举报,我们会对会员处以2-N倍的罚金,严重者封掉ID!
此段为出售的内容,购买后显示

发帖
808
金钱
12722
威望
235
贡献值
115
交易币
1156
只看该作者 1楼 发表于: 2016-01-06
谢谢了,,
1条评分金钱+1
mjghosts 金钱 +1 速度真快 2016-01-06
离线Moses

发帖
5060
金钱
37310
威望
2951
贡献值
1521
交易币
2746
只看该作者 2楼 发表于: 2016-01-06
BILLIE JEAN 就是以后一直使用的鼓点 了
http://blog.sina.com.cn/mjjcfc
离线zhouquan311

发帖
734
金钱
7771
威望
136
贡献值
66
交易币
974
只看该作者 3楼 发表于: 2016-01-06
又来新的了!赞!
Forever MJ
       我要去减肥,除非冰淇淋,
  
  不再那么贵,三块二毛一,
  
  我也要人陪,除非我有米,
  
  去换红玫瑰,然后送给你,
  
离线Mr灬W

发帖
1129
金钱
12950
威望
161
贡献值
56
交易币
1282
只看该作者 4楼 发表于: 2016-01-06
感谢分享!支持幽灵~
Heal The World
离线mich008

发帖
832
金钱
5931
威望
24
贡献值
15
交易币
894
只看该作者 5楼 发表于: 2016-01-06
不知道这版音质如何
离线自作主张

发帖
346
金钱
3101
威望
80
贡献值
43
交易币
443
只看该作者 6楼 发表于: 2016-01-06
支持幽灵~
离线MC雷战

发帖
682
金钱
23300
威望
207
贡献值
148
交易币
39
只看该作者 7楼 发表于: 2016-01-06
我来看看    
[img]
离线刘123伟

发帖
686
金钱
486
威望
54
贡献值
14
交易币
743
只看该作者 8楼 发表于: 2016-01-07
感谢幽灵大版主的分享,支持一下!
离线flash

发帖
236
金钱
0
威望
81
贡献值
0
交易币
236
只看该作者 9楼 发表于: 2016-01-07
看密码 看密码
快速回复
限100 字节
 
上一个 下一个