论坛风格切换切换到宽版
  • 1713阅读
  • 23回复

[亲传][Album] 1982 Thriller 美国二版 ['DIDP 20022' JP] (US - EK 38112) - WAV整轨 ♬by幽灵 [复制链接]

上一主题 下一主题
离线mjghosts
 

发帖
8247
金钱
210534
威望
9164
贡献值
2715
交易币
4698
只看楼主 倒序阅读 楼主  发表于: 2016-01-06
— 本帖被 mjghosts 执行加亮操作(2016-01-06) —
*此次发布的版本是紧接首版后1984年美国发行的二版,经过重新编码和后期,与首版一样是日本压盘,此版CD音质是我目前听过最好的一个,特此分享!完美精确校准抓轨!* b]E|*  
,fEO> i  
关于这张CD的更多详情请到:http://blog.sina.com.cn/s/blog_59c8cb6d0102wa3t.html
s08u @  
z9W`FBg  
注:独家整理,转载请注明出处!EAC无损整轨(压缩包内含CD图片) )hwV`2>l  
E2GGEKrW  
解压密码:www.mjsunny.com
hP J4Oj1O  
(2?G:+C 7  
k\Q ,h75  
,_!6U  
R E1 /"[t  
%tA57Pn>  
Exact Audio Copy V1.0 beta 6 from 9. April 2015 BiE08,nj  
l0*Gb  
EAC 抓取日志文件从5. 一月 2016, 19:01 !gwjN_ZJ^  
! #wdVe_(  
Michael Jackson / Thriller =1dI>M>tm  
4 ;Qlu  
使用驱动器  :MATSHITADVD-RAM UJ890AS   Adapter: 1  ID: 1 P`U<7xF~  
S)He$B$pp  
读取模式      : 可靠Secure FDR1 Gy  
使用精确流     : 是 #s5 pz8v  
清空音频缓存    : 否 33:DH}  
使用 C2 指示器 : 是 4X NxI1w)  
7#;vG>]  
读取偏移校正:               : 102 9?+9UlJ7K  
读取 Lead-In 和 Lead-Out : 否 T0j2a &Pv  
用静音填充抓取中丢失偏移的采样       : 是 >KG E-Yzj  
去除首尾静音块               : 否 l#3($QV,  
在CRC 计算中使用了空样本       : 是 iNcZ)m/  
已用接口                  : Win NT 及 2000 本地 Win32 接口 zH)_vW  
YHxbDf dA  
所用输出模式: : 内部 WAV 函数 ~WVO  
样本格式    : 44.100 Hz; 16 Bit; 立体声 5,+\`!g  
;mm!0]V  
f<[jwhCWV  
已抓取 CD 的 TOC Iyk6=&?j  
>AD =31lq  
     音轨 |    起始    |    长度    |  起始扇区  |  结束扇区   2x$x; \*j  
    -------------------------------------------- r$)$n&j  
      1 |  0:00.00 |  6:04.20 |      0 |  27319 8 ?TKN~ja  
      2 |  6:04.20 |  4:20.62 |  27320 |  46881 P1 +"v*  
      3 | 10:25.07 |  3:42.35 |  46882 |  63566 kL{;.WsB  
      4 | 14:07.42 |  5:59.33 |  63567 |  90524 2iXoj&3e  
      5 | 20:07.00 |  4:18.65 |  90525 | 109939 ,-*iCs<  
      6 | 24:25.65 |  4:54.30 | 109940 | 132019 ^,s?e.u$8`  
      7 | 29:20.20 |  4:06.25 | 132020 | 150494 C;1PsSE+A  
      8 | 33:26.45 |  3:59.20 | 150495 | 168439 ,j9 80/  
      9 | 37:25.65 |  4:59.47 | 168440 | 190911 1/j$I~B   
T@+ClZi  
+Tak de%~  
范围状态及错误 tFU;SBt8Ki  
c;!g  
已选择范围 B#N7qoi  
@h-T:$  
     文件名 J:\12 Music*音乐\CDImage.wav w$Ux?y- L  
_'iDF  
     峰值电平 100.0 % TL-i=\{L:d  
     抓取速度 6.1 X DnyYMe!r  
     范围质量 99.9 % q(9%^cV6  
     复制 CRC 3D156B45 T&}Ye\%  
     复制成功 0<P(M:a  
Zw=G@4xoU  
没有错误发生 yjZ2 if  
lSCY5[?  
}brr ) )  
AccurateRip 摘要 gRvJ.Q{h  
70`M,``  
音轨  1  精确地校准抓取  3)  [4A3E3470]  (AR v1) FLbZ9pX}  
音轨  2  精确地校准抓取  3)  [CC8CDDFD]  (AR v1) oS!/|#m n  
音轨  3  精确地校准抓取  3)  [B3E6C1D3]  (AR v1) 6o lV+  
音轨  4  精确地校准抓取  3)  [89E60A11]  (AR v1) Fzs>J&sY&  
音轨  5  精确地校准抓取  3)  [41C7E3A8]  (AR v1) i7v/A&Rc  
音轨  6  精确地校准抓取  3)  [2A90B4B8]  (AR v1) &t[|%c*D&  
音轨  7  精确地校准抓取  3)  [A36C1D5D]  (AR v1) '5WN,Vy8.  
音轨  8  精确地校准抓取  3)  [B5F491B6]  (AR v1) (4ZLpsbJ  
音轨  9  精确地校准抓取  3)  [0243B8C5]  (AR v1) ]L]T>~X`  
9S"N4c>  
所有音轨精确校准抓取 oP-;y&AS  
fv|%Ocm  
状态报告结尾
/$*; >4=>f  
AO8:|?3S  
链接:http://pan.baidu.com/s/1gejapUz 密码: VD4S_qx  
此帖售价 15 金钱,已有 21 人购买 [记录] [购买]
购买后,将显示帖子中所有出售内容。
若发现会员采用欺骗的方法获取财富,请立刻举报,我们会对会员处以2-N倍的罚金,严重者封掉ID!
此段为出售的内容,购买后显示

发帖
806
金钱
12866
威望
235
贡献值
115
交易币
1154
只看该作者 1楼 发表于: 2016-01-06
谢谢了,,
1条评分金钱+1
mjghosts 金钱 +1 速度真快 2016-01-06
离线Moses

发帖
5056
金钱
37290
威望
2951
贡献值
1521
交易币
2742
只看该作者 2楼 发表于: 2016-01-06
BILLIE JEAN 就是以后一直使用的鼓点 了
http://blog.sina.com.cn/mjjcfc
离线zhouquan311

发帖
734
金钱
7691
威望
136
贡献值
66
交易币
974
只看该作者 3楼 发表于: 2016-01-06
又来新的了!赞!
Forever MJ
       我要去减肥,除非冰淇淋,
  
  不再那么贵,三块二毛一,
  
  我也要人陪,除非我有米,
  
  去换红玫瑰,然后送给你,
  
离线Mr灬W

发帖
1156
金钱
12819
威望
161
贡献值
56
交易币
1281
只看该作者 4楼 发表于: 2016-01-06
感谢分享!支持幽灵~
Heal The World
离线mich008

发帖
796
金钱
5102
威望
24
贡献值
15
交易币
858
只看该作者 5楼 发表于: 2016-01-06
不知道这版音质如何
离线自作主张

发帖
338
金钱
2961
威望
78
贡献值
43
交易币
435
只看该作者 6楼 发表于: 2016-01-06
支持幽灵~
离线MC雷战

发帖
679
金钱
23324
威望
207
贡献值
148
交易币
36
只看该作者 7楼 发表于: 2016-01-06
我来看看    
[img]
离线刘123伟

发帖
625
金钱
311
威望
54
贡献值
14
交易币
682
只看该作者 8楼 发表于: 2016-01-07
感谢幽灵大版主的分享,支持一下!
离线flash

发帖
231
金钱
78
威望
81
贡献值
0
交易币
231
只看该作者 9楼 发表于: 2016-01-07
看密码 看密码
快速回复
限100 字节
 
上一个 下一个