论坛风格切换切换到宽版
  • 1136阅读
  • 19回复

[亲传][Single] 1992 Jam [The Downtown Jams] (JP - ESCA 5672) - WAV整轨 ♬by幽灵 [复制链接]

上一主题 下一主题
离线mjghosts
 

发帖
8247
金钱
210534
威望
9164
贡献值
2715
交易币
4698
只看楼主 倒序阅读 楼主  发表于: 2016-01-19
— 本帖被 mjghosts 执行加亮操作(2016-01-19) —
【相关链接】[Single] 1992 Jam [The Uptown Jams] (JP - ESCA 5638) - WAV整轨 ♬by幽灵 "E'OP R  
http://www.mjsunny.com/read.php?tid=65585 55yP.@i9J  
KK7Y"~ 9&-  
*日本发行的两张JAM单曲之一,蓝色封面,收录5首歌,其中第一首曲目版本印刷有误,实际以下面文字列出的为准。全碟完美精确校准抓轨! ^ ]`<nO  
(M[Kh ^  
注:独家整理,转载请注明出处!EAC无损整轨(压缩包内含CD图片) H:0-.a^ZS  
> m5j.GP;  
解压密码:www.mjsunny.com
xat)9Yb}0  
<H#D/?n5  
Tracklist ef|Y2<P  
1 Jam (Club Radio Mix) 3:51 ayC*n'  
2 Jam (Silky 7") 4:17 5*4P_q(AxD  
3 Jam (E-Smoove's Jazzy Jam) 6:44 LsBDfp5/  
4 Jam (The Video Mix) 5:37 Tm` QZh3  
5 Beat It (Moby's Sub Mix) 6:12
ku`'w;5jT  
a1om8!C  
{V:?r  
J$'T2@H#  
7b Gzun&  
in B}ydk  
Exact Audio Copy V1.0 beta 6 from 9. April 2015 ]4hXK!^Uu  
BPi>SI0  
EAC 抓取日志文件从17. 一月 2016, 23:15 l;?.YtMg  
{4:En;  
Michael Jackson / Jam (The Downtown Jams) E\'_`L  
uomFE(  
使用驱动器  :MATSHITADVD-RAM UJ890AS   Adapter: 1  ID: 1 hvpn=0@ M  
` 6"\.@4  
读取模式      : 可靠Secure kZn!]TseN  
使用精确流     : 是 Mzb_o2^(  
清空音频缓存    : 否 `SIJszqc  
使用 C2 指示器 : 是 X\$M _b>O  
/CZOO)n  
读取偏移校正:               : 102 fA+M/}=  
读取 Lead-In 和 Lead-Out : 否 s:fnOMv "  
用静音填充抓取中丢失偏移的采样       : 是 ,*C^ixNE  
去除首尾静音块               : 否 `Cb$8;)z  
在CRC 计算中使用了空样本       : 是 -<<!eH  
已用接口                  : Win NT 及 2000 本地 Win32 接口 *:d_~B?Tn  
p=r{ODw#3  
所用输出模式: : 内部 WAV 函数 7,O^c +  
样本格式    : 44.100 Hz; 16 Bit; 立体声 Xt~/8)&  
dm.3.xXq  
-,+JE0[  
已抓取 CD 的 TOC [S9nF  
c76^x   
     音轨 |    起始    |    长度    |  起始扇区  |  结束扇区   SD697L9  
    -------------------------------------------- i?|SC=  
      1 |  0:00.00 |  3:50.67 |      0 |  17316 ) .]Z}g&  
      2 |  3:50.67 |  4:14.50 |  17317 |  36416 x,1&ml5  
      3 |  8:05.42 |  6:47.03 |  36417 |  66944 "+AeqrYYm5  
      4 | 14:52.45 |  5:40.00 |  66945 |  92444 > h:~*g  
      5 | 20:32.45 |  6:13.17 |  92445 | 120436 b>waxQxjS  
2Hq!YsJ4]  
VWNmqeP  
范围状态及错误 ;PbyR}s  
ZBnf?fU  
已选择范围 `@:^(sMo  
3XA^{&}  
     文件名 J:\12 Music*音乐\CDImage.wav 5 &VLq  
sNNt0q(  
     峰值电平 100.0 % MbJV)*Q  
     抓取速度 5.3 X \?}ZXKuJj  
     范围质量 100.0 % 3 8f9jF%7j  
     复制 CRC 0DDFF23C xvW+;3;  
     复制成功 J \G8 g,@  
Ye,E7A*L  
没有错误发生 6W$k^<S  
I|08[ mO  
;Qw>&24h[  
AccurateRip 摘要 qQ^]z8g6P  
BE:GB?XBH  
音轨  1  精确地校准抓取  1)  [C9B567D5]  (AR v2) gzi~ BJ  
音轨  2  精确地校准抓取  1)  [76E11418]  (AR v2) St'3e<  
音轨  3  精确地校准抓取  1)  [2E3B67FB]  (AR v2) /\OjtE  
音轨  4  精确地校准抓取  1)  [D0E445E8]  (AR v2) +Z /Pj_.o  
音轨  5  精确地校准抓取  1)  [AE6ADD30]  (AR v2) l2._Z Py  
4IIe1 .{  
所有音轨精确校准抓取 6 [w_ /X"  
W(Xb]t=19  
状态报告结尾
|*K AqTO0  
QS\H[?M$  
链接:http://pan.baidu.com/s/1mhgnDCc 密码: vYcea  
此帖售价 20 金钱,已有 16 人购买 [记录] [购买]
购买后,将显示帖子中所有出售内容。
若发现会员采用欺骗的方法获取财富,请立刻举报,我们会对会员处以2-N倍的罚金,严重者封掉ID!
此段为出售的内容,购买后显示
离线jailim9300

发帖
286
金钱
14
威望
15
贡献值
12
交易币
335
只看该作者 1楼 发表于: 2016-01-19
单曲专辑挺有收藏价值的
离线刘123伟

发帖
625
金钱
311
威望
54
贡献值
14
交易币
682
只看该作者 2楼 发表于: 2016-01-19
感谢幽灵大哥的分享,《JAM》是我特别喜欢的一首危险时期曲目。
离线mich008

发帖
796
金钱
5102
威望
24
贡献值
15
交易币
858
只看该作者 3楼 发表于: 2016-01-19
这个不会错过
离线blackbc

发帖
462
金钱
187
威望
185
贡献值
2
交易币
122
只看该作者 4楼 发表于: 2016-01-19
JAM那段键盘不要太帅~~!
在线michael0829

发帖
946
金钱
8872
威望
90
贡献值
70
交易币
1195
只看该作者 5楼 发表于: 2016-01-20
谢谢,用手机电脑版先回复着,谢谢分享!
I Love You Michael Jackson Forever!
I Just Can't Stop Loving You Michel!
离线小李

发帖
218
金钱
132
威望
98
贡献值
7
交易币
186
只看该作者 6楼 发表于: 2016-01-20
除了第一首不确定有没有,其他都有
离线thelma66

发帖
615
金钱
27879
威望
284
贡献值
253
交易币
808
只看该作者 7楼 发表于: 2016-01-20
感谢
离线李伟伟

发帖
192
金钱
1877
威望
20
贡献值
13
交易币
245
只看该作者 8楼 发表于: 2016-01-20
不错 有收藏价值
离线三分寰宇

发帖
26
金钱
7
威望
12
贡献值
1
交易币
31
只看该作者 9楼 发表于: 2016-01-21
准确抓轨好评!!!
快速回复
限100 字节
 
上一个 下一个