论坛风格切换切换到宽版
  • 1303阅读
  • 20回复

[亲传][Single] 1992 Jam [The Downtown Jams] (JP - ESCA 5672) - WAV整轨 ♬by幽灵 [复制链接]

上一主题 下一主题
离线mjghosts
 

发帖
8258
金钱
212473
威望
9166
贡献值
2715
交易币
4709
只看楼主 倒序阅读 楼主  发表于: 2016-01-19
— 本帖被 mjghosts 执行加亮操作(2016-01-19) —
【相关链接】[Single] 1992 Jam [The Uptown Jams] (JP - ESCA 5638) - WAV整轨 ♬by幽灵 X\dPQwasM  
http://www.mjsunny.com/read.php?tid=65585 5u=(zg  
| ]DJz  
*日本发行的两张JAM单曲之一,蓝色封面,收录5首歌,其中第一首曲目版本印刷有误,实际以下面文字列出的为准。全碟完美精确校准抓轨! 9]DMHA@  
nn0`A3  
注:独家整理,转载请注明出处!EAC无损整轨(压缩包内含CD图片) {d%% nK~  
!M&Qca2  
解压密码:www.mjsunny.com
P!apAr  
#9a\Ab  
Tracklist 122%KS  
1 Jam (Club Radio Mix) 3:51 )5479Eb_  
2 Jam (Silky 7") 4:17 gNsas:iGM  
3 Jam (E-Smoove's Jazzy Jam) 6:44 !Rq.L  
4 Jam (The Video Mix) 5:37 KXQ &u{[<  
5 Beat It (Moby's Sub Mix) 6:12
/oWn0  
#s\HiO$BT  
LR:v$3 G(  
!>,\KxnM  
X3bPBv  
5Hli@:B2s  
Exact Audio Copy V1.0 beta 6 from 9. April 2015 >{seaihK  
wb#ZRmx}  
EAC 抓取日志文件从17. 一月 2016, 23:15 R">-h;#  
 4 Wb^$i!  
Michael Jackson / Jam (The Downtown Jams) Qb.Ve7c  
yobcAV`  
使用驱动器  :MATSHITADVD-RAM UJ890AS   Adapter: 1  ID: 1 fLtN-w6t  
3Uy48ue  
读取模式      : 可靠Secure LA837P  
使用精确流     : 是 __3s3YG  
清空音频缓存    : 否 --> ~<o  
使用 C2 指示器 : 是 \~r`2p-K  
f*:DH4g }B  
读取偏移校正:               : 102 JZo18^aD"'  
读取 Lead-In 和 Lead-Out : 否 X%Lhu6F  
用静音填充抓取中丢失偏移的采样       : 是 NKSK+ll2  
去除首尾静音块               : 否 )Z=S'm k4_  
在CRC 计算中使用了空样本       : 是 s2X<b `  
已用接口                  : Win NT 及 2000 本地 Win32 接口 z{q|HO  
MB!_G[R  
所用输出模式: : 内部 WAV 函数 %0gcNk"=  
样本格式    : 44.100 Hz; 16 Bit; 立体声 Po1/_# mu  
mWP1mc:M(  
8{f~tPY  
已抓取 CD 的 TOC N+9W2n  
us7t>EMmB  
     音轨 |    起始    |    长度    |  起始扇区  |  结束扇区   unB`n'L  
    -------------------------------------------- Zn{Y+ce7d  
      1 |  0:00.00 |  3:50.67 |      0 |  17316 k E},>+W+  
      2 |  3:50.67 |  4:14.50 |  17317 |  36416 3Jh!YzI8  
      3 |  8:05.42 |  6:47.03 |  36417 |  66944 /_D_W,#P  
      4 | 14:52.45 |  5:40.00 |  66945 |  92444 bn#'o(Lp  
      5 | 20:32.45 |  6:13.17 |  92445 | 120436 w\zNn4B})A  
[aF"5G  
( &!RX.i  
范围状态及错误 `Fx+HIng,  
-~Chf4?<4  
已选择范围 ;Xl {m`E+  
n/ZX$?tKAK  
     文件名 J:\12 Music*音乐\CDImage.wav <)a7Nrc\T  
GDQQ4-|O  
     峰值电平 100.0 % _%wB*u,X  
     抓取速度 5.3 X fb[? sc  
     范围质量 100.0 % }Ud'j'QMy  
     复制 CRC 0DDFF23C :7?n)=Tx  
     复制成功 #x6EZnG  
q)3QmA~  
没有错误发生 AquO#A[,#  
_:>t$* _  
uFuP%f!yY  
AccurateRip 摘要 IEe;ygL#  
M5 P3;  
音轨  1  精确地校准抓取  1)  [C9B567D5]  (AR v2) +R_s(2vz  
音轨  2  精确地校准抓取  1)  [76E11418]  (AR v2) l=L(pS3 ~  
音轨  3  精确地校准抓取  1)  [2E3B67FB]  (AR v2) @ V_i%=go  
音轨  4  精确地校准抓取  1)  [D0E445E8]  (AR v2) S263h(H  
音轨  5  精确地校准抓取  1)  [AE6ADD30]  (AR v2) k\RS L  
-;Te+E_  
所有音轨精确校准抓取 Cq[Hh#q  
g1 =>u  
状态报告结尾
+|H,N7a<  
ZG? e%  
链接:http://pan.baidu.com/s/1mhgnDCc 密码: Kw2]J)TO  
此帖售价 20 金钱,已有 17 人购买 [记录] [购买]
购买后,将显示帖子中所有出售内容。
若发现会员采用欺骗的方法获取财富,请立刻举报,我们会对会员处以2-N倍的罚金,严重者封掉ID!
此段为出售的内容,购买后显示
离线jailim9300

发帖
288
金钱
14
威望
15
贡献值
12
交易币
337
只看该作者 1楼 发表于: 2016-01-19
单曲专辑挺有收藏价值的
离线刘123伟

发帖
654
金钱
474
威望
54
贡献值
14
交易币
711
只看该作者 2楼 发表于: 2016-01-19
感谢幽灵大哥的分享,《JAM》是我特别喜欢的一首危险时期曲目。
离线mich008

发帖
811
金钱
5257
威望
24
贡献值
15
交易币
873
只看该作者 3楼 发表于: 2016-01-19
这个不会错过
离线blackbc

发帖
467
金钱
207
威望
185
贡献值
2
交易币
127
只看该作者 4楼 发表于: 2016-01-19
JAM那段键盘不要太帅~~!
离线michael0829

发帖
946
金钱
9132
威望
90
贡献值
70
交易币
1195
只看该作者 5楼 发表于: 2016-01-20
谢谢,用手机电脑版先回复着,谢谢分享!
I Love You Michael Jackson Forever!
I Just Can't Stop Loving You Michel!
离线小李

发帖
225
金钱
150
威望
99
贡献值
8
交易币
197
只看该作者 6楼 发表于: 2016-01-20
除了第一首不确定有没有,其他都有
离线thelma66

发帖
615
金钱
27879
威望
284
贡献值
253
交易币
808
只看该作者 7楼 发表于: 2016-01-20
感谢
离线李伟伟

发帖
193
金钱
1875
威望
20
贡献值
13
交易币
246
只看该作者 8楼 发表于: 2016-01-20
不错 有收藏价值
离线三分寰宇

发帖
26
金钱
7
威望
12
贡献值
1
交易币
31
只看该作者 9楼 发表于: 2016-01-21
准确抓轨好评!!!
快速回复
限100 字节
 
上一个 下一个