论坛风格切换切换到宽版
  • 1945阅读
  • 20回复

[亲传][Single] 1992 Jam [The Downtown Jams] (JP - ESCA 5672) - WAV整轨 ♬by幽灵 [复制链接]

上一主题 下一主题
离线mjghosts
 

发帖
8244
金钱
217720
威望
9174
贡献值
2723
交易币
4755
只看楼主 倒序阅读 楼主  发表于: 2016-01-19
— 本帖被 mjghosts 执行加亮操作(2016-01-19) —
【相关链接】[Single] 1992 Jam [The Uptown Jams] (JP - ESCA 5638) - WAV整轨 ♬by幽灵 }Uf<ZXW  
http://www.mjsunny.com/read.php?tid=65585  uu%?K@Qq  
Gqyue7;0,  
*日本发行的两张JAM单曲之一,蓝色封面,收录5首歌,其中第一首曲目版本印刷有误,实际以下面文字列出的为准。全碟完美精确校准抓轨! .h;Se  
IbWPlbH  
注:独家整理,转载请注明出处!EAC无损整轨(压缩包内含CD图片) *(*+`qZL{(  
+=8X8<Pu  
解压密码:www.mjsunny.com
daOS8_py  
[[qwaI  
Tracklist n=`w9qajd  
1 Jam (Club Radio Mix) 3:51 *=vlqpG  
2 Jam (Silky 7") 4:17 %yaG,;>U  
3 Jam (E-Smoove's Jazzy Jam) 6:44 a{`"68  
4 Jam (The Video Mix) 5:37 \ $;~74}  
5 Beat It (Moby's Sub Mix) 6:12
[A_r1g&_  
6wpU6NU  
-SJSTO[/J  
W^(Iw%ek  
u 6(GM  
)]A9~H  
Exact Audio Copy V1.0 beta 6 from 9. April 2015 bqjr0A7{  
n7+aM@G  
EAC 抓取日志文件从17. 一月 2016, 23:15 mo*'"/  
(s Jq;Z  
Michael Jackson / Jam (The Downtown Jams) QnP{$rT  
94+/wzWvi  
使用驱动器  :MATSHITADVD-RAM UJ890AS   Adapter: 1  ID: 1 nIR*_<ow  
`>\4"`I  
读取模式      : 可靠Secure M`bL5J;  
使用精确流     : 是 FXeV6zfrE  
清空音频缓存    : 否 ^IYJEqK  
使用 C2 指示器 : 是 (GnVwJ<v9V  
rv`2*B  
读取偏移校正:               : 102 q%DVDq( z  
读取 Lead-In 和 Lead-Out : 否 yB=C5-\F  
用静音填充抓取中丢失偏移的采样       : 是 ZU)BJ!L,s  
去除首尾静音块               : 否 nZ&T8@m  
在CRC 计算中使用了空样本       : 是 uXjoGcW  
已用接口                  : Win NT 及 2000 本地 Win32 接口 #"hJpyW 4V  
Q@7l"8#[t  
所用输出模式: : 内部 WAV 函数 s Ke,  
样本格式    : 44.100 Hz; 16 Bit; 立体声 U~oBNsU"  
,2RC|h^O,  
di"C]" ;  
已抓取 CD 的 TOC }A^ 1q5  
BPwI8\V  
     音轨 |    起始    |    长度    |  起始扇区  |  结束扇区   =Dh$yC-Zr  
    -------------------------------------------- hq5NQi` %  
      1 |  0:00.00 |  3:50.67 |      0 |  17316 ,:v.L}+Z  
      2 |  3:50.67 |  4:14.50 |  17317 |  36416 [ED!J~lg8  
      3 |  8:05.42 |  6:47.03 |  36417 |  66944 zkjPLeX  
      4 | 14:52.45 |  5:40.00 |  66945 |  92444 X)`(nj  
      5 | 20:32.45 |  6:13.17 |  92445 | 120436 DePV,.  
Ybs=W< -  
h]J&A  
范围状态及错误 v$gMLu=  
E1Ru)k{B  
已选择范围 GL;x:2XA  
]YisZE4s  
     文件名 J:\12 Music*音乐\CDImage.wav } #\;np  
:/yr(V{  
     峰值电平 100.0 % WTV3p,;6a  
     抓取速度 5.3 X \J,- <wF  
     范围质量 100.0 % eB<V%,%N#  
     复制 CRC 0DDFF23C zulf%aaL  
     复制成功 P xP?hk  
A1k&` |k   
没有错误发生 (:fE _H2z  
/,rF$5G,  
,rH)}C<Q+  
AccurateRip 摘要 (AM,4)lW,  
I(?|Ox9"?  
音轨  1  精确地校准抓取  1)  [C9B567D5]  (AR v2) 1VjeP *  
音轨  2  精确地校准抓取  1)  [76E11418]  (AR v2) QN}3S0  
音轨  3  精确地校准抓取  1)  [2E3B67FB]  (AR v2) y1\^v_.^  
音轨  4  精确地校准抓取  1)  [D0E445E8]  (AR v2) F'5d\v  
音轨  5  精确地校准抓取  1)  [AE6ADD30]  (AR v2) #nc@!+  
[BZ(p  
所有音轨精确校准抓取 YAC zznN  
 Sj{rvW  
状态报告结尾
tFST.yT>zg  
}'.Sn{OWf  
链接:http://pan.baidu.com/s/1mhgnDCc 密码: 1M~:]}*<  
此帖售价 20 金钱,已有 17 人购买 [记录] [购买]
购买后,将显示帖子中所有出售内容。
若发现会员采用欺骗的方法获取财富,请立刻举报,我们会对会员处以2-N倍的罚金,严重者封掉ID!
此段为出售的内容,购买后显示
离线jailim9300

发帖
299
金钱
1
威望
15
贡献值
12
交易币
348
只看该作者 1楼 发表于: 2016-01-19
单曲专辑挺有收藏价值的
离线刘123伟

发帖
686
金钱
486
威望
54
贡献值
14
交易币
743
只看该作者 2楼 发表于: 2016-01-19
感谢幽灵大哥的分享,《JAM》是我特别喜欢的一首危险时期曲目。
离线mich008

发帖
832
金钱
5931
威望
24
贡献值
15
交易币
894
只看该作者 3楼 发表于: 2016-01-19
这个不会错过
离线blackbc

发帖
467
金钱
207
威望
185
贡献值
2
交易币
127
只看该作者 4楼 发表于: 2016-01-19
JAM那段键盘不要太帅~~!
离线michael0829

发帖
955
金钱
9569
威望
90
贡献值
70
交易币
1204
只看该作者 5楼 发表于: 2016-01-20
谢谢,用手机电脑版先回复着,谢谢分享!
I Love You Michael Jackson Forever!
I Just Can't Stop Loving You Michel!
离线小李

发帖
236
金钱
1405
威望
9
贡献值
8
交易币
208
只看该作者 6楼 发表于: 2016-01-20
除了第一首不确定有没有,其他都有
离线thelma66

发帖
615
金钱
27879
威望
284
贡献值
253
交易币
808
只看该作者 7楼 发表于: 2016-01-20
感谢
离线李伟伟

发帖
195
金钱
1849
威望
20
贡献值
13
交易币
248
只看该作者 8楼 发表于: 2016-01-20
不错 有收藏价值
离线三分寰宇

发帖
70
金钱
97
威望
11
贡献值
1
交易币
21
只看该作者 9楼 发表于: 2016-01-21
准确抓轨好评!!!
快速回复
限100 字节
 
上一个 下一个