论坛风格切换切换到宽版
  • 1663阅读
  • 20回复

[亲传][Single] 1992 Jam [The Downtown Jams] (JP - ESCA 5672) - WAV整轨 ♬by幽灵 [复制链接]

上一主题 下一主题
离线mjghosts
 

发帖
8240
金钱
216247
威望
9172
贡献值
2721
交易币
4743
只看楼主 倒序阅读 楼主  发表于: 2016-01-19
— 本帖被 mjghosts 执行加亮操作(2016-01-19) —
【相关链接】[Single] 1992 Jam [The Uptown Jams] (JP - ESCA 5638) - WAV整轨 ♬by幽灵 KDb`g}1Q  
http://www.mjsunny.com/read.php?tid=65585 qae|?z  
[LO=k|&R  
*日本发行的两张JAM单曲之一,蓝色封面,收录5首歌,其中第一首曲目版本印刷有误,实际以下面文字列出的为准。全碟完美精确校准抓轨! BGHZL~  
sPXjU5uq#  
注:独家整理,转载请注明出处!EAC无损整轨(压缩包内含CD图片) #jd.i  
M93*"jA  
解压密码:www.mjsunny.com
q^?a|l  
:(wFNK/0{  
Tracklist H:XPl$;  
1 Jam (Club Radio Mix) 3:51 3+(lKd  
2 Jam (Silky 7") 4:17 [cco/=c  
3 Jam (E-Smoove's Jazzy Jam) 6:44 A^#\=ZBg1  
4 Jam (The Video Mix) 5:37 5[4nFa}R:5  
5 Beat It (Moby's Sub Mix) 6:12
d4*SfzB  
&0tW{-Hv"  
qw?(^uZNW  
8?Ju\W  
*YL86R+U  
2[HPU M2>  
Exact Audio Copy V1.0 beta 6 from 9. April 2015 CbC [aVA=  
kfZ`|w@q  
EAC 抓取日志文件从17. 一月 2016, 23:15 Q;w [o  
q,O_y<uw  
Michael Jackson / Jam (The Downtown Jams) ,]7ouH$H}  
6QCV i  
使用驱动器  :MATSHITADVD-RAM UJ890AS   Adapter: 1  ID: 1 #UoFU{6tM  
Z@Zg3AVU  
读取模式      : 可靠Secure rzIWQFv  
使用精确流     : 是 KR?aL:RYb  
清空音频缓存    : 否 ?Y3i-jY  
使用 C2 指示器 : 是 #p>&|I  
<ef O+X!  
读取偏移校正:               : 102 m;l[flQ~  
读取 Lead-In 和 Lead-Out : 否  ~d eS*  
用静音填充抓取中丢失偏移的采样       : 是 8c-ys-"#  
去除首尾静音块               : 否 .O1w-,=  
在CRC 计算中使用了空样本       : 是 dY&v(~&;]  
已用接口                  : Win NT 及 2000 本地 Win32 接口 ,]wQ]fpt  
J{dO0!7y  
所用输出模式: : 内部 WAV 函数 HJN GO[*g  
样本格式    : 44.100 Hz; 16 Bit; 立体声 xbhHP2F |  
0vfMJzk  
e8 ]CB  
已抓取 CD 的 TOC w:%NEa,Z  
zqdkt `  
     音轨 |    起始    |    长度    |  起始扇区  |  结束扇区   j:1N&7<FU  
    -------------------------------------------- =@4 ,szLO  
      1 |  0:00.00 |  3:50.67 |      0 |  17316 HLDv{G'7  
      2 |  3:50.67 |  4:14.50 |  17317 |  36416 `;}qjm0a  
      3 |  8:05.42 |  6:47.03 |  36417 |  66944 F~eYPaEKy!  
      4 | 14:52.45 |  5:40.00 |  66945 |  92444 <(Ar[Rp  
      5 | 20:32.45 |  6:13.17 |  92445 | 120436 WP\kg\o  
\\ R<HuTY  
}KUK|p5  
范围状态及错误 <Af&Q0J  
!sI^Lh,Y  
已选择范围 8v/,< eARJ  
7R5ebMW V  
     文件名 J:\12 Music*音乐\CDImage.wav (g[WZB3x  
um/F:rp  
     峰值电平 100.0 % w#BT/6W&G  
     抓取速度 5.3 X \goiW;b  
     范围质量 100.0 % =s.0 f:(  
     复制 CRC 0DDFF23C mcQ A'  
     复制成功 4,YL15.  
NyC&j`d  
没有错误发生 #Ddo` >`&  
Mg}/gO% o  
`{IL.9M!f  
AccurateRip 摘要 XCyb[(4  
'F/uD 1;  
音轨  1  精确地校准抓取  1)  [C9B567D5]  (AR v2) XN\rq=  
音轨  2  精确地校准抓取  1)  [76E11418]  (AR v2) hVFZQJ?cv  
音轨  3  精确地校准抓取  1)  [2E3B67FB]  (AR v2) h^,L) E  
音轨  4  精确地校准抓取  1)  [D0E445E8]  (AR v2) OYmutq  
音轨  5  精确地校准抓取  1)  [AE6ADD30]  (AR v2) M,oZ_tY%  
{C8IYBm  
所有音轨精确校准抓取 d}|z+D  
_2<UcC~  
状态报告结尾
c|k(_#\B  
x",ktE>9  
链接:http://pan.baidu.com/s/1mhgnDCc 密码: *c$UIg  
此帖售价 20 金钱,已有 17 人购买 [记录] [购买]
购买后,将显示帖子中所有出售内容。
若发现会员采用欺骗的方法获取财富,请立刻举报,我们会对会员处以2-N倍的罚金,严重者封掉ID!
此段为出售的内容,购买后显示
离线jailim9300

发帖
299
金钱
1
威望
15
贡献值
12
交易币
348
只看该作者 1楼 发表于: 2016-01-19
单曲专辑挺有收藏价值的
离线刘123伟

发帖
682
金钱
971
威望
54
贡献值
14
交易币
739
只看该作者 2楼 发表于: 2016-01-19
感谢幽灵大哥的分享,《JAM》是我特别喜欢的一首危险时期曲目。
离线mich008

发帖
824
金钱
5489
威望
24
贡献值
15
交易币
886
只看该作者 3楼 发表于: 2016-01-19
这个不会错过
离线blackbc

发帖
467
金钱
207
威望
185
贡献值
2
交易币
127
只看该作者 4楼 发表于: 2016-01-19
JAM那段键盘不要太帅~~!
离线michael0829

发帖
954
金钱
9354
威望
90
贡献值
70
交易币
1203
只看该作者 5楼 发表于: 2016-01-20
谢谢,用手机电脑版先回复着,谢谢分享!
I Love You Michael Jackson Forever!
I Just Can't Stop Loving You Michel!
离线小李

发帖
232
金钱
230
威望
99
贡献值
8
交易币
204
只看该作者 6楼 发表于: 2016-01-20
除了第一首不确定有没有,其他都有
离线thelma66

发帖
615
金钱
27879
威望
284
贡献值
253
交易币
808
只看该作者 7楼 发表于: 2016-01-20
感谢
离线李伟伟

发帖
195
金钱
1849
威望
20
贡献值
13
交易币
248
只看该作者 8楼 发表于: 2016-01-20
不错 有收藏价值
离线三分寰宇

发帖
70
金钱
97
威望
11
贡献值
1
交易币
21
只看该作者 9楼 发表于: 2016-01-21
准确抓轨好评!!!
快速回复
限100 字节
 
上一个 下一个