论坛风格切换切换到宽版
  • 1918阅读
  • 16回复

[亲传][Single] 1995 You Are Not Alone (AU - EPC 662285 2) - WAV整轨 ♬by幽灵 [复制链接]

上一主题 下一主题
离线mjghosts
 

发帖
8257
金钱
219515
威望
9187
贡献值
2734
交易币
4792
只看楼主 倒序阅读 楼主  发表于: 2016-02-13
— 本帖被 mjghosts 执行加亮操作(2016-02-13) —
*1995年澳大利亚版单曲CD1,收录6首歌曲,可听度颇高。推荐!这次同样是完美精确校准抓取的WAV整轨。* + Cq&~<B  
WhV>]B2+"  
注:独家整理,转载请注明出处!EAC无损整轨(压缩包内含CD图片) +:z%#D  
fJY b)sN  
解压密码:www.mjsunny.com
o2LUB)=R'  
%'dsb7n  
Zr;(a;QKs  
McU]U 9:z  
`ln= D$  
m*TJ@gI*t  
Exact Audio Copy V1.0 beta 6 from 9. April 2015 Yc V*3`  
I4 4bm?[S  
EAC 抓取日志文件从30. 一月 2016, 2:11 a~[]Ye@H  
C Eb .?B  
Michael Jackson / You Are Not Alone jo=,j/,l  
q oVp@=\:"  
使用驱动器  :MATSHITADVD-RAM UJ890AS   Adapter: 1  ID: 1 2qUC@d<K  
|Xl,~-.  
读取模式      : 可靠Secure nA^UF_rD-  
使用精确流     : 是 "5R8Zl+  
清空音频缓存    : 否 bI~(<-S~K  
使用 C2 指示器 : 是 p<3^= 8Y$  
!jxz2Q  
读取偏移校正:               : 102 L7tC?F]}SK  
读取 Lead-In 和 Lead-Out : 否 64OgE!  
用静音填充抓取中丢失偏移的采样       : 是 ~h{v^ }  
去除首尾静音块               : 否 )_nc;&%w  
在CRC 计算中使用了空样本       : 是 czf|c  
已用接口                  : Win NT 及 2000 本地 Win32 接口 ^ cn)eA  
fr%}|7  
所用输出模式: : 内部 WAV 函数 =kUN ^hb  
样本格式    : 44.100 Hz; 16 Bit; 立体声 dM(}1%2  
6t|FuTC  
4w:_4qyb  
已抓取 CD 的 TOC >uuP@j  
cZN+D D  
     音轨 |    起始    |    长度    |  起始扇区  |  结束扇区   \$2E  
    -------------------------------------------- dQR2!yHEq  
      1 |  0:00.00 |  4:36.32 |      0 |  20731 1q*85 [Y  
      2 |  4:36.32 |  7:41.13 |  20732 |  55319 "PBUyh-Z  
      3 | 12:17.45 |  6:57.12 |  55320 |  86606 +pJ;}+  
      4 | 19:14.57 |  6:27.55 |  86607 | 115686 @4 m_\]Wy  
      5 | 25:42.37 |  5:32.03 | 115687 | 140589 x"~F=jT  
      6 | 31:14.40 |  7:43.30 | 140590 | 175344 h[%`'(  
2f>lgZ!  
. zv F!!z  
范围状态及错误 ="RDcf/  
w-R>g dm  
已选择范围 g.X?wyg5  
Y:]~~-f\~  
     文件名 J:\12 Music*音乐\CDImage.wav Er Ji  
8HdmG{7.  
     峰值电平 100.0 % iCao;Zb  
     抓取速度 5.8 X p-UACMN& c  
     范围质量 100.0 % \y{Bnp5h  
     复制 CRC 1A04452E ?C//UN;  
     复制成功 aG8}R~wH&  
V"*|`z)  
没有错误发生 [#kfl  
_\>?.gg$  
!`hjvJryw  
AccurateRip 摘要 '0GCaL*Sd  
(]^9>3{|  
音轨  1  精确地校准抓取  5)  [FB9D7AF2]  (AR v2) o"R[#E&Yx  
音轨  2  精确地校准抓取  5)  [1EF5F3EF]  (AR v2) Bjq1za  
音轨  3  精确地校准抓取  5)  [69533F11]  (AR v2) c<wsWs 4V  
音轨  4  精确地校准抓取  5)  [EDEE4546]  (AR v2) ;U<;R  
音轨  5  精确地校准抓取  5)  [765D93B1]  (AR v2) 6C4c.+S  
音轨  6  精确地校准抓取  5)  [E30CFC18]  (AR v2) d^mw&F)S  
 msM  
所有音轨精确校准抓取 O $'# 8  
Q&@Ls?pu  
状态报告结尾
/17Qhex  
9Bvi2 3  
链接:http://pan.baidu.com/s/1bnXlRUv 密码: V zuW]"  
此帖售价 7 金钱,已有 14 人购买 [记录] [购买]
购买后,将显示帖子中所有出售内容。
若发现会员采用欺骗的方法获取财富,请立刻举报,我们会对会员处以2-N倍的罚金,严重者封掉ID!
此段为出售的内容,购买后显示
离线耶稣

发帖
7203
金钱
277425
威望
2521
贡献值
1672
交易币
11342
只看该作者 1楼 发表于: 2016-02-13
那就 听听看。



离线Moses

发帖
5062
金钱
37320
威望
2951
贡献值
1521
交易币
2748
只看该作者 2楼 发表于: 2016-02-13
精典单曲 澳洲版总是比日版的曲目还多些
http://blog.sina.com.cn/mjjcfc
离线刘123伟

发帖
721
金钱
14732
威望
56
贡献值
15
交易币
782
只看该作者 3楼 发表于: 2016-02-13
感谢分享!
离线michael0829

发帖
957
金钱
10414
威望
90
贡献值
70
交易币
1206
只看该作者 4楼 发表于: 2016-02-13
终于等到你发的资源了,赞啊!最喜欢的了!
I Love You Michael Jackson Forever!
I Just Can't Stop Loving You Michel!
离线魏聪

发帖
168
金钱
2713
威望
41
贡献值
21
交易币
103
只看该作者 5楼 发表于: 2016-02-13
我觉得有些重混混得没感觉了
离线自作主张

发帖
363
金钱
5496
威望
107
贡献值
46
交易币
468
只看该作者 6楼 发表于: 2016-02-13
求thriller25日版
离线小李

发帖
240
金钱
1125
威望
9
贡献值
8
交易币
212
只看该作者 7楼 发表于: 2016-02-14
谢谢,非常感谢,你发布的资源非常罕见.歌迷中的佼佼者
离线lifan_npl

发帖
2213
金钱
31997
威望
853
贡献值
430
交易币
2594
只看该作者 8楼 发表于: 2016-02-14
下载看看 谢谢分享
我的淘宝店:
http://shop63152617.taobao.com  
离线肯尼

发帖
959
金钱
6465
威望
442
贡献值
239
交易币
1468
只看该作者 9楼 发表于: 2016-02-15
感谢分享!
Remixed & Designed by Kenny Saxton ©
快速回复
限100 字节
 
上一个 下一个