论坛风格切换切换到宽版
  • 1729阅读
  • 16回复

[亲传][Single] 1995 You Are Not Alone (AU - EPC 662285 2) - WAV整轨 ♬by幽灵 [复制链接]

上一主题 下一主题
离线mjghosts
 

发帖
8256
金钱
219309
威望
9187
贡献值
2734
交易币
4791
只看楼主 倒序阅读 楼主  发表于: 2016-02-13
— 本帖被 mjghosts 执行加亮操作(2016-02-13) —
*1995年澳大利亚版单曲CD1,收录6首歌曲,可听度颇高。推荐!这次同样是完美精确校准抓取的WAV整轨。* `]aeI'[}R  
<UCl@5g&  
注:独家整理,转载请注明出处!EAC无损整轨(压缩包内含CD图片) hbn([+xY  
I-)4YQI  
解压密码:www.mjsunny.com
dRMx[7jVA  
6LhTBV  
lhJ'bYI  
FI.\%x  
=~gvZV-<  
4M T 7`sr  
Exact Audio Copy V1.0 beta 6 from 9. April 2015 <3 uNl  
05R@7[GWq  
EAC 抓取日志文件从30. 一月 2016, 2:11 wuBPfb  
#9s,# }  
Michael Jackson / You Are Not Alone {`_i`  
76SXJ9@x  
使用驱动器  :MATSHITADVD-RAM UJ890AS   Adapter: 1  ID: 1 n"8Yv~v*2j  
Ul# r  
读取模式      : 可靠Secure gDzK{6Z}  
使用精确流     : 是 Fzcwy V   
清空音频缓存    : 否 }B^tL$k  
使用 C2 指示器 : 是 ykJ>*z  
]###w;  
读取偏移校正:               : 102 BLFdHB.$T  
读取 Lead-In 和 Lead-Out : 否 l"]V6!-U  
用静音填充抓取中丢失偏移的采样       : 是 MfkZ  
去除首尾静音块               : 否 r|Z{-*`  
在CRC 计算中使用了空样本       : 是 afk>+4q  
已用接口                  : Win NT 及 2000 本地 Win32 接口 <naz+QK'  
(% 9$!v{3  
所用输出模式: : 内部 WAV 函数 kcEeFG;DQ  
样本格式    : 44.100 Hz; 16 Bit; 立体声 2zpr~cB=  
qP;OaM CX  
z%kULTL  
已抓取 CD 的 TOC ?ubro0F:  
=c7;r]Ol  
     音轨 |    起始    |    长度    |  起始扇区  |  结束扇区   B<-Wea  
    -------------------------------------------- `X8F`5&U\f  
      1 |  0:00.00 |  4:36.32 |      0 |  20731 %)n=x ne  
      2 |  4:36.32 |  7:41.13 |  20732 |  55319 4+ig' |o  
      3 | 12:17.45 |  6:57.12 |  55320 |  86606 ?Ob3tUz2  
      4 | 19:14.57 |  6:27.55 |  86607 | 115686 ]f3>-)$*  
      5 | 25:42.37 |  5:32.03 | 115687 | 140589 ;d?R:Uw8  
      6 | 31:14.40 |  7:43.30 | 140590 | 175344 OJxl<Q=z  
f 1d?.)  
4I7>f]=)  
范围状态及错误 y)*RV;^  
8_F1AU? u  
已选择范围 Z ]ONh  
0`hdMLONR  
     文件名 J:\12 Music*音乐\CDImage.wav U6VKMxSJ  
UI#h&j5pW  
     峰值电平 100.0 % _Y!IEAU/#  
     抓取速度 5.8 X ix$bRdl  
     范围质量 100.0 % Z}QB.$&  
     复制 CRC 1A04452E |^aKs#va  
     复制成功 /o[w4d8  
8_8l.!~  
没有错误发生 m2o0y++TjW  
}*-@!wc-N  
*or(1DXP8  
AccurateRip 摘要 +0~YP*I`/  
r,udO,Yi=c  
音轨  1  精确地校准抓取  5)  [FB9D7AF2]  (AR v2) s CRdtP  
音轨  2  精确地校准抓取  5)  [1EF5F3EF]  (AR v2) q@qsp&0/  
音轨  3  精确地校准抓取  5)  [69533F11]  (AR v2) g ?k=^C  
音轨  4  精确地校准抓取  5)  [EDEE4546]  (AR v2) <!+Az,-  
音轨  5  精确地校准抓取  5)  [765D93B1]  (AR v2) liZxBs :%i  
音轨  6  精确地校准抓取  5)  [E30CFC18]  (AR v2) H.c7Nle  
Q@niNDaW2  
所有音轨精确校准抓取 KP"+e:a%  
G3 m Z($y  
状态报告结尾
nEfK53i_  
U(Zq= M  
链接:http://pan.baidu.com/s/1bnXlRUv 密码: ZoeD:xnh[  
此帖售价 7 金钱,已有 14 人购买 [记录] [购买]
购买后,将显示帖子中所有出售内容。
若发现会员采用欺骗的方法获取财富,请立刻举报,我们会对会员处以2-N倍的罚金,严重者封掉ID!
此段为出售的内容,购买后显示
离线耶稣

发帖
7193
金钱
276356
威望
2517
贡献值
1670
交易币
11324
只看该作者 1楼 发表于: 2016-02-13
那就 听听看。



离线Moses

发帖
5062
金钱
37320
威望
2951
贡献值
1521
交易币
2748
只看该作者 2楼 发表于: 2016-02-13
精典单曲 澳洲版总是比日版的曲目还多些
http://blog.sina.com.cn/mjjcfc
离线刘123伟

发帖
711
金钱
14454
威望
55
贡献值
14
交易币
768
只看该作者 3楼 发表于: 2016-02-13
感谢分享!
离线michael0829

发帖
955
金钱
10069
威望
90
贡献值
70
交易币
1204
只看该作者 4楼 发表于: 2016-02-13
终于等到你发的资源了,赞啊!最喜欢的了!
I Love You Michael Jackson Forever!
I Just Can't Stop Loving You Michel!
离线魏聪

发帖
168
金钱
2713
威望
41
贡献值
21
交易币
103
只看该作者 5楼 发表于: 2016-02-13
我觉得有些重混混得没感觉了
离线自作主张

发帖
363
金钱
5367
威望
107
贡献值
46
交易币
468
只看该作者 6楼 发表于: 2016-02-13
求thriller25日版
离线小李

发帖
240
金钱
1125
威望
9
贡献值
8
交易币
212
只看该作者 7楼 发表于: 2016-02-14
谢谢,非常感谢,你发布的资源非常罕见.歌迷中的佼佼者
离线lifan_npl

发帖
2212
金钱
31692
威望
853
贡献值
430
交易币
2593
只看该作者 8楼 发表于: 2016-02-14
下载看看 谢谢分享
我的淘宝店:
http://shop63152617.taobao.com  
离线肯尼

发帖
959
金钱
6465
威望
442
贡献值
239
交易币
1468
只看该作者 9楼 发表于: 2016-02-15
感谢分享!
Remixed & Designed by Kenny Saxton ©
快速回复
限100 字节
 
上一个 下一个