论坛风格切换切换到宽版
  • 1541阅读
  • 15回复

[亲传][Single] 1995 You Are Not Alone (AU - EPC 662285 2) - WAV整轨 ♬by幽灵 [复制链接]

上一主题 下一主题
离线mjghosts
 

发帖
8244
金钱
217720
威望
9174
贡献值
2723
交易币
4755
只看楼主 倒序阅读 楼主  发表于: 2016-02-13
— 本帖被 mjghosts 执行加亮操作(2016-02-13) —
*1995年澳大利亚版单曲CD1,收录6首歌曲,可听度颇高。推荐!这次同样是完美精确校准抓取的WAV整轨。* =M1a0i|d  
'<?v:pb9  
注:独家整理,转载请注明出处!EAC无损整轨(压缩包内含CD图片) +p9LE4g7Q  
o%V @D'w  
解压密码:www.mjsunny.com
9?u9wuH  
.)i O Du  
$i,6B9  
n9]IBIthe  
B;xZ% M]  
cJxW;WI!,  
Exact Audio Copy V1.0 beta 6 from 9. April 2015 hMNJ'i}  
_^_5K(Uq  
EAC 抓取日志文件从30. 一月 2016, 2:11 4cott^K.  
t:\l&R&  
Michael Jackson / You Are Not Alone Dt W*n1Bt  
ERF,tLa!  
使用驱动器  :MATSHITADVD-RAM UJ890AS   Adapter: 1  ID: 1 RoX &+~  
bMsECA&  
读取模式      : 可靠Secure Dv@ PAnk3C  
使用精确流     : 是 {=3B)+N  
清空音频缓存    : 否 J_PH7Z*=,  
使用 C2 指示器 : 是 P[FV2R~  
vG~+r<:  
读取偏移校正:               : 102 Wwhgo.Wx  
读取 Lead-In 和 Lead-Out : 否 F;P5D<  
用静音填充抓取中丢失偏移的采样       : 是 h=6xZuA\  
去除首尾静音块               : 否 B`{mdjMy  
在CRC 计算中使用了空样本       : 是 PNpu*# Z`  
已用接口                  : Win NT 及 2000 本地 Win32 接口 |9IC/C!HC  
jXp. qK\"  
所用输出模式: : 内部 WAV 函数 YJ,*(A18  
样本格式    : 44.100 Hz; 16 Bit; 立体声 BvK QlT  
Wp[9beI*M  
qTM%G-  
已抓取 CD 的 TOC uel{`T[S  
dv!r.  
     音轨 |    起始    |    长度    |  起始扇区  |  结束扇区   U~H?4Izl=  
    -------------------------------------------- #xT!E:W '  
      1 |  0:00.00 |  4:36.32 |      0 |  20731 |=K_F3aJ  
      2 |  4:36.32 |  7:41.13 |  20732 |  55319 ~h)&&' a  
      3 | 12:17.45 |  6:57.12 |  55320 |  86606 `u XQ z7  
      4 | 19:14.57 |  6:27.55 |  86607 | 115686 (sTuG}  
      5 | 25:42.37 |  5:32.03 | 115687 | 140589 GP a`e  
      6 | 31:14.40 |  7:43.30 | 140590 | 175344 )rtomp:X  
-e]7n*}H$  
j/!H$0PN  
范围状态及错误 ~nY]o"8D  
h6D^G5i  
已选择范围 ,,4 GNbBC  
jp2Q 9Z  
     文件名 J:\12 Music*音乐\CDImage.wav OF U/gaO~  
??&<k   
     峰值电平 100.0 % b;cMl'  
     抓取速度 5.8 X 4=8QZf0\  
     范围质量 100.0 % ?Bi*1V<R  
     复制 CRC 1A04452E C#0Qd%  
     复制成功 ]e?x# <S  
>o,^b\  
没有错误发生 lCd@jB{  
Hy:V`>  
K6JVg$  
AccurateRip 摘要 -7H^n#]  
]va>ex$d  
音轨  1  精确地校准抓取  5)  [FB9D7AF2]  (AR v2) \2-@'^i  
音轨  2  精确地校准抓取  5)  [1EF5F3EF]  (AR v2) sb_oD{+gW  
音轨  3  精确地校准抓取  5)  [69533F11]  (AR v2) @Hb'8F  
音轨  4  精确地校准抓取  5)  [EDEE4546]  (AR v2) 4BYE1fUzd  
音轨  5  精确地校准抓取  5)  [765D93B1]  (AR v2) mbRq JT>@  
音轨  6  精确地校准抓取  5)  [E30CFC18]  (AR v2) sxKf&p;  
0kQPJWF  
所有音轨精确校准抓取 k#Of]mXXz  
V-I(WzR9y  
状态报告结尾
 XY.5Rno4  
W6T|iZoV"r  
链接:http://pan.baidu.com/s/1bnXlRUv 密码: n,HE0Zn]Y_  
此帖售价 7 金钱,已有 13 人购买 [记录] [购买]
购买后,将显示帖子中所有出售内容。
若发现会员采用欺骗的方法获取财富,请立刻举报,我们会对会员处以2-N倍的罚金,严重者封掉ID!
此段为出售的内容,购买后显示
离线耶稣

发帖
7147
金钱
272109
威望
2491
贡献值
1655
交易币
11218
只看该作者 1楼 发表于: 2016-02-13
那就 听听看。




离线Moses

发帖
5060
金钱
37310
威望
2951
贡献值
1521
交易币
2746
只看该作者 2楼 发表于: 2016-02-13
精典单曲 澳洲版总是比日版的曲目还多些
http://blog.sina.com.cn/mjjcfc
离线刘123伟

发帖
686
金钱
486
威望
54
贡献值
14
交易币
743
只看该作者 3楼 发表于: 2016-02-13
感谢分享!
离线michael0829

发帖
955
金钱
9574
威望
90
贡献值
70
交易币
1204
只看该作者 4楼 发表于: 2016-02-13
终于等到你发的资源了,赞啊!最喜欢的了!
I Love You Michael Jackson Forever!
I Just Can't Stop Loving You Michel!
离线魏聪

发帖
168
金钱
2713
威望
41
贡献值
21
交易币
103
只看该作者 5楼 发表于: 2016-02-13
我觉得有些重混混得没感觉了
离线自作主张

发帖
346
金钱
3101
威望
80
贡献值
43
交易币
443
只看该作者 6楼 发表于: 2016-02-13
求thriller25日版
离线小李

发帖
236
金钱
1405
威望
9
贡献值
8
交易币
208
只看该作者 7楼 发表于: 2016-02-14
谢谢,非常感谢,你发布的资源非常罕见.歌迷中的佼佼者
在线lifan_npl

发帖
2189
金钱
19354
威望
816
贡献值
395
交易币
2550
只看该作者 8楼 发表于: 2016-02-14
下载看看 谢谢分享
我的淘宝:
http://shop63152617.taobao.com  
离线肯尼

发帖
955
金钱
7435
威望
431
贡献值
228
交易币
1440
只看该作者 9楼 发表于: 2016-02-15
感谢分享!
顺势待发张元穹 Kenny Saxton @肯尼 & 齐奕同Michael Qi @迈颤我栗
2014年6月25日 合辑 火热制作中
2014 MJFantastics Music International Ltd.
快速回复
限100 字节
 
上一个 下一个