论坛风格切换切换到宽版
  • 1612阅读
  • 15回复

[亲传][Single] 1995 You Are Not Alone (AU - EPC 662285 2) - WAV整轨 ♬by幽灵 [复制链接]

上一主题 下一主题
离线mjghosts
 

发帖
8251
金钱
218601
威望
9176
贡献值
2723
交易币
4762
只看楼主 倒序阅读 楼主  发表于: 2016-02-13
— 本帖被 mjghosts 执行加亮操作(2016-02-13) —
*1995年澳大利亚版单曲CD1,收录6首歌曲,可听度颇高。推荐!这次同样是完美精确校准抓取的WAV整轨。* psRm*,*O  
ThWZ>hyJ  
注:独家整理,转载请注明出处!EAC无损整轨(压缩包内含CD图片) !::k\}DS  
2!68W X  
解压密码:www.mjsunny.com
4)Pt]#Ti  
3{MIBMA  
9U}EVpD  
$<s@S;Ri  
k})9(Sy~  
#i2q}/w5`C  
Exact Audio Copy V1.0 beta 6 from 9. April 2015 `SW`d<+L  
*c3 o&-ke9  
EAC 抓取日志文件从30. 一月 2016, 2:11 r1?LKoJOn  
WLh_b)V|  
Michael Jackson / You Are Not Alone T@vVff  
I" j7  
使用驱动器  :MATSHITADVD-RAM UJ890AS   Adapter: 1  ID: 1 0?`#ko7~d  
f Fz8m  
读取模式      : 可靠Secure rpXw 8  
使用精确流     : 是 VI+Y4T@  
清空音频缓存    : 否 #UI`G3w<  
使用 C2 指示器 : 是 6/n;u{|  
AP~!YwLW  
读取偏移校正:               : 102 JH5])i0  
读取 Lead-In 和 Lead-Out : 否 DxD0iJ=W  
用静音填充抓取中丢失偏移的采样       : 是 Umd!j,  
去除首尾静音块               : 否 hPH7(f|c{g  
在CRC 计算中使用了空样本       : 是 %2+]3h>g  
已用接口                  : Win NT 及 2000 本地 Win32 接口 FSB$D)4z>b  
loB/w{r*x  
所用输出模式: : 内部 WAV 函数 !< )_ F  
样本格式    : 44.100 Hz; 16 Bit; 立体声 w\ :b(I  
+NY4j-O  
{|%O)fr,  
已抓取 CD 的 TOC ?Sqm`)\>4  
8iNAs#s  
     音轨 |    起始    |    长度    |  起始扇区  |  结束扇区   (`u!/  
    -------------------------------------------- A]9JbNV  
      1 |  0:00.00 |  4:36.32 |      0 |  20731 a AM UJk  
      2 |  4:36.32 |  7:41.13 |  20732 |  55319 obq}#  
      3 | 12:17.45 |  6:57.12 |  55320 |  86606 `1@[uWl  
      4 | 19:14.57 |  6:27.55 |  86607 | 115686 %b;+/s2W  
      5 | 25:42.37 |  5:32.03 | 115687 | 140589 c!Vc_@V,  
      6 | 31:14.40 |  7:43.30 | 140590 | 175344 HW72 6K*  
>` QX xTn  
>;v0zE  
范围状态及错误 RCYbRR4y  
i%PHYSJ.  
已选择范围 ]wpYxos  
NoZ4['NI\  
     文件名 J:\12 Music*音乐\CDImage.wav 1r& ?J.z25  
b[o"Uq@8?  
     峰值电平 100.0 % ":#x\;  
     抓取速度 5.8 X u$,Wyi )L  
     范围质量 100.0 % :'rZZeb'  
     复制 CRC 1A04452E :G=1$gb  
     复制成功 9g5{3N3  
P}WhE  
没有错误发生 &T/q0bwd  
RQ)!KlY  
y7IbE   
AccurateRip 摘要 [F V=@NI  
+ yP[(b/  
音轨  1  精确地校准抓取  5)  [FB9D7AF2]  (AR v2) 'oHOFH9:{b  
音轨  2  精确地校准抓取  5)  [1EF5F3EF]  (AR v2) )3`  
音轨  3  精确地校准抓取  5)  [69533F11]  (AR v2) >gZk 581/  
音轨  4  精确地校准抓取  5)  [EDEE4546]  (AR v2) NtA|#"^  
音轨  5  精确地校准抓取  5)  [765D93B1]  (AR v2) %L\{kUam  
音轨  6  精确地校准抓取  5)  [E30CFC18]  (AR v2) ({H+ y 9n  
5nxS+`Pn.)  
所有音轨精确校准抓取 S `m- 5  
rMXOwkE  
状态报告结尾
X4P}aC  
5;K-,"UQ  
链接:http://pan.baidu.com/s/1bnXlRUv 密码: AK~`pq[.  
此帖售价 7 金钱,已有 13 人购买 [记录] [购买]
购买后,将显示帖子中所有出售内容。
若发现会员采用欺骗的方法获取财富,请立刻举报,我们会对会员处以2-N倍的罚金,严重者封掉ID!
此段为出售的内容,购买后显示
离线耶稣

发帖
7158
金钱
273560
威望
2493
贡献值
1657
交易币
11237
只看该作者 1楼 发表于: 2016-02-13
那就 听听看。




离线Moses

发帖
5062
金钱
37320
威望
2951
贡献值
1521
交易币
2748
只看该作者 2楼 发表于: 2016-02-13
精典单曲 澳洲版总是比日版的曲目还多些
http://blog.sina.com.cn/mjjcfc
离线刘123伟

发帖
697
金钱
1160
威望
54
贡献值
14
交易币
754
只看该作者 3楼 发表于: 2016-02-13
感谢分享!
离线michael0829

发帖
955
金钱
9809
威望
90
贡献值
70
交易币
1204
只看该作者 4楼 发表于: 2016-02-13
终于等到你发的资源了,赞啊!最喜欢的了!
I Love You Michael Jackson Forever!
I Just Can't Stop Loving You Michel!
离线魏聪

发帖
168
金钱
2713
威望
41
贡献值
21
交易币
103
只看该作者 5楼 发表于: 2016-02-13
我觉得有些重混混得没感觉了
离线自作主张

发帖
348
金钱
3202
威望
80
贡献值
43
交易币
445
只看该作者 6楼 发表于: 2016-02-13
求thriller25日版
离线小李

发帖
238
金钱
1115
威望
9
贡献值
8
交易币
210
只看该作者 7楼 发表于: 2016-02-14
谢谢,非常感谢,你发布的资源非常罕见.歌迷中的佼佼者
离线lifan_npl

发帖
2196
金钱
31917
威望
851
贡献值
428
交易币
2569
只看该作者 8楼 发表于: 2016-02-14
下载看看 谢谢分享
我的淘宝:
http://shop63152617.taobao.com  
离线肯尼

发帖
955
金钱
6312
威望
431
贡献值
228
交易币
1440
只看该作者 9楼 发表于: 2016-02-15
感谢分享!
顺势待发张元穹 Kenny Saxton @肯尼 & 齐奕同Michael Qi @迈颤我栗
2014年6月25日 合辑 火热制作中
2014 MJFantastics Music International Ltd.
快速回复
限100 字节
 
上一个 下一个