论坛风格切换切换到宽版
  • 1787阅读
  • 22回复

[亲传][Comp] 1989 The Bad Mixes (US Promo - ESK 1215) - WAV整轨 ♬by幽灵 [复制链接]

上一主题 下一主题
离线mjghosts
 

发帖
8244
金钱
217720
威望
9174
贡献值
2723
交易币
4755
只看楼主 倒序阅读 楼主  发表于: 2016-02-25
— 本帖被 mjghosts 执行加亮操作(2016-02-25) —
*1989年13曲宣传碟,限量6000张,13首都是上乘之作,每一张都有独立编号。此碟绝大部分在出厂时便把封面对折以露出“魔声”广告、并在CD上贴上了“魔声线材”的贴标。(相比1988年发行的9曲版多收录四首“Smooth Criminal”的混音版,因此个人认为9曲版先行于《Smooth Criminal》美宣。)* &>B>+}'  
.vF< 3p|  
注:独家整理,转载请注明出处!EAC无损整轨(压缩包内含CD图片) s-S"\zX\D  
lXy@Cf  
解压密码:www.mjsunny.com
QHz76i!=>  
T0)y5  
Tracklist }H^^v[4  
1 Another Part Of Me (7" Version) 3:47 f TtMmz  
2 Another Part Of Me (Extended Dance Mix) 6:11 &y+*3,!n8  
3 Dirty Diana 4:42 R7b*(33  
4 Man In The Mirror 4:55 He23<hd!  
5 The Way You Make Me Feel (7" Version) 4:26 # =3]bg  
6 The Way You Make Me Feel (Dance Extended Mix) 7:53 N^at{I6C  
7 Bad (7" Version) 4:05 :UciFIa  
8 Bad (Dance Extended Mix) 8:24 !d_A?q'hN  
9 I Just Can't Stop Loving You (7" Version) 4:10 2F{IDcJI\  
10 Smooth Criminal (7" Version) 4:10 'M/&bu r  
11 Smooth Criminal (Annie Mix) 5:35 Dh<e9s:  
12 Smooth Criminal (Dance Mix Dub Version) 4:45 (1vS)v $L  
13 Smooth Criminal (A Cappella Mix) 4:12
" Xc=<rX  
 v<W++X7z  
^lj>v}4fkW  
f0+  
3E-&8x7uYR  
%3wK.tR  
Exact Audio Copy V1.0 beta 6 from 9. April 2015 ~MF. M8  
F2=97 =R  
EAC 抓取日志文件从19. 二月 2016, 20:43 t)h3GM  
lx SGvvP4  
Micheal Jackson / The Bad Mixes u}$3.]-.?T  
CAfG3;  
使用驱动器  :MATSHITADVD-RAM UJ890AS   Adapter: 1  ID: 1 ,b{4GU$3  
JXrMtSp\  
读取模式      : 可靠Secure occ}|u  
使用精确流     : 是 = >9`qcNW_  
清空音频缓存    : 否 U:H*b{`TU  
使用 C2 指示器 : 是 F{v+z8nW  
R"jX9~3Ln  
读取偏移校正:               : 102 wNn6".S   
读取 Lead-In 和 Lead-Out : 否 xGjEEBL  
用静音填充抓取中丢失偏移的采样       : 是 =73wngw  
去除首尾静音块               : 否 {=TD^>?  
在CRC 计算中使用了空样本       : 是 Jf 2  
已用接口                  : Win NT 及 2000 本地 Win32 接口 h/d&P  
ds`a6>746  
所用输出模式: : 内部 WAV 函数 ~Os~pTo  
样本格式    : 44.100 Hz; 16 Bit; 立体声 7tJPjp4l  
|iJ37QIM  
/_v@YB!0  
已抓取 CD 的 TOC '~2;WF0h  
sJ,:[  
     音轨 |    起始    |    长度    |  起始扇区  |  结束扇区   pno]B ld'z  
    -------------------------------------------- GHfsq|*j,Z  
      1 |  0:00.00 |  3:48.72 |      0 |  17171 zrri&QDF<  
      2 |  3:48.72 |  6:21.03 |  17172 |  45749 X0O@,  
      3 | 10:10.00 |  4:44.07 |  45750 |  67056 t[|^[%i  
      4 | 14:54.07 |  5:06.20 |  67057 |  90026 k%Jv%m}aB  
      5 | 20:00.27 |  4:25.73 |  90027 | 109974 D<78Tm x  
      6 | 24:26.25 |  7:54.25 | 109975 | 145549 zo4 IY`3  
      7 | 32:20.50 |  4:08.17 | 145550 | 164166 `KgIr,Q)  
      8 | 36:28.67 |  8:25.68 | 164167 | 202109 hE@s~ ~JYd  
      9 | 44:54.60 |  4:14.40 | 202110 | 221199 b=(?\  
     10 | 49:09.25 |  4:13.52 | 221200 | 240226 os 9X)G  
     11 | 53:23.02 |  5:38.40 | 240227 | 265616 (r78AZ  
     12 | 59:01.42 |  4:47.58 | 265617 | 287199 $ReoIU^<  
     13 | 63:49.25 |  4:12.57 | 287200 | 306156 csABfxib  
`_M*2(rt  
N{rC#A3  
范围状态及错误 R{N9'2l:  
SY&)?~C  
已选择范围 iPoh2  
GBMCw  
     文件名 J:\12 Music*音乐\CDImage.wav 3"9'MDKH  
wlvhDJ  
     峰值电平 100.0 % 7=V s1TVc  
     抓取速度 6.9 X 4^|;a0Qy]  
     范围质量 100.0 % U2~7qC,!Do  
     复制 CRC F84ACFC3 qhNY<  
     复制成功 XnBpL6"T`  
y:\ ^[y IQ  
没有错误发生 OB-2xmZW  
EqY e.dF,  
BPFd'- O)  
AccurateRip 摘要 ( Lp~:p  
+Xa^3 =B  
音轨  1  精确地校准抓取  7)  [ED085785]  (AR v2) <4caG2~q  
音轨  2  精确地校准抓取  7)  [8EDBEC9D]  (AR v2) F4=+xd >0  
音轨  3  精确地校准抓取  8)  [AF8FACB6]  (AR v2) hWzjn5w3  
音轨  4  精确地校准抓取  8)  [EA8536AA]  (AR v2) dr25;L? B  
音轨  5  精确地校准抓取  8)  [1AC6C6A2]  (AR v2) +3@d]JfMh  
音轨  6  精确地校准抓取  8)  [3511D841]  (AR v2) $~#N1   
音轨  7  精确地校准抓取  8)  [41409527]  (AR v2) )X8?m <cG  
音轨  8  精确地校准抓取  7)  [9A28A5F4]  (AR v2) mp^;8??;  
音轨  9  精确地校准抓取  8)  [42608382]  (AR v2) R.(cGZS  
音轨 10  精确地校准抓取  8)  [48653900]  (AR v2) e ]@Ex  
音轨 11  精确地校准抓取  7)  [E6B7C3CF]  (AR v2) 1P"akc  
音轨 12  精确地校准抓取  8)  [D1A35643]  (AR v2) a@1 r3az  
音轨 13  精确地校准抓取  8)  [9A20635D]  (AR v2) Ol;}+?[Q  
.Yl*kG6r  
所有音轨精确校准抓取 %h "+J  
&hK5WP6whW  
状态报告结尾
<K8$00lm  
rUunf'w`e1  
链接:http://pan.baidu.com/s/1mgOly8g 密码: C*e) UPK`  
此帖售价 16 金钱,已有 21 人购买 [记录] [购买]
购买后,将显示帖子中所有出售内容。
若发现会员采用欺骗的方法获取财富,请立刻举报,我们会对会员处以2-N倍的罚金,严重者封掉ID!
此段为出售的内容,购买后显示
2条评分金钱+20威望+5
christinacc 威望 +5 - 2016-02-25
christinacc 金钱 +20 - 2016-02-25
离线lifan_npl

发帖
2189
金钱
19354
威望
816
贡献值
395
交易币
2550
只看该作者 1楼 发表于: 2016-02-25
这个碟你也买了?
我的淘宝:
http://shop63152617.taobao.com  
离线小李

发帖
236
金钱
1405
威望
9
贡献值
8
交易币
208
只看该作者 2楼 发表于: 2016-02-25
听听你抓轨的这个,哈哈.
离线刘123伟

发帖
686
金钱
486
威望
54
贡献值
14
交易币
743
只看该作者 3楼 发表于: 2016-02-25
WOW!MAX CD ,感谢抓轨分享。
离线李伟伟

发帖
195
金钱
1849
威望
20
贡献值
13
交易币
248
只看该作者 4楼 发表于: 2016-02-25
谢谢分享
离线mich008

发帖
832
金钱
5931
威望
24
贡献值
15
交易币
894
只看该作者 5楼 发表于: 2016-02-25
这个算是惊喜了 谢谢分享
离线mjlove98

发帖
2559
金钱
5237
威望
197
贡献值
123
交易币
2637
只看该作者 6楼 发表于: 2016-02-26
好资源,支持楼主
离线自作主张

发帖
346
金钱
3101
威望
80
贡献值
43
交易币
443
只看该作者 7楼 发表于: 2016-02-26
惊喜!!!!!!!!!!
离线jailim9300

发帖
299
金钱
1
威望
15
贡献值
12
交易币
348
只看该作者 8楼 发表于: 2016-02-26
感谢楼主
离线魏聪

发帖
168
金钱
2713
威望
41
贡献值
21
交易币
103
只看该作者 9楼 发表于: 2016-02-27
看介绍好像叼炸天了
快速回复
限100 字节
 
上一个 下一个