论坛风格切换切换到宽版
  • 1211阅读
  • 21回复

[亲传][Comp] 1989 The Bad Mixes (US Promo - ESK 1215) - WAV整轨 ♬by幽灵 [复制链接]

上一主题 下一主题
离线mjghosts
 

发帖
8258
金钱
212473
威望
9166
贡献值
2715
交易币
4709
只看楼主 倒序阅读 楼主  发表于: 2016-02-25
— 本帖被 mjghosts 执行加亮操作(2016-02-25) —
*1989年13曲宣传碟,限量6000张,13首都是上乘之作,每一张都有独立编号。此碟绝大部分在出厂时便把封面对折以露出“魔声”广告、并在CD上贴上了“魔声线材”的贴标。(相比1988年发行的9曲版多收录四首“Smooth Criminal”的混音版,因此个人认为9曲版先行于《Smooth Criminal》美宣。)* kn>qX{W  
wAi7jCY%OY  
注:独家整理,转载请注明出处!EAC无损整轨(压缩包内含CD图片) w ]T_%mdk  
b&h'>(  
解压密码:www.mjsunny.com
MNe/H\  
Fng  
Tracklist 0~$9z+S  
1 Another Part Of Me (7" Version) 3:47 [vb#W!M&|  
2 Another Part Of Me (Extended Dance Mix) 6:11 ^hZ0"c  
3 Dirty Diana 4:42 F)eP55C6  
4 Man In The Mirror 4:55 FYC]^D  
5 The Way You Make Me Feel (7" Version) 4:26 P;gd!Yl<-  
6 The Way You Make Me Feel (Dance Extended Mix) 7:53 G){+.X4g3  
7 Bad (7" Version) 4:05 @0H0!9'  
8 Bad (Dance Extended Mix) 8:24 PW"?* ~&  
9 I Just Can't Stop Loving You (7" Version) 4:10 vYLspZ;S  
10 Smooth Criminal (7" Version) 4:10 @*6_Rp"@  
11 Smooth Criminal (Annie Mix) 5:35 c-.F {~  
12 Smooth Criminal (Dance Mix Dub Version) 4:45 ^l ;Bo3^_  
13 Smooth Criminal (A Cappella Mix) 4:12
Z!'k N\z  
'f %oL/,  
Q3t%JP>;g  
\ sz](X  
&s\,+d0  
G%%F6)W  
Exact Audio Copy V1.0 beta 6 from 9. April 2015 <&t[E0mU  
JQ\o[t  
EAC 抓取日志文件从19. 二月 2016, 20:43 @d[)i,d:G  
mgEZiAV?  
Micheal Jackson / The Bad Mixes B|BJkY'  
RYX=;n  
使用驱动器  :MATSHITADVD-RAM UJ890AS   Adapter: 1  ID: 1 %|?PG i@5  
/ =:X,^"P  
读取模式      : 可靠Secure <UO'&?G  
使用精确流     : 是 sBu- \P#  
清空音频缓存    : 否 62%=%XD  
使用 C2 指示器 : 是 Ycve[31BDd  
&7t3D?K'qX  
读取偏移校正:               : 102 w#M66=je_  
读取 Lead-In 和 Lead-Out : 否 xA>O4S D  
用静音填充抓取中丢失偏移的采样       : 是 c31k%/.  
去除首尾静音块               : 否 MxO0#  
在CRC 计算中使用了空样本       : 是 G 'sEbw'[  
已用接口                  : Win NT 及 2000 本地 Win32 接口 MwN.Ll  
&cEQ6('H  
所用输出模式: : 内部 WAV 函数 CXr]V"X9  
样本格式    : 44.100 Hz; 16 Bit; 立体声 ',o ,o%n  
^x8yW brE  
b42"Y,sbB  
已抓取 CD 的 TOC bn b:4?d]  
=BN_Kvza^6  
     音轨 |    起始    |    长度    |  起始扇区  |  结束扇区   h/7m.p]  
    -------------------------------------------- .Du-~N4\  
      1 |  0:00.00 |  3:48.72 |      0 |  17171 tnv @`xBn  
      2 |  3:48.72 |  6:21.03 |  17172 |  45749 t u )kWDk  
      3 | 10:10.00 |  4:44.07 |  45750 |  67056 h[|c?\E z  
      4 | 14:54.07 |  5:06.20 |  67057 |  90026 eI%{/>  
      5 | 20:00.27 |  4:25.73 |  90027 | 109974 sop *?0  
      6 | 24:26.25 |  7:54.25 | 109975 | 145549 T d E.e(  
      7 | 32:20.50 |  4:08.17 | 145550 | 164166 N- !>\n  
      8 | 36:28.67 |  8:25.68 | 164167 | 202109 it Byw1/  
      9 | 44:54.60 |  4:14.40 | 202110 | 221199 +7<W.Zii  
     10 | 49:09.25 |  4:13.52 | 221200 | 240226 Ol%KXq[  
     11 | 53:23.02 |  5:38.40 | 240227 | 265616 >s 5i  
     12 | 59:01.42 |  4:47.58 | 265617 | 287199 /6K9? /  
     13 | 63:49.25 |  4:12.57 | 287200 | 306156 r |H 1Yy  
0bl?dOV{  
-~Ll;}nZC  
范围状态及错误 *n"{]tj^>  
-Lo3@:2i  
已选择范围 S S)9+0$  
_~QiQDq  
     文件名 J:\12 Music*音乐\CDImage.wav 4#^E$N:  
QC,LHt?6  
     峰值电平 100.0 % iaV%*  
     抓取速度 6.9 X X21k7 Ls  
     范围质量 100.0 % N 4!18{/2  
     复制 CRC F84ACFC3 pXhN?joe  
     复制成功  >7$h  
-T8'|"g  
没有错误发生 hU~up a<dD  
Oj F]K,$  
kZK1{  
AccurateRip 摘要 p6&6^v\  
<ht^Ck  
音轨  1  精确地校准抓取  7)  [ED085785]  (AR v2) ($X2SIZh  
音轨  2  精确地校准抓取  7)  [8EDBEC9D]  (AR v2) Fp(-&,L0fc  
音轨  3  精确地校准抓取  8)  [AF8FACB6]  (AR v2) G2s2i2& 6E  
音轨  4  精确地校准抓取  8)  [EA8536AA]  (AR v2) [+wLy3_  
音轨  5  精确地校准抓取  8)  [1AC6C6A2]  (AR v2) KP xf  
音轨  6  精确地校准抓取  8)  [3511D841]  (AR v2) wl0i3)e:  
音轨  7  精确地校准抓取  8)  [41409527]  (AR v2) e8U6D+jY  
音轨  8  精确地校准抓取  7)  [9A28A5F4]  (AR v2) av>Ff6w)Y  
音轨  9  精确地校准抓取  8)  [42608382]  (AR v2) 3Lm7{s?=Z-  
音轨 10  精确地校准抓取  8)  [48653900]  (AR v2) 1$nuh@-ys  
音轨 11  精确地校准抓取  7)  [E6B7C3CF]  (AR v2) 4p&YhV7j)o  
音轨 12  精确地校准抓取  8)  [D1A35643]  (AR v2) ,h },jkY4  
音轨 13  精确地校准抓取  8)  [9A20635D]  (AR v2) '=(@3ggA:  
-"x25~k!?F  
所有音轨精确校准抓取 i,mo0CSa  
c#T0n !}  
状态报告结尾
?#J;\^  
BF(Kaf;<t.  
链接:http://pan.baidu.com/s/1mgOly8g 密码: }EJ't io]  
此帖售价 16 金钱,已有 20 人购买 [记录] [购买]
购买后,将显示帖子中所有出售内容。
若发现会员采用欺骗的方法获取财富,请立刻举报,我们会对会员处以2-N倍的罚金,严重者封掉ID!
此段为出售的内容,购买后显示
2条评分金钱+20威望+5
christinacc 威望 +5 - 2016-02-25
christinacc 金钱 +20 - 2016-02-25
离线lifan_npl

发帖
2156
金钱
17106
威望
782
贡献值
347
交易币
2509
只看该作者 1楼 发表于: 2016-02-25
这个碟你也买了?
我的淘宝:
http://shop63152617.taobao.com  
离线小李

发帖
225
金钱
150
威望
99
贡献值
8
交易币
197
只看该作者 2楼 发表于: 2016-02-25
听听你抓轨的这个,哈哈.
离线刘123伟

发帖
654
金钱
474
威望
54
贡献值
14
交易币
711
只看该作者 3楼 发表于: 2016-02-25
WOW!MAX CD ,感谢抓轨分享。
离线李伟伟

发帖
193
金钱
1875
威望
20
贡献值
13
交易币
246
只看该作者 4楼 发表于: 2016-02-25
谢谢分享
离线mich008

发帖
811
金钱
5257
威望
24
贡献值
15
交易币
873
只看该作者 5楼 发表于: 2016-02-25
这个算是惊喜了 谢谢分享
离线mjlove98

发帖
2130
金钱
5008
威望
209
贡献值
62
交易币
1907
只看该作者 6楼 发表于: 2016-02-26
好资源,支持楼主
离线自作主张

发帖
340
金钱
3144
威望
80
贡献值
43
交易币
437
只看该作者 7楼 发表于: 2016-02-26
惊喜!!!!!!!!!!
离线jailim9300

发帖
288
金钱
14
威望
15
贡献值
12
交易币
337
只看该作者 8楼 发表于: 2016-02-26
感谢楼主
离线魏聪

发帖
168
金钱
2713
威望
41
贡献值
21
交易币
103
只看该作者 9楼 发表于: 2016-02-27
看介绍好像叼炸天了
快速回复
限100 字节
 
上一个 下一个