论坛风格切换切换到宽版
  • 1543阅读
  • 22回复

[亲传][Comp] 1989 The Bad Mixes (US Promo - ESK 1215) - WAV整轨 ♬by幽灵 [复制链接]

上一主题 下一主题
离线mjghosts
 

发帖
8240
金钱
216247
威望
9172
贡献值
2721
交易币
4743
只看楼主 倒序阅读 楼主  发表于: 2016-02-25
— 本帖被 mjghosts 执行加亮操作(2016-02-25) —
*1989年13曲宣传碟,限量6000张,13首都是上乘之作,每一张都有独立编号。此碟绝大部分在出厂时便把封面对折以露出“魔声”广告、并在CD上贴上了“魔声线材”的贴标。(相比1988年发行的9曲版多收录四首“Smooth Criminal”的混音版,因此个人认为9曲版先行于《Smooth Criminal》美宣。)* | Vtd !9  
1mLd_ ]F'F  
注:独家整理,转载请注明出处!EAC无损整轨(压缩包内含CD图片) SD"'  
V'XmMn)!  
解压密码:www.mjsunny.com
p97}HT}  
u7_IO  
Tracklist 6;02_C]\o  
1 Another Part Of Me (7" Version) 3:47 h&$7^P  
2 Another Part Of Me (Extended Dance Mix) 6:11 1@&i ju5  
3 Dirty Diana 4:42 OJ (ho&((  
4 Man In The Mirror 4:55 7oPLO(0L  
5 The Way You Make Me Feel (7" Version) 4:26 C #A sA  
6 The Way You Make Me Feel (Dance Extended Mix) 7:53 'y(;:Kc  
7 Bad (7" Version) 4:05 mVJW"*}8  
8 Bad (Dance Extended Mix) 8:24 k<aKT?Ek>  
9 I Just Can't Stop Loving You (7" Version) 4:10 V-#OiMWa~  
10 Smooth Criminal (7" Version) 4:10 zG\g{cB  
11 Smooth Criminal (Annie Mix) 5:35 .T*K4m{b0  
12 Smooth Criminal (Dance Mix Dub Version) 4:45 'S_kD! BO  
13 Smooth Criminal (A Cappella Mix) 4:12
>Oary  
I)wjTTM5  
Ix+===6  
s[ {L.9Y  
e-$ U .cx  
.'3&!#3  
Exact Audio Copy V1.0 beta 6 from 9. April 2015 Au+SCj  
zdDn. vG  
EAC 抓取日志文件从19. 二月 2016, 20:43 GCN(  
]X:{y&g(  
Micheal Jackson / The Bad Mixes ,|gX?[o  
X[L6Av  
使用驱动器  :MATSHITADVD-RAM UJ890AS   Adapter: 1  ID: 1 OiB*,TWV  
f_`gUMf  
读取模式      : 可靠Secure 7aH E:Dnwp  
使用精确流     : 是 __U;fH{c  
清空音频缓存    : 否 AXBv']Y  
使用 C2 指示器 : 是 5#~ARk*?a  
c5_?jKpl  
读取偏移校正:               : 102 \0%)eJ  
读取 Lead-In 和 Lead-Out : 否 %G9: M;|'  
用静音填充抓取中丢失偏移的采样       : 是 .pNPC|XU  
去除首尾静音块               : 否 HR'r~ #j  
在CRC 计算中使用了空样本       : 是 {r2-^Q HF  
已用接口                  : Win NT 及 2000 本地 Win32 接口 AL/`Pqlk  
Gy36{*  
所用输出模式: : 内部 WAV 函数 [V`j@dV  
样本格式    : 44.100 Hz; 16 Bit; 立体声 VNx|nP&  
ocwRU0+j  
70! &  
已抓取 CD 的 TOC | ]`gps  
=?UCtYN,P  
     音轨 |    起始    |    长度    |  起始扇区  |  结束扇区   P8.tl"q  
    -------------------------------------------- <by}/lF0  
      1 |  0:00.00 |  3:48.72 |      0 |  17171 ann!"s_  
      2 |  3:48.72 |  6:21.03 |  17172 |  45749 l|-1H76  
      3 | 10:10.00 |  4:44.07 |  45750 |  67056 =flgKRKk.r  
      4 | 14:54.07 |  5:06.20 |  67057 |  90026 fXMVl\ <  
      5 | 20:00.27 |  4:25.73 |  90027 | 109974 8 f%@:}H  
      6 | 24:26.25 |  7:54.25 | 109975 | 145549 /ee:GjUkB  
      7 | 32:20.50 |  4:08.17 | 145550 | 164166 oM-{)rvQd  
      8 | 36:28.67 |  8:25.68 | 164167 | 202109 $G5m/[KDI  
      9 | 44:54.60 |  4:14.40 | 202110 | 221199 'Z'X`_  
     10 | 49:09.25 |  4:13.52 | 221200 | 240226 I*@\pc}  
     11 | 53:23.02 |  5:38.40 | 240227 | 265616 o^4qY  
     12 | 59:01.42 |  4:47.58 | 265617 | 287199 5. :To2  
     13 | 63:49.25 |  4:12.57 | 287200 | 306156 M ! gX4  
xC`Hm?kM  
M ^ ZoBsZ  
范围状态及错误 R%aH{UhE`  
yt>Pf <AI  
已选择范围 !W^2?pqN  
XZcsx  
     文件名 J:\12 Music*音乐\CDImage.wav PZNo.0M70  
78+H|bH8  
     峰值电平 100.0 % #H O\I7m  
     抓取速度 6.9 X \q3H#1A  
     范围质量 100.0 % rctn0*MP  
     复制 CRC F84ACFC3 +D?d)lK  
     复制成功 ] |u}P2  
Lom%eoH)  
没有错误发生 eVU:.fx  
u:HKmP;  
=7e8N&-nv  
AccurateRip 摘要 X[@>1tl  
~%<PEl|  
音轨  1  精确地校准抓取  7)  [ED085785]  (AR v2) //J:p,AF  
音轨  2  精确地校准抓取  7)  [8EDBEC9D]  (AR v2) 8z/^Ql  
音轨  3  精确地校准抓取  8)  [AF8FACB6]  (AR v2) ]6:5<NW  
音轨  4  精确地校准抓取  8)  [EA8536AA]  (AR v2) ?5(L.XFm  
音轨  5  精确地校准抓取  8)  [1AC6C6A2]  (AR v2) " Y%\qw/wq  
音轨  6  精确地校准抓取  8)  [3511D841]  (AR v2) _p_F v>>:  
音轨  7  精确地校准抓取  8)  [41409527]  (AR v2) /ZzlC#`  
音轨  8  精确地校准抓取  7)  [9A28A5F4]  (AR v2) +$UfP(XmH  
音轨  9  精确地校准抓取  8)  [42608382]  (AR v2) $< aBawLZO  
音轨 10  精确地校准抓取  8)  [48653900]  (AR v2) 3% P?1s  
音轨 11  精确地校准抓取  7)  [E6B7C3CF]  (AR v2) /F4:1 }  
音轨 12  精确地校准抓取  8)  [D1A35643]  (AR v2) e7qT;  
音轨 13  精确地校准抓取  8)  [9A20635D]  (AR v2) 0GR9opZtA  
OP&[5X+Y  
所有音轨精确校准抓取 Stc\P]%d  
_kd |:,  
状态报告结尾
<2 Q@^  
{#%xq]r_  
链接:http://pan.baidu.com/s/1mgOly8g 密码: _R<HC  
此帖售价 16 金钱,已有 21 人购买 [记录] [购买]
购买后,将显示帖子中所有出售内容。
若发现会员采用欺骗的方法获取财富,请立刻举报,我们会对会员处以2-N倍的罚金,严重者封掉ID!
此段为出售的内容,购买后显示
2条评分金钱+20威望+5
christinacc 威望 +5 - 2016-02-25
christinacc 金钱 +20 - 2016-02-25
离线lifan_npl

发帖
2173
金钱
16819
威望
782
贡献值
347
交易币
2526
只看该作者 1楼 发表于: 2016-02-25
这个碟你也买了?
我的淘宝:
http://shop63152617.taobao.com  
离线小李

发帖
232
金钱
230
威望
99
贡献值
8
交易币
204
只看该作者 2楼 发表于: 2016-02-25
听听你抓轨的这个,哈哈.
离线刘123伟

发帖
682
金钱
971
威望
54
贡献值
14
交易币
739
只看该作者 3楼 发表于: 2016-02-25
WOW!MAX CD ,感谢抓轨分享。
离线李伟伟

发帖
195
金钱
1849
威望
20
贡献值
13
交易币
248
只看该作者 4楼 发表于: 2016-02-25
谢谢分享
离线mich008

发帖
824
金钱
5489
威望
24
贡献值
15
交易币
886
只看该作者 5楼 发表于: 2016-02-25
这个算是惊喜了 谢谢分享
离线mjlove98

发帖
2519
金钱
5963
威望
198
贡献值
122
交易币
2593
只看该作者 6楼 发表于: 2016-02-26
好资源,支持楼主
离线自作主张

发帖
344
金钱
3054
威望
80
贡献值
43
交易币
441
只看该作者 7楼 发表于: 2016-02-26
惊喜!!!!!!!!!!
离线jailim9300

发帖
299
金钱
1
威望
15
贡献值
12
交易币
348
只看该作者 8楼 发表于: 2016-02-26
感谢楼主
离线魏聪

发帖
168
金钱
2713
威望
41
贡献值
21
交易币
103
只看该作者 9楼 发表于: 2016-02-27
看介绍好像叼炸天了
快速回复
限100 字节
 
上一个 下一个