论坛风格切换切换到宽版
  • 1049阅读
  • 20回复

[亲传][Comp] 1989 The Bad Mixes (US Promo - ESK 1215) - WAV整轨 ♬by幽灵 [复制链接]

上一主题 下一主题
离线mjghosts
 

发帖
8247
金钱
210534
威望
9164
贡献值
2715
交易币
4698
只看楼主 倒序阅读 楼主  发表于: 2016-02-25
— 本帖被 mjghosts 执行加亮操作(2016-02-25) —
*1989年13曲宣传碟,限量6000张,13首都是上乘之作,每一张都有独立编号。此碟绝大部分在出厂时便把封面对折以露出“魔声”广告、并在CD上贴上了“魔声线材”的贴标。(相比1988年发行的9曲版多收录四首“Smooth Criminal”的混音版,因此个人认为9曲版先行于《Smooth Criminal》美宣。)* RnH?95n?{  
]H/,Q6Q  
注:独家整理,转载请注明出处!EAC无损整轨(压缩包内含CD图片) A$wC !P|;  
*)Pm   
解压密码:www.mjsunny.com
Tt~4'{Bc  
5X^\AW  
Tracklist ]+e zg(C}  
1 Another Part Of Me (7" Version) 3:47 ;l%xjMcU  
2 Another Part Of Me (Extended Dance Mix) 6:11 0gqV>:  
3 Dirty Diana 4:42 4(htdn6\  
4 Man In The Mirror 4:55 BZ\="N#f  
5 The Way You Make Me Feel (7" Version) 4:26 o+x%q<e;c  
6 The Way You Make Me Feel (Dance Extended Mix) 7:53 N%Bl+7,q  
7 Bad (7" Version) 4:05 iU+SXsXLR4  
8 Bad (Dance Extended Mix) 8:24 -$!r+4|q  
9 I Just Can't Stop Loving You (7" Version) 4:10 2+ u+9rW  
10 Smooth Criminal (7" Version) 4:10 r Hq1%)B  
11 Smooth Criminal (Annie Mix) 5:35 ^%*qe5J  
12 Smooth Criminal (Dance Mix Dub Version) 4:45 MNU7OX<  
13 Smooth Criminal (A Cappella Mix) 4:12
n%h00 9 -5  
-0a3eg)Z*  
&5jc &CS  
,ng/T**@G  
s j-oaWt  
qKXg'1#E)  
Exact Audio Copy V1.0 beta 6 from 9. April 2015 /  !h<+  
!]"M]tyv\  
EAC 抓取日志文件从19. 二月 2016, 20:43 TH>uL;?=  
`-s]d q  
Micheal Jackson / The Bad Mixes 4EeVO5  
j~rW 2(  
使用驱动器  :MATSHITADVD-RAM UJ890AS   Adapter: 1  ID: 1 $XyDw|z[  
f U<<GK70  
读取模式      : 可靠Secure ME*zMLoF+  
使用精确流     : 是 nKwOSGPQt  
清空音频缓存    : 否 \J~@r1  
使用 C2 指示器 : 是  ^AwDZX  
y7b>>|C  
读取偏移校正:               : 102 skLr6Cs|  
读取 Lead-In 和 Lead-Out : 否 /u'V>=D;f  
用静音填充抓取中丢失偏移的采样       : 是 CrGDo9JdvT  
去除首尾静音块               : 否 e&pt[W}X%u  
在CRC 计算中使用了空样本       : 是 s=&x%0f%  
已用接口                  : Win NT 及 2000 本地 Win32 接口 bmRp)CYd  
U7xQ 5lph  
所用输出模式: : 内部 WAV 函数 dJ,,yA*  
样本格式    : 44.100 Hz; 16 Bit; 立体声 D89 (u.h  
hLSas#B>  
V%w]HIhq  
已抓取 CD 的 TOC K1|xatx1V  
uPL|3ACS  
     音轨 |    起始    |    长度    |  起始扇区  |  结束扇区   cY%6+uJ1  
    -------------------------------------------- y[~w2a&+  
      1 |  0:00.00 |  3:48.72 |      0 |  17171 `BKV/Xl  
      2 |  3:48.72 |  6:21.03 |  17172 |  45749 {wVJv1*l  
      3 | 10:10.00 |  4:44.07 |  45750 |  67056 gK>aR ^*  
      4 | 14:54.07 |  5:06.20 |  67057 |  90026 <lHVch"(^$  
      5 | 20:00.27 |  4:25.73 |  90027 | 109974 ;=E!xfp5U  
      6 | 24:26.25 |  7:54.25 | 109975 | 145549 2:Q2w3Xe  
      7 | 32:20.50 |  4:08.17 | 145550 | 164166  `\#J&N  
      8 | 36:28.67 |  8:25.68 | 164167 | 202109 8k -l`O~  
      9 | 44:54.60 |  4:14.40 | 202110 | 221199 _ -C{:rV  
     10 | 49:09.25 |  4:13.52 | 221200 | 240226 E [b6k&A  
     11 | 53:23.02 |  5:38.40 | 240227 | 265616 sAfNu~d  
     12 | 59:01.42 |  4:47.58 | 265617 | 287199 UKBaGX:v  
     13 | 63:49.25 |  4:12.57 | 287200 | 306156 68-2EWq  
nH7i)!cI~  
78-D/WY/X  
范围状态及错误 Z_}[hz$  
RDWUy (iX  
已选择范围 + tza]r:  
8JbN&C  
     文件名 J:\12 Music*音乐\CDImage.wav HHcWyu  
D*o5fPvFO  
     峰值电平 100.0 % 1]% ]"JbV  
     抓取速度 6.9 X &h_do8R  
     范围质量 100.0 % eB,eu4+-  
     复制 CRC F84ACFC3 cH>3|B*y  
     复制成功 1b4/  
xR`M#d5"  
没有错误发生 $G}!eV 6  
!5zDnv  
b^q8s4(   
AccurateRip 摘要 6#za\[  
L2<IG)oXU  
音轨  1  精确地校准抓取  7)  [ED085785]  (AR v2) pb5q2|u`h  
音轨  2  精确地校准抓取  7)  [8EDBEC9D]  (AR v2) cf`g.9pjlx  
音轨  3  精确地校准抓取  8)  [AF8FACB6]  (AR v2)  3<R8_p  
音轨  4  精确地校准抓取  8)  [EA8536AA]  (AR v2) CEHtr90P  
音轨  5  精确地校准抓取  8)  [1AC6C6A2]  (AR v2) qayM 0i>>  
音轨  6  精确地校准抓取  8)  [3511D841]  (AR v2) Ygs:Ox"[-G  
音轨  7  精确地校准抓取  8)  [41409527]  (AR v2) Sk7sxy<F'  
音轨  8  精确地校准抓取  7)  [9A28A5F4]  (AR v2) b9RJ>K  
音轨  9  精确地校准抓取  8)  [42608382]  (AR v2) g)L<xN8  
音轨 10  精确地校准抓取  8)  [48653900]  (AR v2) [x8_ax} w  
音轨 11  精确地校准抓取  7)  [E6B7C3CF]  (AR v2) [!ilcHE)  
音轨 12  精确地校准抓取  8)  [D1A35643]  (AR v2) des.TSZ  
音轨 13  精确地校准抓取  8)  [9A20635D]  (AR v2) {!>'# F^e  
)K!!Zq3;|  
所有音轨精确校准抓取 ?*L{xNC#  
J;*2[o.N  
状态报告结尾
wK!7mZ  
^H`4BWc  
链接:http://pan.baidu.com/s/1mgOly8g 密码: Vy7 )_D  
此帖售价 16 金钱,已有 19 人购买 [记录] [购买]
购买后,将显示帖子中所有出售内容。
若发现会员采用欺骗的方法获取财富,请立刻举报,我们会对会员处以2-N倍的罚金,严重者封掉ID!
此段为出售的内容,购买后显示
2条评分金钱+20威望+5
christinacc 威望 +5 - 2016-02-25
christinacc 金钱 +20 - 2016-02-25
离线lifan_npl

发帖
2117
金钱
17682
威望
787
贡献值
347
交易币
2470
只看该作者 1楼 发表于: 2016-02-25
这个碟你也买了?
我的淘宝:
http://shop63152617.taobao.com  
离线小李

发帖
218
金钱
132
威望
98
贡献值
7
交易币
186
只看该作者 2楼 发表于: 2016-02-25
听听你抓轨的这个,哈哈.
离线刘123伟

发帖
625
金钱
311
威望
54
贡献值
14
交易币
682
只看该作者 3楼 发表于: 2016-02-25
WOW!MAX CD ,感谢抓轨分享。
离线李伟伟

发帖
192
金钱
1877
威望
20
贡献值
13
交易币
245
只看该作者 4楼 发表于: 2016-02-25
谢谢分享
离线mich008

发帖
796
金钱
5102
威望
24
贡献值
15
交易币
858
只看该作者 5楼 发表于: 2016-02-25
这个算是惊喜了 谢谢分享
离线mjlove98

发帖
1994
金钱
11
威望
217
贡献值
62
交易币
1771
只看该作者 6楼 发表于: 2016-02-26
好资源,支持楼主
离线自作主张

发帖
338
金钱
2961
威望
78
贡献值
43
交易币
435
只看该作者 7楼 发表于: 2016-02-26
惊喜!!!!!!!!!!
离线jailim9300

发帖
286
金钱
14
威望
15
贡献值
12
交易币
335
只看该作者 8楼 发表于: 2016-02-26
感谢楼主
离线魏聪

发帖
162
金钱
2911
威望
41
贡献值
21
交易币
97
只看该作者 9楼 发表于: 2016-02-27
看介绍好像叼炸天了
快速回复
限100 字节
 
上一个 下一个