论坛风格切换切换到宽版
  • 1425阅读
  • 16回复

[亲传][Single] 1992 In The Closet (US - 49K 74267) - WAV整轨 ♬by幽灵 [复制链接]

上一主题 下一主题
离线mjghosts
 

发帖
8244
金钱
217720
威望
9174
贡献值
2723
交易币
4755
只看楼主 倒序阅读 楼主  发表于: 2016-03-03
— 本帖被 mjghosts 执行加亮操作(2016-03-03) —
*1992年美版市售单曲,收录5首歌曲,完美校准抓轨* ;( (|0Xa  
deOk>v&U  
注:独家整理,转载请注明出处!EAC无损整轨(压缩包内含CD图片) jd.w7.8  
,MUgww!.  
解压密码:www.mjsunny.com
y>c Yw!  
CUx-k|\  
Tracklist ywj'O e41  
1 In The Closet (Club Edit) 4:07 {[bB$~7Eu  
2 In The Closet (The Underground Mix) 5:34 $U'*}S  
3 In The Closet (The Promise) 7:20 >gDKkeLD  
4 In The Closet (The Vow) 4:49 m,Mg  
5 Remember The Time (New Jack Jazz (21)) 5:06
"Mh}n-oju  
OpmPw4?}  
VqS1n  
h5lngw  
)!5"\eys  
?+L7Bd(EF%  
Exact Audio Copy V1.0 beta 6 from 9. April 2015 1$ENNq#0  
FLQ^J3A,I  
EAC 抓取日志文件从28. 二月 2016, 23:19 |&~);>Cq2  
5yf`3vV|3@  
Michael Jackson / In The Closet ]T%wRd5&-  
>viLvDng  
使用驱动器  :MATSHITADVD-RAM UJ890AS   Adapter: 1  ID: 1 SA~oGgk=P  
UM. Se(kS  
读取模式      : 可靠Secure QLZ%m$Z  
使用精确流     : 是 I}\`l+  
清空音频缓存    : 否 &izk$~  
使用 C2 指示器 : 是 $~T|v7Y%  
qO>A 6  
读取偏移校正:               : 102 RYM[{]4b5F  
读取 Lead-In 和 Lead-Out : 否 %D[6;PT  
用静音填充抓取中丢失偏移的采样       : 是 /+f3jy:d  
去除首尾静音块               : 否 nk+9 J#Gs  
在CRC 计算中使用了空样本       : 是 a7e.Z9k!  
已用接口                  : Win NT 及 2000 本地 Win32 接口 y{QF#&lW  
S oB6F9  
所用输出模式: : 内部 WAV 函数 S{JBV@@tC  
样本格式    : 44.100 Hz; 16 Bit; 立体声 qa5 T(:8  
g y1i%  
ASaNac-3  
已抓取 CD 的 TOC eed!SmP  
8[H)t Kf8  
     音轨 |    起始    |    长度    |  起始扇区  |  结束扇区   tCr? !Y~  
    -------------------------------------------- &y.6Hiy&  
      1 |  0:00.00 |  4:11.70 |      0 |  18894 ]o*-|[^?  
      2 |  4:11.70 |  5:39.05 |  18895 |  44324 S$i3/t  
      3 |  9:51.00 |  7:26.50 |  44325 |  77824 TS;?>J-  
      4 | 17:17.50 |  4:53.30 |  77825 |  99829 #[NNb?`F  
      5 | 22:11.05 |  5:06.72 |  99830 | 122851 <^wqN!/  
f 7j9'k  
2V=bE-  
范围状态及错误 *p7_rY  
-K%~2M<  
已选择范围 ?u_O(eg  
hXz@ (cF  
     文件名 J:\12 Music*音乐\CDImage.wav mY,t]#^m7  
lM-*{<B  
     峰值电平 100.0 % ?br4 wl  
     抓取速度 6.7 X Z@b GLS  
     范围质量 100.0 % vQIN#;m4  
     复制 CRC F85FACE1 rYwUD7ip  
     复制成功 J}J7A5P  
mFXkrvOf,  
没有错误发生 7f\@3r  
Y94/tjt  
# \)tz z  
AccurateRip 摘要 }^R_8{>k  
)Mj $/  
音轨  1  精确地校准抓取  4)  [DF0C815C]  (AR v2) }475c{  
音轨  2  精确地校准抓取  4)  [F34C0433]  (AR v2) OnKPD=<  
音轨  3  精确地校准抓取  4)  [7ABF38C2]  (AR v2) _noQk3N  
音轨  4  精确地校准抓取  4)  [161E46A7]  (AR v2) L!]~ J?)  
音轨  5  精确地校准抓取  4)  [D3ADF8A4]  (AR v2) hIr$^%  
?9 8]\pI  
所有音轨精确校准抓取 6^ DsI  
426)H_wx  
状态报告结尾
Sl{nS1q  
f~.w2Cna  
链接:http://pan.baidu.com/s/1i4iDdwp 密码: IFX|"3[$  
此帖售价 8 金钱,已有 14 人购买 [记录] [购买]
购买后,将显示帖子中所有出售内容。
若发现会员采用欺骗的方法获取财富,请立刻举报,我们会对会员处以2-N倍的罚金,严重者封掉ID!
此段为出售的内容,购买后显示
离线自作主张

发帖
346
金钱
3101
威望
80
贡献值
43
交易币
443
只看该作者 1楼 发表于: 2016-03-03
感谢分享!!!
离线mich008

发帖
832
金钱
5931
威望
24
贡献值
15
交易币
894
只看该作者 2楼 发表于: 2016-03-03
很喜欢这版 封面和专辑差不多
离线zhouquan311

发帖
734
金钱
7771
威望
136
贡献值
66
交易币
974
只看该作者 3楼 发表于: 2016-03-03
感谢分享!
Forever MJ
       我要去减肥,除非冰淇淋,
  
  不再那么贵,三块二毛一,
  
  我也要人陪,除非我有米,
  
  去换红玫瑰,然后送给你,
  
离线小李

发帖
236
金钱
1405
威望
9
贡献值
8
交易币
208
只看该作者 4楼 发表于: 2016-03-04
谢谢,马山下载。
离线刘123伟

发帖
686
金钱
486
威望
54
贡献值
14
交易币
743
只看该作者 5楼 发表于: 2016-03-04
感谢幽灵君的分享!
离线shenlei

发帖
1983
金钱
353
威望
725
贡献值
290
交易币
579
只看该作者 6楼 发表于: 2016-03-07
感谢分享
离线zxcv16

发帖
2664
金钱
3796
威望
409
贡献值
135
交易币
2856
只看该作者 7楼 发表于: 2016-03-08
多谢楼主分享
离线michael0829

发帖
955
金钱
9569
威望
90
贡献值
70
交易币
1204
只看该作者 8楼 发表于: 2016-03-09
谢谢分享,辛苦了!
I Love You Michael Jackson Forever!
I Just Can't Stop Loving You Michel!
离线lifan_npl

发帖
2189
金钱
19354
威望
816
贡献值
395
交易币
2550
只看该作者 9楼 发表于: 2016-03-11
虽然有cd了,但是还是下载看看,主要是扫描的封面不错
我的淘宝:
http://shop63152617.taobao.com  
快速回复
限100 字节
 
上一个 下一个