论坛风格切换切换到宽版
  • 1227阅读
  • 16回复

[亲传][Single] 1992 In The Closet (US - 49K 74267) - WAV整轨 ♬by幽灵 [复制链接]

上一主题 下一主题
离线mjghosts
 

发帖
8240
金钱
216247
威望
9172
贡献值
2721
交易币
4743
只看楼主 倒序阅读 楼主  发表于: 2016-03-03
— 本帖被 mjghosts 执行加亮操作(2016-03-03) —
*1992年美版市售单曲,收录5首歌曲,完美校准抓轨* 7yT/t1)  
,cS#  
注:独家整理,转载请注明出处!EAC无损整轨(压缩包内含CD图片) %LP4RZ  
e ar:`11z  
解压密码:www.mjsunny.com
@(35I  
/eH37H  
Tracklist rf|Nu3AJ  
1 In The Closet (Club Edit) 4:07 ~mt{j7  
2 In The Closet (The Underground Mix) 5:34 ;z9 ,c  
3 In The Closet (The Promise) 7:20 y7:f^4  
4 In The Closet (The Vow) 4:49 -ak. wwx\  
5 Remember The Time (New Jack Jazz (21)) 5:06
beikzuC  
9y&;6V.'  
oY0b8=[  
"IQYy~ /  
Z7pX%nj_  
6?%$e$s  
Exact Audio Copy V1.0 beta 6 from 9. April 2015 xg, 9~f[  
8(Ptse  ,  
EAC 抓取日志文件从28. 二月 2016, 23:19 *2-b&PQR{  
w/ZP. B  
Michael Jackson / In The Closet OhN2FkxL  
Ws2?sn#x  
使用驱动器  :MATSHITADVD-RAM UJ890AS   Adapter: 1  ID: 1 K@2"n| S;  
;AVIt!(L~V  
读取模式      : 可靠Secure }BT0dKx  
使用精确流     : 是 8EJP~bt  
清空音频缓存    : 否 jHE^d<=O^  
使用 C2 指示器 : 是  LDU4 D  
.]4MtG  
读取偏移校正:               : 102 >iG3!Td)y  
读取 Lead-In 和 Lead-Out : 否 T+RC#&>  
用静音填充抓取中丢失偏移的采样       : 是 cl4 _M{~  
去除首尾静音块               : 否 aqK+ u.H  
在CRC 计算中使用了空样本       : 是 O x`K7$)  
已用接口                  : Win NT 及 2000 本地 Win32 接口 ?>V>6cDQ  
Np$&8v+en  
所用输出模式: : 内部 WAV 函数 (@!K tW  
样本格式    : 44.100 Hz; 16 Bit; 立体声 j6k"%QHf  
Uz rf,I[  
KDP47A  
已抓取 CD 的 TOC ae@!M  
r7?nHF  
     音轨 |    起始    |    长度    |  起始扇区  |  结束扇区   ?Y8hy|`  
    -------------------------------------------- BaIuOZ@,  
      1 |  0:00.00 |  4:11.70 |      0 |  18894 y`7<c5zD  
      2 |  4:11.70 |  5:39.05 |  18895 |  44324 P3 =#<Q.  
      3 |  9:51.00 |  7:26.50 |  44325 |  77824 m]fUV8U  
      4 | 17:17.50 |  4:53.30 |  77825 |  99829 CP%^)LX *  
      5 | 22:11.05 |  5:06.72 |  99830 | 122851 .{`C>/"}  
PO6yE r  
+5Dc5Bl  
范围状态及错误 2@2d |  
A]i!131{w|  
已选择范围 5n}<V-yJ*m  
!-3;Qj}V  
     文件名 J:\12 Music*音乐\CDImage.wav L)F4)VL  
HZ Wt>f  
     峰值电平 100.0 % ?0* [ L  
     抓取速度 6.7 X 9oO~UP!ag  
     范围质量 100.0 % OM\1TD/-  
     复制 CRC F85FACE1 kVKAG\F  
     复制成功 ZnI15bsDx  
-/{FGbpR;  
没有错误发生 o#f"wQH;p  
J({D~  
%ZWt 45A  
AccurateRip 摘要 J$1H3#VV G  
%wOkp`1-  
音轨  1  精确地校准抓取  4)  [DF0C815C]  (AR v2) jD9u(qAlH  
音轨  2  精确地校准抓取  4)  [F34C0433]  (AR v2) IV. })8  
音轨  3  精确地校准抓取  4)  [7ABF38C2]  (AR v2) .UL 2(0  
音轨  4  精确地校准抓取  4)  [161E46A7]  (AR v2) N?vb^?  
音轨  5  精确地校准抓取  4)  [D3ADF8A4]  (AR v2) ={P`Tve  
BM /FOY;  
所有音轨精确校准抓取 $Xlr@)%  
J Ah!#S(  
状态报告结尾
d[3me{Rs  
uKk#V6t#  
链接:http://pan.baidu.com/s/1i4iDdwp 密码: /OztkThx=  
此帖售价 8 金钱,已有 14 人购买 [记录] [购买]
购买后,将显示帖子中所有出售内容。
若发现会员采用欺骗的方法获取财富,请立刻举报,我们会对会员处以2-N倍的罚金,严重者封掉ID!
此段为出售的内容,购买后显示
离线自作主张

发帖
344
金钱
3054
威望
80
贡献值
43
交易币
441
只看该作者 1楼 发表于: 2016-03-03
感谢分享!!!
离线mich008

发帖
824
金钱
5489
威望
24
贡献值
15
交易币
886
只看该作者 2楼 发表于: 2016-03-03
很喜欢这版 封面和专辑差不多
离线zhouquan311

发帖
734
金钱
7771
威望
136
贡献值
66
交易币
974
只看该作者 3楼 发表于: 2016-03-03
感谢分享!
Forever MJ
       我要去减肥,除非冰淇淋,
  
  不再那么贵,三块二毛一,
  
  我也要人陪,除非我有米,
  
  去换红玫瑰,然后送给你,
  
离线小李

发帖
232
金钱
230
威望
99
贡献值
8
交易币
204
只看该作者 4楼 发表于: 2016-03-04
谢谢,马山下载。
离线刘123伟

发帖
682
金钱
971
威望
54
贡献值
14
交易币
739
只看该作者 5楼 发表于: 2016-03-04
感谢幽灵君的分享!
离线shenlei

发帖
1979
金钱
211
威望
725
贡献值
290
交易币
575
只看该作者 6楼 发表于: 2016-03-07
感谢分享
离线zxcv16

发帖
2661
金钱
3832
威望
409
贡献值
135
交易币
2853
只看该作者 7楼 发表于: 2016-03-08
多谢楼主分享
离线michael0829

发帖
954
金钱
9354
威望
90
贡献值
70
交易币
1203
只看该作者 8楼 发表于: 2016-03-09
谢谢分享,辛苦了!
I Love You Michael Jackson Forever!
I Just Can't Stop Loving You Michel!
离线lifan_npl

发帖
2173
金钱
16819
威望
782
贡献值
347
交易币
2526
只看该作者 9楼 发表于: 2016-03-11
虽然有cd了,但是还是下载看看,主要是扫描的封面不错
我的淘宝:
http://shop63152617.taobao.com  
快速回复
限100 字节
 
上一个 下一个