论坛风格切换切换到宽版
  • 997阅读
  • 16回复

[亲传][Single] 1992 In The Closet (US - 49K 74267) - WAV整轨 ♬by幽灵 [复制链接]

上一主题 下一主题
离线mjghosts
 

发帖
8258
金钱
212473
威望
9166
贡献值
2715
交易币
4709
只看楼主 倒序阅读 楼主  发表于: 2016-03-03
— 本帖被 mjghosts 执行加亮操作(2016-03-03) —
*1992年美版市售单曲,收录5首歌曲,完美校准抓轨* i:N^:%  
.)pRB7O3  
注:独家整理,转载请注明出处!EAC无损整轨(压缩包内含CD图片) ~esEql=Q3'  
2P> za\  
解压密码:www.mjsunny.com
ydFhw}1>  
r^tXr[}  
Tracklist  G#n)|p  
1 In The Closet (Club Edit) 4:07 ex!w Y  
2 In The Closet (The Underground Mix) 5:34 r@ *A   
3 In The Closet (The Promise) 7:20 ~W2&z]xD  
4 In The Closet (The Vow) 4:49 W ]MJ!4  
5 Remember The Time (New Jack Jazz (21)) 5:06
Wk#-LkI  
Im1qWe  
l'8TA~  
BjJ gQ`X  
<a}|G1 h  
yj9gN}+  
Exact Audio Copy V1.0 beta 6 from 9. April 2015 [zd-=.:+M[  
m;1 exa  
EAC 抓取日志文件从28. 二月 2016, 23:19 u;1NhD<n  
g o Z#  
Michael Jackson / In The Closet @= 9y5r  
`t2! M\)  
使用驱动器  :MATSHITADVD-RAM UJ890AS   Adapter: 1  ID: 1 +:Zi(SuS]  
xq*yZ5:5Jo  
读取模式      : 可靠Secure >GRuS\B  
使用精确流     : 是 y>PbYjuIU  
清空音频缓存    : 否 31Du@h8YX  
使用 C2 指示器 : 是 yp/*@8%_E  
Xs_y!l  
读取偏移校正:               : 102 ks4 ,2f,2  
读取 Lead-In 和 Lead-Out : 否 $!w%=  
用静音填充抓取中丢失偏移的采样       : 是 !y.7"G*  
去除首尾静音块               : 否 *ni|I@8  
在CRC 计算中使用了空样本       : 是 X.qKG0i  
已用接口                  : Win NT 及 2000 本地 Win32 接口 f0+  
AaVlNjB  
所用输出模式: : 内部 WAV 函数 ML-g"wv  
样本格式    : 44.100 Hz; 16 Bit; 立体声 t[Q\T0E  
m{|n.b  
gqd#rjtfz  
已抓取 CD 的 TOC KC'{>rt7  
`fXcW)  
     音轨 |    起始    |    长度    |  起始扇区  |  结束扇区   $l=m?r=  
    -------------------------------------------- pB`<4+"9  
      1 |  0:00.00 |  4:11.70 |      0 |  18894 3 }XS| Y  
      2 |  4:11.70 |  5:39.05 |  18895 |  44324 70@:!HI]  
      3 |  9:51.00 |  7:26.50 |  44325 |  77824 HzV3O-Qz]  
      4 | 17:17.50 |  4:53.30 |  77825 |  99829 ^+88z>  
      5 | 22:11.05 |  5:06.72 |  99830 | 122851 S[Et!gj:  
o}BaZ|iZ2  
R b'"09)$  
范围状态及错误 ;tO(,^  
ffdyDUzQ  
已选择范围 6H@=O 1W  
YkTEAI|i  
     文件名 J:\12 Music*音乐\CDImage.wav ,{$:Q}`  
dI3U*:$X  
     峰值电平 100.0 % e(cctC|l  
     抓取速度 6.7 X z"|^Y|`m  
     范围质量 100.0 % _rOKif?5  
     复制 CRC F85FACE1 $w{#o E  
     复制成功 '6WaG hvO  
kP3'BBd,  
没有错误发生 IWX%6*Zz  
1-4W4"#  
Q u{#4qToA  
AccurateRip 摘要 &^9 2z:?  
Nw* >$v  
音轨  1  精确地校准抓取  4)  [DF0C815C]  (AR v2) ^h1EE=E"  
音轨  2  精确地校准抓取  4)  [F34C0433]  (AR v2) dX?8@uzu  
音轨  3  精确地校准抓取  4)  [7ABF38C2]  (AR v2) F6`$5%$M;?  
音轨  4  精确地校准抓取  4)  [161E46A7]  (AR v2) V*U{q%p(  
音轨  5  精确地校准抓取  4)  [D3ADF8A4]  (AR v2) &z8I@^<  
*EY^t=  
所有音轨精确校准抓取 b=(?\  
XpFW(v  
状态报告结尾
V/"P};n  
K)"lq5nM  
链接:http://pan.baidu.com/s/1i4iDdwp 密码: D; i%J  
此帖售价 8 金钱,已有 14 人购买 [记录] [购买]
购买后,将显示帖子中所有出售内容。
若发现会员采用欺骗的方法获取财富,请立刻举报,我们会对会员处以2-N倍的罚金,严重者封掉ID!
此段为出售的内容,购买后显示
离线自作主张

发帖
340
金钱
3144
威望
80
贡献值
43
交易币
437
只看该作者 1楼 发表于: 2016-03-03
感谢分享!!!
离线mich008

发帖
811
金钱
5257
威望
24
贡献值
15
交易币
873
只看该作者 2楼 发表于: 2016-03-03
很喜欢这版 封面和专辑差不多
离线zhouquan311

发帖
734
金钱
7721
威望
136
贡献值
66
交易币
974
只看该作者 3楼 发表于: 2016-03-03
感谢分享!
Forever MJ
       我要去减肥,除非冰淇淋,
  
  不再那么贵,三块二毛一,
  
  我也要人陪,除非我有米,
  
  去换红玫瑰,然后送给你,
  
离线小李

发帖
225
金钱
150
威望
99
贡献值
8
交易币
197
只看该作者 4楼 发表于: 2016-03-04
谢谢,马山下载。
离线刘123伟

发帖
654
金钱
474
威望
54
贡献值
14
交易币
711
只看该作者 5楼 发表于: 2016-03-04
感谢幽灵君的分享!
离线shenlei

发帖
1979
金钱
211
威望
725
贡献值
290
交易币
575
只看该作者 6楼 发表于: 2016-03-07
感谢分享
离线zxcv16

发帖
2655
金钱
3941
威望
409
贡献值
135
交易币
2847
只看该作者 7楼 发表于: 2016-03-08
多谢楼主分享
离线michael0829

发帖
946
金钱
9132
威望
90
贡献值
70
交易币
1195
只看该作者 8楼 发表于: 2016-03-09
谢谢分享,辛苦了!
I Love You Michael Jackson Forever!
I Just Can't Stop Loving You Michel!
离线lifan_npl

发帖
2156
金钱
17106
威望
782
贡献值
347
交易币
2509
只看该作者 9楼 发表于: 2016-03-11
虽然有cd了,但是还是下载看看,主要是扫描的封面不错
我的淘宝:
http://shop63152617.taobao.com  
快速回复
限100 字节
 
上一个 下一个