论坛风格切换切换到宽版
  • 890阅读
  • 15回复

[亲传][Single] 1992 In The Closet (US - 49K 74267) - WAV整轨 ♬by幽灵 [复制链接]

上一主题 下一主题
离线mjghosts
 

发帖
8247
金钱
210534
威望
9164
贡献值
2715
交易币
4698
只看楼主 倒序阅读 楼主  发表于: 2016-03-03
— 本帖被 mjghosts 执行加亮操作(2016-03-03) —
*1992年美版市售单曲,收录5首歌曲,完美校准抓轨* )mjGHq 2  
nC)"% Sa  
注:独家整理,转载请注明出处!EAC无损整轨(压缩包内含CD图片) d ,.=9  
aX Ie  
解压密码:www.mjsunny.com
7 NnXt'  
"bQi+@  
Tracklist >Psq" Xj  
1 In The Closet (Club Edit) 4:07 hTmJ ~m'J  
2 In The Closet (The Underground Mix) 5:34 4t3>`x 7  
3 In The Closet (The Promise) 7:20 LXPO@2QF  
4 In The Closet (The Vow) 4:49 Ge7B%p8  
5 Remember The Time (New Jack Jazz (21)) 5:06
|f!J-H)  
?<Lm58p8  
5HE5$S  
.w'b%M  
o=K9\l  
^:}C,lIrG  
Exact Audio Copy V1.0 beta 6 from 9. April 2015 `%"x'B`mM  
5`gVziS!S  
EAC 抓取日志文件从28. 二月 2016, 23:19 Aq$1#1J  
9!Jt}n?!g  
Michael Jackson / In The Closet `~"'\Hw  
4VwMl)8ic  
使用驱动器  :MATSHITADVD-RAM UJ890AS   Adapter: 1  ID: 1 ?%Tx% dB  
/c 7z[|  
读取模式      : 可靠Secure @TX@78fWz=  
使用精确流     : 是 5>daWmD  
清空音频缓存    : 否 r jxkgd  
使用 C2 指示器 : 是 g,M-[o=Fk  
$Cfp1#  
读取偏移校正:               : 102 z=g!mVK5  
读取 Lead-In 和 Lead-Out : 否 S-Vj$asv!  
用静音填充抓取中丢失偏移的采样       : 是 C4.GtY8,d  
去除首尾静音块               : 否 ty rP[y  
在CRC 计算中使用了空样本       : 是 Pmd[2/][  
已用接口                  : Win NT 及 2000 本地 Win32 接口 Ng*-Bw)p]  
7(h@5  
所用输出模式: : 内部 WAV 函数 NW`.7'aWT  
样本格式    : 44.100 Hz; 16 Bit; 立体声 nQ+5jGP1  
j7gTVfO  
1v`|mU}i,  
已抓取 CD 的 TOC M 80Q6K  
C12V_)~2  
     音轨 |    起始    |    长度    |  起始扇区  |  结束扇区   Aixe?A_x  
    -------------------------------------------- #\Rxqh7  
      1 |  0:00.00 |  4:11.70 |      0 |  18894 W7 Iy_>  
      2 |  4:11.70 |  5:39.05 |  18895 |  44324 2xO[ ?fR  
      3 |  9:51.00 |  7:26.50 |  44325 |  77824 59l9_yFJ  
      4 | 17:17.50 |  4:53.30 |  77825 |  99829 M NwY   
      5 | 22:11.05 |  5:06.72 |  99830 | 122851 87l*Y|osP  
O]=jI  
2h51zG#qd  
范围状态及错误 8Z\q)T  
,s 3|  
已选择范围 hui #<2{  
MjC<N[WO>N  
     文件名 J:\12 Music*音乐\CDImage.wav %+j/nA1%S  
,ESli/6  
     峰值电平 100.0 % >KrI}>!9r  
     抓取速度 6.7 X r7R'beiH  
     范围质量 100.0 % aanS^t0  
     复制 CRC F85FACE1 G^dp9A  
     复制成功 ]h`*w  
jnJ*e-AW  
没有错误发生 ZXb{-b?[`  
`W)?d I?#M  
zC)JOykI%  
AccurateRip 摘要 %p)&mYK{  
v?]a tb/h`  
音轨  1  精确地校准抓取  4)  [DF0C815C]  (AR v2) $6UU58>n  
音轨  2  精确地校准抓取  4)  [F34C0433]  (AR v2) u4 es8"  
音轨  3  精确地校准抓取  4)  [7ABF38C2]  (AR v2) aG;F=e  
音轨  4  精确地校准抓取  4)  [161E46A7]  (AR v2) Hm>cKPZ)  
音轨  5  精确地校准抓取  4)  [D3ADF8A4]  (AR v2) h&L-G j  
0^V<,CAV  
所有音轨精确校准抓取 p : z ][I  
z6J12tu  
状态报告结尾
m_Ed[h/I  
&uE )Vr4R  
链接:http://pan.baidu.com/s/1i4iDdwp 密码: -6-rX D  
此帖售价 8 金钱,已有 13 人购买 [记录] [购买]
购买后,将显示帖子中所有出售内容。
若发现会员采用欺骗的方法获取财富,请立刻举报,我们会对会员处以2-N倍的罚金,严重者封掉ID!
此段为出售的内容,购买后显示
离线自作主张

发帖
338
金钱
2961
威望
78
贡献值
43
交易币
435
只看该作者 1楼 发表于: 2016-03-03
感谢分享!!!
离线mich008

发帖
796
金钱
5102
威望
24
贡献值
15
交易币
858
只看该作者 2楼 发表于: 2016-03-03
很喜欢这版 封面和专辑差不多
离线zhouquan311

发帖
734
金钱
7691
威望
136
贡献值
66
交易币
974
只看该作者 3楼 发表于: 2016-03-03
感谢分享!
Forever MJ
       我要去减肥,除非冰淇淋,
  
  不再那么贵,三块二毛一,
  
  我也要人陪,除非我有米,
  
  去换红玫瑰,然后送给你,
  
离线小李

发帖
218
金钱
132
威望
98
贡献值
7
交易币
186
只看该作者 4楼 发表于: 2016-03-04
谢谢,马山下载。
离线刘123伟

发帖
625
金钱
311
威望
54
贡献值
14
交易币
682
只看该作者 5楼 发表于: 2016-03-04
感谢幽灵君的分享!
离线shenlei

发帖
1979
金钱
211
威望
725
贡献值
290
交易币
575
只看该作者 6楼 发表于: 2016-03-07
感谢分享
离线zxcv16

发帖
2634
金钱
4129
威望
409
贡献值
135
交易币
2826
只看该作者 7楼 发表于: 2016-03-08
多谢楼主分享
在线michael0829

发帖
946
金钱
8872
威望
90
贡献值
70
交易币
1195
只看该作者 8楼 发表于: 2016-03-09
谢谢分享,辛苦了!
I Love You Michael Jackson Forever!
I Just Can't Stop Loving You Michel!
离线lifan_npl

发帖
2117
金钱
17682
威望
787
贡献值
347
交易币
2470
只看该作者 9楼 发表于: 2016-03-11
虽然有cd了,但是还是下载看看,主要是扫描的封面不错
我的淘宝:
http://shop63152617.taobao.com  
快速回复
限100 字节
 
上一个 下一个