论坛风格切换切换到宽版
  • 2268阅读
  • 18回复

[亲传][Album] 1986 The Jacksons Live (US - EGK 37545) - WAV整轨 ♬by幽灵 [复制链接]

上一主题 下一主题
离线mjghosts
 

发帖
8268
金钱
219704
威望
9187
贡献值
2734
交易币
4803
只看楼主 倒序阅读 楼主  发表于: 2016-05-29
— 本帖被 mjghosts 执行加亮操作(2016-05-29) —
*1986年发行的现场音频CD,抓取采取的是较后期的美国再版,音质应该还是很有保障的。完美精确校准抓轨! Y[ G_OoU  
@CMI$}!{V  
注:独家整理,转载请注明出处!EAC无损整轨(压缩包内含CD图片) L kt4F  
X\}l" ]  
解压密码:www.mjsunny.com
=7Ln&tZ  
&5 CRXf  
Tracklist fPR_ 3qgQ  
1.1 Opening 2:09 #mxOwvJ  
1.2 Can You Feel It 4:03 wk(25(1q  
2 Things I Do For You 3:38 1\}vU  
3 Off The Wall 3:59 ^y+k6bE  
4 Ben 3:52 GQ2GcX(E(  
5 This Place Hotel 4:39 0~|0D#klB  
6 She's Out Of My Life 4:48 iZGbNN  
7 Movie And Rap 3:04 5Xq+lLW>  
8 Medley 2:58 { FJMc O=  
9 I'll Be There 3:11 X3:1KDVsV  
10 Rock With You 3:57 }8'_M/u\  
11 Lovely One 6:28 p$,7qGST  
12 Working Day And Night 6:53 ^-%'ItVO  
13 Don't Stop 'Til You Get Enough 4:21 L7ae6#5.  
14 Shake Your Body (Down To The Ground) 8:30
6AIqoX*p  
4(8c L?J`0  
dr)*.<_+a(  
l#uF%;GDX  
ZQ"dAR/y  
aGW O3Nk  
Exact Audio Copy V1.0 beta 6 from 9. April 2015 foPM5+.G  
yfwR``F  
EAC 抓取日志文件从28. 三月 2016, 22:31 ` *hTx|!'  
`?^<r%*F.  
The Jacksons / Live A?-t`J  
^tyqc8&  
使用驱动器  :MATSHITADVD-RAM UJ890AS   Adapter: 1  ID: 1 ,LOx!  
EE9eG31|r  
读取模式      : 可靠Secure hZ>1n&[ @  
使用精确流     : 是 ,]@Sytky  
清空音频缓存    : 否 [ 7{cf`C  
使用 C2 指示器 : 是 pW<l9W  
O V^?cA  
读取偏移校正:               : 102 {>yy3(N  
读取 Lead-In 和 Lead-Out : 否 "2 qivJ  
用静音填充抓取中丢失偏移的采样       : 是 {G-y7y+E  
去除首尾静音块               : 否 q!) nSD  
在CRC 计算中使用了空样本       : 是 !?GW<Rh  
已用接口                  : Win NT 及 2000 本地 Win32 接口 6;}W)S  
fTV3lyk  
所用输出模式: : 内部 WAV 函数 )C#b83  
样本格式    : 44.100 Hz; 16 Bit; 立体声 j# !U6T  
qBcwM=R3P  
(@;=[5+  
已抓取 CD 的 TOC u%I |os]  
PNhxF C.  
     音轨 |    起始    |    长度    |  起始扇区  |  结束扇区   2mfKy9QxO  
    -------------------------------------------- db0]D\  
      1 |  0:00.00 |  6:05.10 |      0 |  27384 qB8R4wCf  
      2 |  6:05.10 |  3:38.67 |  27385 |  43801 :*dfP/GO  
      3 |  9:44.02 |  3:59.25 |  43802 |  61751 ]@A}v\wa  
      4 | 13:43.27 |  3:52.18 |  61752 |  79169 8Ai\T_l  
      5 | 17:35.45 |  4:39.72 |  79170 | 100166 }BI|M_q.1~  
      6 | 22:15.42 |  4:48.43 | 100167 | 121809 P "%f8C~r  
      7 | 27:04.10 |  3:04.62 | 121810 | 135671 zEk /15  
      8 | 30:08.72 |  2:57.40 | 135672 | 148986 l KG' KR.  
      9 | 33:06.37 |  3:10.30 | 148987 | 163266 pGd@%/]AO  
     10 | 36:16.67 |  3:59.05 | 163267 | 181196 Mj`g84  
     11 | 40:15.72 |  6:28.20 | 181197 | 210316 $,zW0</P*l  
     12 | 46:44.17 |  6:53.68 | 210317 | 241359 vXm'ARj  
     13 | 53:38.10 |  4:23.55 | 241360 | 261139 g(9kc<`3'D  
     14 | 58:01.65 |  8:31.35 | 261140 | 299499 33 ; '6/  
H32o7]lT  
s/B_  
范围状态及错误 [:(/cKo  
CBoCT3@~  
已选择范围 -7]j[{?w  
Sb> &m  
     文件名 J:\12 Music*音乐\CDImage.wav CGzu(@dd\  
]gg(Z!|iQ  
     峰值电平 100.0 % (y 7X1Qc)  
     抓取速度 6.8 X J (?qk  
     范围质量 100.0 % 4minzrKM\  
     复制 CRC 39F14310 y'`/^>.  
     复制成功 _E`+0;O  
2CO/K_Q  
没有错误发生 b4e~Z  
A _zCSRF,  
PN l/}'  
AccurateRip 摘要 z4:!*:.Asu  
NZvgkci_(u  
音轨  1  精确地校准抓取  5)  [3261D113]  (AR v2) L3, /7  
音轨  2  精确地校准抓取  5)  [8E45F342]  (AR v2) xpR`fq  
音轨  3  精确地校准抓取  5)  [CD49306F]  (AR v2) j 2ag b  
音轨  4  精确地校准抓取  5)  [278B0F4F]  (AR v2) P51M?3&=l  
音轨  5  精确地校准抓取  5)  [CA857919]  (AR v2) }HoCfiE=X  
音轨  6  精确地校准抓取  5)  [0381F855]  (AR v2) _Vr- bpAf  
音轨  7  精确地校准抓取  5)  [35081F91]  (AR v2) |(>`qL{|  
音轨  8  精确地校准抓取  5)  [02863731]  (AR v2) hC\ l \y  
音轨  9  精确地校准抓取  5)  [C33FDA28]  (AR v2) ^9Pr`\   
音轨 10  精确地校准抓取  5)  [812DBF9E]  (AR v2) qbv\uYow3k  
音轨 11  精确地校准抓取  5)  [328B2C07]  (AR v2) ` 2W^Ui,4  
音轨 12  精确地校准抓取  5)  [0A350F2C]  (AR v2) @_+aX.,  
音轨 13  精确地校准抓取  5)  [47F7BAB5]  (AR v2) :ppaq  
音轨 14  精确地校准抓取  5)  [AE1BDA03]  (AR v2) ~>CvZ 7K  
*ub2dH4/  
所有音轨精确校准抓取 mku@n;Hl_  
p!UR;xHI\  
状态报告结尾
eAy,T<#  
nR_Z rm  
链接:http://pan.baidu.com/s/1o8cTFUa 密码: n5}]C{s'  
此帖售价 10 金钱,已有 17 人购买 [记录] [购买]
购买后,将显示帖子中所有出售内容。
若发现会员采用欺骗的方法获取财富,请立刻举报,我们会对会员处以2-N倍的罚金,严重者封掉ID!
此段为出售的内容,购买后显示
发帖
*
金钱
*
威望
*
贡献值
*
交易币
*
只看该作者 1楼 发表于: 2016-05-29
感谢分享。
离线Mr灬W

发帖
1130
金钱
12958
威望
161
贡献值
56
交易币
1283
只看该作者 2楼 发表于: 2016-05-29
1981的… 感谢分享!
Heal The World
离线刘123伟

发帖
731
金钱
14871
威望
56
贡献值
15
交易币
792
只看该作者 3楼 发表于: 2016-05-29
很喜欢的一张现场专辑,感谢幽灵。
离线thelma66

发帖
618
金钱
27907
威望
285
贡献值
254
交易币
815
只看该作者 4楼 发表于: 2016-05-29
侧颜无敌

发帖
278
金钱
2401
威望
33
贡献值
12
交易币
327
只看该作者 5楼 发表于: 2016-05-30
姿瓷一个
离线小飛侠

发帖
34
金钱
2502
威望
15
贡献值
4
交易币
51
只看该作者 6楼 发表于: 2016-06-01
WOW感谢楼主的分享,很喜欢你的头像。
离线mich008

发帖
865
金钱
7222
威望
24
贡献值
15
交易币
927
只看该作者 7楼 发表于: 2016-06-01
专辑封面酷极了
离线lnzjjwzp

发帖
68
金钱
474
威望
40
贡献值
6
交易币
84
只看该作者 8楼 发表于: 2016-06-23
    
杰克逊是世界流行文化象征性的人物音乐之王
离线215516140

发帖
66
金钱
22
威望
16
贡献值
5
交易币
87
只看该作者 9楼 发表于: 2016-07-25
谢谢楼主一直在找这个
快速回复
限100 字节
 
上一个 下一个