论坛风格切换切换到宽版
  • 2626阅读
  • 19回复

[亲传][Album] 1986 The Jacksons Live (US - EGK 37545) - WAV整轨 ♬by幽灵 [复制链接]

上一主题 下一主题
离线mjghosts
 

发帖
8279
金钱
221323
威望
9195
贡献值
2742
交易币
4818
只看楼主 倒序阅读 楼主  发表于: 2016-05-29
— 本帖被 mjghosts 执行加亮操作(2016-05-29) —
*1986年发行的现场音频CD,抓取采取的是较后期的美国再版,音质应该还是很有保障的。完美精确校准抓轨!  huvn_  
?*'0;K13  
注:独家整理,转载请注明出处!EAC无损整轨(压缩包内含CD图片) +3Z+#nGtk  
p5l|qs  
解压密码:www.mjsunny.com
{u4AOM=)  
4 RfBXVS  
Tracklist k{U[ U1j  
1.1 Opening 2:09 U>@AE  
1.2 Can You Feel It 4:03 P)LOAe1'  
2 Things I Do For You 3:38 ^m AxV7k  
3 Off The Wall 3:59 t<`d*M2w  
4 Ben 3:52 +\?+cXSc  
5 This Place Hotel 4:39 w9n0p0xr<  
6 She's Out Of My Life 4:48 7|jy:F,w%  
7 Movie And Rap 3:04 1Zi` \N4T  
8 Medley 2:58 |_QpB?b  
9 I'll Be There 3:11 ?P4y$P  
10 Rock With You 3:57 N9s.nu  
11 Lovely One 6:28 <:T/hm$  
12 Working Day And Night 6:53 EyA(W;r.  
13 Don't Stop 'Til You Get Enough 4:21 nEW.Y33  
14 Shake Your Body (Down To The Ground) 8:30
.IVKgQ B  
.F2"tt?'  
2PUB@B' +  
< <Y]P+uU  
KL9JA; "  
!{ _:k%B  
Exact Audio Copy V1.0 beta 6 from 9. April 2015  xB?!nd  
x^Qij!mB%  
EAC 抓取日志文件从28. 三月 2016, 22:31 {!{T,_ J  
&9.3-E47*  
The Jacksons / Live XRyeEwA;pp  
#>BC|/P}  
使用驱动器  :MATSHITADVD-RAM UJ890AS   Adapter: 1  ID: 1 FgPmQ  
G`;mSq6i  
读取模式      : 可靠Secure T).}~i;!  
使用精确流     : 是 lb"T'} q  
清空音频缓存    : 否 >Wpdq(o  
使用 C2 指示器 : 是 Ox'K C  
/`O'eH  
读取偏移校正:               : 102 xrJ0  
读取 Lead-In 和 Lead-Out : 否 FOcDBCrOe  
用静音填充抓取中丢失偏移的采样       : 是 V<REcII.  
去除首尾静音块               : 否 |e3YTLsI  
在CRC 计算中使用了空样本       : 是 vF@.B M>  
已用接口                  : Win NT 及 2000 本地 Win32 接口 I]ol[ X0S  
u #7AB>wi{  
所用输出模式: : 内部 WAV 函数 =iPQ\_ON@  
样本格式    : 44.100 Hz; 16 Bit; 立体声 {|@N~c+  
n L!nzA  
h$fC/Juit  
已抓取 CD 的 TOC N&lKo}hk  
Jz\'%O'  
     音轨 |    起始    |    长度    |  起始扇区  |  结束扇区   x68s$H  
    -------------------------------------------- u@zBE? g  
      1 |  0:00.00 |  6:05.10 |      0 |  27384 $rE_rZ+]="  
      2 |  6:05.10 |  3:38.67 |  27385 |  43801 PK* $  
      3 |  9:44.02 |  3:59.25 |  43802 |  61751  ?2b9N~  
      4 | 13:43.27 |  3:52.18 |  61752 |  79169 JEes'H}Y  
      5 | 17:35.45 |  4:39.72 |  79170 | 100166 I2'UC) 0  
      6 | 22:15.42 |  4:48.43 | 100167 | 121809 1jozM"H7Q  
      7 | 27:04.10 |  3:04.62 | 121810 | 135671 zW^@\kB0D  
      8 | 30:08.72 |  2:57.40 | 135672 | 148986 `D%bZ%25c  
      9 | 33:06.37 |  3:10.30 | 148987 | 163266 OPwj*b:-m  
     10 | 36:16.67 |  3:59.05 | 163267 | 181196 LQs2!]?HT  
     11 | 40:15.72 |  6:28.20 | 181197 | 210316 ?8n`4yO0  
     12 | 46:44.17 |  6:53.68 | 210317 | 241359 =?3D:k7z  
     13 | 53:38.10 |  4:23.55 | 241360 | 261139 B&yb%`9],W  
     14 | 58:01.65 |  8:31.35 | 261140 | 299499 'kK}9VKl  
C-$S]6  
q7C>A`w  
范围状态及错误 QdL ;|3K9  
aO?(ZL  
已选择范围 S\ ~Wpf  
C$xU!9K[+  
     文件名 J:\12 Music*音乐\CDImage.wav 6e$(-ai  
IDb|J%e^P  
     峰值电平 100.0 % P'GX-H  
     抓取速度 6.8 X X~GnK>R  
     范围质量 100.0 % ~oh=QakW  
     复制 CRC 39F14310 <P7f\$o~  
     复制成功 s (J,TS#I]  
%p)6m 2Sb  
没有错误发生 dU\,>3tG  
z _~f/  
}9 N, +*  
AccurateRip 摘要 ge9j:S{  
tzJdUZJ  
音轨  1  精确地校准抓取  5)  [3261D113]  (AR v2) 3:7J@>  
音轨  2  精确地校准抓取  5)  [8E45F342]  (AR v2) fGHYs  
音轨  3  精确地校准抓取  5)  [CD49306F]  (AR v2) /UTeaM!?"  
音轨  4  精确地校准抓取  5)  [278B0F4F]  (AR v2) ^A dHP!I  
音轨  5  精确地校准抓取  5)  [CA857919]  (AR v2) A(2_hl-  
音轨  6  精确地校准抓取  5)  [0381F855]  (AR v2) Fxdu)F,~u  
音轨  7  精确地校准抓取  5)  [35081F91]  (AR v2) ?pn<lW8d  
音轨  8  精确地校准抓取  5)  [02863731]  (AR v2) ;= ^kTb`X  
音轨  9  精确地校准抓取  5)  [C33FDA28]  (AR v2) s S(t }$  
音轨 10  精确地校准抓取  5)  [812DBF9E]  (AR v2) IV*@}~BJ  
音轨 11  精确地校准抓取  5)  [328B2C07]  (AR v2) $Wt0e 4YSu  
音轨 12  精确地校准抓取  5)  [0A350F2C]  (AR v2) BK`NPC$a  
音轨 13  精确地校准抓取  5)  [47F7BAB5]  (AR v2) 81Ixs Qt  
音轨 14  精确地校准抓取  5)  [AE1BDA03]  (AR v2) \ldjWc<S  
0qP&hybL[(  
所有音轨精确校准抓取 >Y,3EI\  
qYpuo D   
状态报告结尾
s&(,_34  
'2)c;/-E  
链接:http://pan.baidu.com/s/1o8cTFUa 密码: }{FKs!(4  
此帖售价 10 金钱,已有 18 人购买 [记录] [购买]
购买后,将显示帖子中所有出售内容。
若发现会员采用欺骗的方法获取财富,请立刻举报,我们会对会员处以2-N倍的罚金,严重者封掉ID!
此段为出售的内容,购买后显示
发帖
*
金钱
*
威望
*
贡献值
*
交易币
*
只看该作者 1楼 发表于: 2016-05-29
感谢分享。
离线Mr灬W

发帖
1133
金钱
12947
威望
161
贡献值
56
交易币
1286
只看该作者 2楼 发表于: 2016-05-29
1981的… 感谢分享!
Heal The World
离线刘123伟

发帖
737
金钱
14941
威望
56
贡献值
15
交易币
798
只看该作者 3楼 发表于: 2016-05-29
很喜欢的一张现场专辑,感谢幽灵。
离线thelma66

发帖
618
金钱
27907
威望
285
贡献值
254
交易币
815
只看该作者 4楼 发表于: 2016-05-29
侧颜无敌

发帖
279
金钱
2386
威望
33
贡献值
12
交易币
328
只看该作者 5楼 发表于: 2016-05-30
姿瓷一个
离线小飛侠

发帖
34
金钱
2502
威望
15
贡献值
4
交易币
51
只看该作者 6楼 发表于: 2016-06-01
WOW感谢楼主的分享,很喜欢你的头像。
离线mich008

发帖
873
金钱
8504
威望
24
贡献值
15
交易币
935
只看该作者 7楼 发表于: 2016-06-01
专辑封面酷极了
离线lnzjjwzp

发帖
68
金钱
474
威望
40
贡献值
6
交易币
84
只看该作者 8楼 发表于: 2016-06-23
    
杰克逊是世界流行文化象征性的人物音乐之王
离线215516140

发帖
67
金钱
3
威望
16
贡献值
5
交易币
88
只看该作者 9楼 发表于: 2016-07-25
谢谢楼主一直在找这个
快速回复
限100 字节
 
上一个 下一个