论坛风格切换切换到宽版
  • 2103阅读
  • 18回复

[亲传][Album] 1986 The Jacksons Live (US - EGK 37545) - WAV整轨 ♬by幽灵 [复制链接]

上一主题 下一主题
离线mjghosts
 

发帖
8262
金钱
219666
威望
9187
贡献值
2734
交易币
4797
只看楼主 倒序阅读 楼主  发表于: 2016-05-29
— 本帖被 mjghosts 执行加亮操作(2016-05-29) —
*1986年发行的现场音频CD,抓取采取的是较后期的美国再版,音质应该还是很有保障的。完美精确校准抓轨! [1 9,&]z  
'ub@]ru|  
注:独家整理,转载请注明出处!EAC无损整轨(压缩包内含CD图片) ;x@~A^<el  
<3C*Z"aQ>|  
解压密码:www.mjsunny.com
DG:Z=LuJr  
D2B%0sfl~  
Tracklist GH:jH]u!V  
1.1 Opening 2:09 fN^8{w/O  
1.2 Can You Feel It 4:03 UJ7*j%XQz_  
2 Things I Do For You 3:38 kr:^tbJ  
3 Off The Wall 3:59 >T3-  
4 Ben 3:52 Z<y I\1  
5 This Place Hotel 4:39 s6v ;  
6 She's Out Of My Life 4:48 9gEwh<  
7 Movie And Rap 3:04 xU>WEm2  
8 Medley 2:58 NAQAU *yP  
9 I'll Be There 3:11 tI TS1  
10 Rock With You 3:57 bv9i*]  
11 Lovely One 6:28 %C'?@,7C  
12 Working Day And Night 6:53 @+M /&  
13 Don't Stop 'Til You Get Enough 4:21 }Qc@m9;bH  
14 Shake Your Body (Down To The Ground) 8:30
2d(e:r h]  
Ar|0b}=)>  
)!Z*.?  
cLJ$M`e  
 O67W&nz  
m6K}|j  
Exact Audio Copy V1.0 beta 6 from 9. April 2015 GPv1fearl  
9@:2wR |  
EAC 抓取日志文件从28. 三月 2016, 22:31 A_ZY=jP   
SrJGTuXg  
The Jacksons / Live v`x.)S1  
w<3#1/g!2B  
使用驱动器  :MATSHITADVD-RAM UJ890AS   Adapter: 1  ID: 1 +Q)XH>jh   
7"x;~X  
读取模式      : 可靠Secure  `25yE/  
使用精确流     : 是 [yQt^!;  
清空音频缓存    : 否 -3 *]G^y2  
使用 C2 指示器 : 是 Y\P8 v  
@b%=H/5\  
读取偏移校正:               : 102 l|[N42+  
读取 Lead-In 和 Lead-Out : 否 \*?~Yj #  
用静音填充抓取中丢失偏移的采样       : 是 jB2[(  
去除首尾静音块               : 否 ?l{nk5,?-Y  
在CRC 计算中使用了空样本       : 是 Bsvr?|L\  
已用接口                  : Win NT 及 2000 本地 Win32 接口 !Ai@$tl[S  
$6 f3F?y7  
所用输出模式: : 内部 WAV 函数 \R_C&=  
样本格式    : 44.100 Hz; 16 Bit; 立体声 l ymCH  
DvvK^+-~  
U Cjld  
已抓取 CD 的 TOC F)eelPZ+,  
Q~Wqy~tS  
     音轨 |    起始    |    长度    |  起始扇区  |  结束扇区   [ 4)F f  
    -------------------------------------------- M o|2}nf  
      1 |  0:00.00 |  6:05.10 |      0 |  27384 JxU5 fe  
      2 |  6:05.10 |  3:38.67 |  27385 |  43801 !&E-}}<  
      3 |  9:44.02 |  3:59.25 |  43802 |  61751 F!K>Kz  
      4 | 13:43.27 |  3:52.18 |  61752 |  79169 I]q% 2ie  
      5 | 17:35.45 |  4:39.72 |  79170 | 100166 k9F=8q  
      6 | 22:15.42 |  4:48.43 | 100167 | 121809 =2x^nW  
      7 | 27:04.10 |  3:04.62 | 121810 | 135671 ^<AwG=  
      8 | 30:08.72 |  2:57.40 | 135672 | 148986 Kc(FX%3LU  
      9 | 33:06.37 |  3:10.30 | 148987 | 163266 rrv%~giU  
     10 | 36:16.67 |  3:59.05 | 163267 | 181196 Du){rVY^d  
     11 | 40:15.72 |  6:28.20 | 181197 | 210316 hR|MEn6KC  
     12 | 46:44.17 |  6:53.68 | 210317 | 241359 X[TR3[1}  
     13 | 53:38.10 |  4:23.55 | 241360 | 261139 C"enpc_C/  
     14 | 58:01.65 |  8:31.35 | 261140 | 299499 M& CqSd  
C2)2)  
XBw)H  
范围状态及错误 !$>R j  
dcWD(-  
已选择范围 '(jG[ry&T  
{+Cy U!O  
     文件名 J:\12 Music*音乐\CDImage.wav y Fq&8 x<X  
t}tEvh  
     峰值电平 100.0 % CF5`-wj/#  
     抓取速度 6.8 X x{ WD;$J  
     范围质量 100.0 % %FIE\9  
     复制 CRC 39F14310 vTw>JNVI  
     复制成功 Aj+F |l  
(n9g kO&8"  
没有错误发生 :T !'N\7  
:$BCRQ  
oJ|j#+Ft  
AccurateRip 摘要 yT9@!]^L  
<.izVD4/Gg  
音轨  1  精确地校准抓取  5)  [3261D113]  (AR v2) 3/W'V,5G6  
音轨  2  精确地校准抓取  5)  [8E45F342]  (AR v2) ^)*-Bo)I  
音轨  3  精确地校准抓取  5)  [CD49306F]  (AR v2) J!pygn O  
音轨  4  精确地校准抓取  5)  [278B0F4F]  (AR v2) fnX`Q[b4\A  
音轨  5  精确地校准抓取  5)  [CA857919]  (AR v2) JJ2_hVU  
音轨  6  精确地校准抓取  5)  [0381F855]  (AR v2) hp7|m0.JW  
音轨  7  精确地校准抓取  5)  [35081F91]  (AR v2) X"e5 Y!:M-  
音轨  8  精确地校准抓取  5)  [02863731]  (AR v2) dq&yf7  
音轨  9  精确地校准抓取  5)  [C33FDA28]  (AR v2) (@<c6WS  
音轨 10  精确地校准抓取  5)  [812DBF9E]  (AR v2) : $Y9jR  
音轨 11  精确地校准抓取  5)  [328B2C07]  (AR v2) S=<}:#;u0  
音轨 12  精确地校准抓取  5)  [0A350F2C]  (AR v2) t.&Od;\[/  
音轨 13  精确地校准抓取  5)  [47F7BAB5]  (AR v2) TI#''XCB5  
音轨 14  精确地校准抓取  5)  [AE1BDA03]  (AR v2) T:Hr&ws4  
:x{NBvUIc  
所有音轨精确校准抓取 U.XNv-M  
r77PQQD T  
状态报告结尾
H nUYqhZS  
$Y_i4(  
链接:http://pan.baidu.com/s/1o8cTFUa 密码: t|<NI+H(e  
此帖售价 10 金钱,已有 17 人购买 [记录] [购买]
购买后,将显示帖子中所有出售内容。
若发现会员采用欺骗的方法获取财富,请立刻举报,我们会对会员处以2-N倍的罚金,严重者封掉ID!
此段为出售的内容,购买后显示
发帖
*
金钱
*
威望
*
贡献值
*
交易币
*
只看该作者 1楼 发表于: 2016-05-29
感谢分享。
离线Mr灬W

发帖
1130
金钱
12952
威望
161
贡献值
56
交易币
1283
只看该作者 2楼 发表于: 2016-05-29
1981的… 感谢分享!
Heal The World
离线刘123伟

发帖
730
金钱
14895
威望
56
贡献值
15
交易币
791
只看该作者 3楼 发表于: 2016-05-29
很喜欢的一张现场专辑,感谢幽灵。
离线thelma66

发帖
618
金钱
27907
威望
285
贡献值
254
交易币
815
只看该作者 4楼 发表于: 2016-05-29
侧颜无敌

发帖
277
金钱
2452
威望
33
贡献值
12
交易币
326
只看该作者 5楼 发表于: 2016-05-30
姿瓷一个
离线小飛侠

发帖
34
金钱
2502
威望
15
贡献值
4
交易币
51
只看该作者 6楼 发表于: 2016-06-01
WOW感谢楼主的分享,很喜欢你的头像。
离线mich008

发帖
859
金钱
6987
威望
24
贡献值
15
交易币
921
只看该作者 7楼 发表于: 2016-06-01
专辑封面酷极了
离线lnzjjwzp

发帖
68
金钱
474
威望
40
贡献值
6
交易币
84
只看该作者 8楼 发表于: 2016-06-23
    
杰克逊是世界流行文化象征性的人物音乐之王
离线215516140

发帖
66
金钱
22
威望
16
贡献值
5
交易币
87
只看该作者 9楼 发表于: 2016-07-25
谢谢楼主一直在找这个
快速回复
限100 字节
 
上一个 下一个