论坛风格切换切换到宽版
  • 571阅读
  • 9回复

[亲传][Single] 1992 In The Closet (Mixes Behind Door #1) (JP - ESCA 5610) - WAV整轨 ♬by幽灵 [复制链接]

上一主题 下一主题
离线mjghosts
 

发帖
8258
金钱
212473
威望
9166
贡献值
2715
交易币
4709
只看楼主 倒序阅读 楼主  发表于: 2016-07-31
— 本帖被 mjghosts 执行加亮操作(2016-07-31) —
*日本本土发行,共3辑,此为第1辑,橙色封面。* WGK::?  
*@^0xz{\z  
注:独家整理,转载请注明出处!EAC无损整轨(压缩包内含CD图片) E(#2/E6  
z(qz(`eGC&  
解压密码:www.mjsunny.com
A\Gw+l<h,  
8),Y|4  
Tracklist <5%We(3  
1 In The Closet (Club Mix) 7:55 ,d#4Ib  
2 In The Closet (The Underground Mix) 5:34 |~Iw   
3 In The Closet (Touch Me Dub) 7:55 ! ZEKvW  
4 In The Closet (KI's 12") 6:57 It[~0?+  
[Wc 73-  
n^K]R}S  
aF:LL>H  
?jbam! A  
s6I]H  
y4') !e  
Exact Audio Copy V1.0 beta 6 from 9. April 2015 %}/)_RzQ  
aozk,{9-  
EAC 抓取日志文件从29. 七月 2016, 7:37 08Q:1 '  
bWqGy pq4  
Michael Jackson / In The Closet (Mixes Behind Door #1) aD4ln]sFxG  
z"<PveVo  
使用驱动器  :MATSHITADVD-RAM UJ890AS   Adapter: 1  ID: 1 hm& ~6rB  
;j$84o{  
读取模式      : 可靠Secure P5N"7/PfW  
使用精确流     : 是 W?@ ;(k  
清空音频缓存    : 否 ,yB-jk?  
使用 C2 指示器 : 是 o*<(,I%  
iB\d `NUf  
读取偏移校正:               : 102 8J)x>6  
读取 Lead-In 和 Lead-Out : 否 Fr3Q"(  
用静音填充抓取中丢失偏移的采样       : 是 a1?Y7(alPU  
去除首尾静音块               : 否 [x@iqFO9  
在CRC 计算中使用了空样本       : 是 M,l Ib9  
已用接口                  : Win NT 及 2000 本地 Win32 接口 ~V(WD;Mk  
ZVI.s U  
所用输出模式: : 内部 WAV 函数 /H}83 C  
样本格式    : 44.100 Hz; 16 Bit; 立体声 htIV`_<Ro  
si)920?E&  
q4Q1Ib-<2  
已抓取 CD 的 TOC BsR xD9r  
NCBS=L:  
     音轨 |    起始    |    长度    |  起始扇区  |  结束扇区   Fj|C+;Q.  
    -------------------------------------------- mI@]{K}Q%  
      1 |  0:00.00 |  8:03.07 |      0 |  36231 _r&`[@m  
      2 |  8:03.07 |  5:40.13 |  36232 |  61744 a*! wiTGf  
      3 | 13:43.20 |  6:42.32 |  61745 |  91926 Fd9ypZs  
      4 | 20:25.52 |  7:15.73 |  91927 | 124624 P;{f+I|`  
`VwZDU~6  
8:TN,p  
范围状态及错误 FY@ErA7~  
s,)Z8H  
已选择范围 3{O^q/R  
sEm-Td+A5  
     文件名 J:\12 Music*音乐\CDImage.wav Ko|nF-r_  
2x<,R/}  
     峰值电平 100.0 % JTA65T{3  
     抓取速度 5.3 X Ii FeO  
     范围质量 100.0 % 7u73v+9qn:  
     复制 CRC 87A7421D 4+I@   
     复制成功 cNOtfn6?F  
i[_B~/_  
没有错误发生  i;B &~  
S\5%nz \  
89n\$7Ff9  
AccurateRip 摘要 6.5E d-  
8_$[SV$q  
音轨  1  精确地校准抓取  3)  [6D055A34]  (AR v2) b:B+x6M  
音轨  2  精确地校准抓取  3)  [8E42AEA6]  (AR v2) =1#obB  
音轨  3  精确地校准抓取  3)  [BC86C713]  (AR v2) Rp^fY_  
音轨  4  精确地校准抓取  3)  [17BA3D87]  (AR v2) 2P, %}Ms  
xqSoE[<v  
所有音轨精确校准抓取 R1 C}S  
e@h (Zwp  
状态报告结尾
~n=oPm$pR  
t 7-6A  
链接:http://pan.baidu.com/s/1o8EQM2Q 密码: eC{St0  
此帖售价 19 金钱,已有 7 人购买 [记录] [购买]
购买后,将显示帖子中所有出售内容。
若发现会员采用欺骗的方法获取财富,请立刻举报,我们会对会员处以2-N倍的罚金,严重者封掉ID!
此段为出售的内容,购买后显示
4^Ke? ;v  
离线小李

发帖
225
金钱
150
威望
99
贡献值
8
交易币
197
只看该作者 1楼 发表于: 2016-08-01
IN THE CLOSET的MIX是很多的
离线小李

发帖
225
金钱
150
威望
99
贡献值
8
交易币
197
只看该作者 2楼 发表于: 2016-08-03
共3辑,此为第1辑 UV;I6]$}A7  
b}7g>  
期待2 3

发帖
2708
金钱
28329
威望
619
贡献值
36
交易币
357
只看该作者 3楼 发表于: 2016-08-13
感谢分享

离线lifan_npl

发帖
2156
金钱
17106
威望
782
贡献值
347
交易币
2509
只看该作者 4楼 发表于: 2016-08-24
谢谢分享和整理  辛苦了
我的淘宝:
http://shop63152617.taobao.com  
离线flash

发帖
231
金钱
78
威望
81
贡献值
0
交易币
231
只看该作者 5楼 发表于: 2016-08-31
IN THE CLOSET的MIX是很多的
离线mjnet

发帖
375
金钱
30482
威望
104
贡献值
54
交易币
552
只看该作者 6楼 发表于: 02-08
非常罕見!!
离线mjnet

发帖
375
金钱
30482
威望
104
贡献值
54
交易币
552
只看该作者 7楼 发表于: 02-08
謝謝!!日版的音質棒!!
离线肯尼

发帖
953
金钱
6774
威望
431
贡献值
228
交易币
1438
只看该作者 8楼 发表于: 09-10
多谢分享
顺势待发张元穹 Kenny Saxton @肯尼 & 齐奕同Michael Qi @迈颤我栗
2014年6月25日 合辑 火热制作中
2014 MJFantastics Music International Ltd.
离线mjlove98

发帖
2130
金钱
5008
威望
209
贡献值
62
交易币
1907
只看该作者 9楼 发表于: 10-04
Re:[Single] 1992 In The Closet (Mixes Behind Door #1) (JP - ESCA 5610) - WAV整轨 ?by幽灵
感谢分享
快速回复
限100 字节
 
上一个 下一个