论坛风格切换切换到宽版
  • 865阅读
  • 9回复

[亲传][Single] 1992 In The Closet (Mixes Behind Door #1) (JP - ESCA 5610) - WAV整轨 ♬by幽灵 [复制链接]

上一主题 下一主题
离线mjghosts
 

发帖
8244
金钱
217720
威望
9174
贡献值
2723
交易币
4755
只看楼主 倒序阅读 楼主  发表于: 2016-07-31
— 本帖被 mjghosts 执行加亮操作(2016-07-31) —
*日本本土发行,共3辑,此为第1辑,橙色封面。* P=ARttT`(  
6.fahg?E  
注:独家整理,转载请注明出处!EAC无损整轨(压缩包内含CD图片) e [D'0L  
rw*#ta O  
解压密码:www.mjsunny.com
FBfyW- 7  
7X|M\WUq  
Tracklist <fY<.X  
1 In The Closet (Club Mix) 7:55 "Q*Z?6[Z  
2 In The Closet (The Underground Mix) 5:34 XK:KWqW  
3 In The Closet (Touch Me Dub) 7:55 Q}!U4!{i|p  
4 In The Closet (KI's 12") 6:57 uQ9/7"S  
i>bFQ1Rdx  
o{\@7'G  
"42u0rH0J  
{]-nYHGL  
^r=#HQGt  
 6<A\U/  
Exact Audio Copy V1.0 beta 6 from 9. April 2015 {rOz[E9vm  
F!{N4X>%T  
EAC 抓取日志文件从29. 七月 2016, 7:37 #UU}lG  
-GP+e`d  
Michael Jackson / In The Closet (Mixes Behind Door #1) %{/0K<M  
^f!d8 V  
使用驱动器  :MATSHITADVD-RAM UJ890AS   Adapter: 1  ID: 1 wlKpHd*  
1; L!g*!E  
读取模式      : 可靠Secure snj4MA@I]  
使用精确流     : 是 C&Nd|c  
清空音频缓存    : 否 k1-?2kf"{  
使用 C2 指示器 : 是 {br4B7b  
O";r\Z  
读取偏移校正:               : 102 HdWghxz?)  
读取 Lead-In 和 Lead-Out : 否 1ygu>sKS&A  
用静音填充抓取中丢失偏移的采样       : 是 MzK&Jh  
去除首尾静音块               : 否 jIdhmd* $z  
在CRC 计算中使用了空样本       : 是 5+3Z?|b  
已用接口                  : Win NT 及 2000 本地 Win32 接口 \UB<'~z6!  
~q|^z[7  
所用输出模式: : 内部 WAV 函数 Ii|<:BW  
样本格式    : 44.100 Hz; 16 Bit; 立体声 >{GC@Cw  
3U:0,-j"  
(x=NA )  
已抓取 CD 的 TOC V l9\&EL  
=ARI*  
     音轨 |    起始    |    长度    |  起始扇区  |  结束扇区   4L5Wa~5\  
    -------------------------------------------- Bq@G@Qi  
      1 |  0:00.00 |  8:03.07 |      0 |  36231 u-k*[!JU  
      2 |  8:03.07 |  5:40.13 |  36232 |  61744 Z)?"pBv'  
      3 | 13:43.20 |  6:42.32 |  61745 |  91926 e94csTh=  
      4 | 20:25.52 |  7:15.73 |  91927 | 124624 zR`]8E]  
E26ZVFg  
8\ :T*u3  
范围状态及错误 m*a0V  
P|64wq{B8  
已选择范围 9vVYZ}HC  
:K W   
     文件名 J:\12 Music*音乐\CDImage.wav )FgcNB1|7  
RX#:27:  
     峰值电平 100.0 % 5 kQC  
     抓取速度 5.3 X E?%rmdyhL!  
     范围质量 100.0 % .,feRK>3  
     复制 CRC 87A7421D nww,y  
     复制成功 3M/kfy  
_PQQ&e)E  
没有错误发生 8*6U4R  
8)'OXR0/  
+>Y2luR1  
AccurateRip 摘要 >pUR>?t"  
`l'z#\  
音轨  1  精确地校准抓取  3)  [6D055A34]  (AR v2) g-Vxl|hR  
音轨  2  精确地校准抓取  3)  [8E42AEA6]  (AR v2) ? 0p_/mZ  
音轨  3  精确地校准抓取  3)  [BC86C713]  (AR v2) -QN1= G4  
音轨  4  精确地校准抓取  3)  [17BA3D87]  (AR v2) `zw XfY,%  
]{s0/(EA  
所有音轨精确校准抓取 Je5}Z.3m  
xhK8Q  
状态报告结尾
%<8`(Uu5  
+ fS<YT  
链接:http://pan.baidu.com/s/1o8EQM2Q 密码: lonV_Xx  
此帖售价 19 金钱,已有 7 人购买 [记录] [购买]
购买后,将显示帖子中所有出售内容。
若发现会员采用欺骗的方法获取财富,请立刻举报,我们会对会员处以2-N倍的罚金,严重者封掉ID!
此段为出售的内容,购买后显示
@GUlw[vi  
离线小李

发帖
236
金钱
1405
威望
9
贡献值
8
交易币
208
只看该作者 1楼 发表于: 2016-08-01
IN THE CLOSET的MIX是很多的
离线小李

发帖
236
金钱
1405
威望
9
贡献值
8
交易币
208
只看该作者 2楼 发表于: 2016-08-03
共3辑,此为第1辑 /{M<FVXK+|  
Z!p\=M,%  
期待2 3

发帖
2735
金钱
31355
威望
620
贡献值
37
交易币
388
只看该作者 3楼 发表于: 2016-08-13
感谢分享

离线lifan_npl

发帖
2189
金钱
19354
威望
816
贡献值
395
交易币
2550
只看该作者 4楼 发表于: 2016-08-24
谢谢分享和整理  辛苦了
我的淘宝:
http://shop63152617.taobao.com  
离线flash

发帖
236
金钱
0
威望
81
贡献值
0
交易币
236
只看该作者 5楼 发表于: 2016-08-31
IN THE CLOSET的MIX是很多的
离线mjnet

发帖
380
金钱
30479
威望
104
贡献值
54
交易币
557
只看该作者 6楼 发表于: 2017-02-08
非常罕見!!
离线mjnet

发帖
380
金钱
30479
威望
104
贡献值
54
交易币
557
只看该作者 7楼 发表于: 2017-02-08
謝謝!!日版的音質棒!!
离线肯尼

发帖
955
金钱
7435
威望
431
贡献值
228
交易币
1440
只看该作者 8楼 发表于: 2017-09-10
多谢分享
顺势待发张元穹 Kenny Saxton @肯尼 & 齐奕同Michael Qi @迈颤我栗
2014年6月25日 合辑 火热制作中
2014 MJFantastics Music International Ltd.
离线mjlove98

发帖
2559
金钱
5237
威望
197
贡献值
123
交易币
2637
只看该作者 9楼 发表于: 2017-10-04
Re:[Single] 1992 In The Closet (Mixes Behind Door #1) (JP - ESCA 5610) - WAV整轨 ?by幽灵
感谢分享
快速回复
限100 字节
 
上一个 下一个