论坛风格切换切换到宽版
  • 715阅读
  • 9回复

[亲传][Single] 1992 In The Closet (Mixes Behind Door #1) (JP - ESCA 5610) - WAV整轨 ♬by幽灵 [复制链接]

上一主题 下一主题
离线mjghosts
 

发帖
8240
金钱
216247
威望
9172
贡献值
2721
交易币
4743
只看楼主 倒序阅读 楼主  发表于: 2016-07-31
— 本帖被 mjghosts 执行加亮操作(2016-07-31) —
*日本本土发行,共3辑,此为第1辑,橙色封面。* ?!jJxhK<h  
0wNlt#G;{  
注:独家整理,转载请注明出处!EAC无损整轨(压缩包内含CD图片) =^rp= Az  
ttJ'6lGXh  
解压密码:www.mjsunny.com
S .x>w/  
E:/!]sm!  
Tracklist ,4'y(X<R  
1 In The Closet (Club Mix) 7:55 vxk0@k_  
2 In The Closet (The Underground Mix) 5:34 b+ycEs=_  
3 In The Closet (Touch Me Dub) 7:55 <a=OiY  
4 In The Closet (KI's 12") 6:57 y>E:]#F  
cH5  
sxRKWM@4  
Ths~8{dMb  
"HqmS  
e>c -b^{&  
}xBO;  
Exact Audio Copy V1.0 beta 6 from 9. April 2015 pnp8`\cIH  
V;CRs\aYf  
EAC 抓取日志文件从29. 七月 2016, 7:37 E.Th}+  
QbSLSMoL  
Michael Jackson / In The Closet (Mixes Behind Door #1) b5]<!~Fv:`  
N Czabl  
使用驱动器  :MATSHITADVD-RAM UJ890AS   Adapter: 1  ID: 1 ~}ifwm'7 a  
a[j]fv*6  
读取模式      : 可靠Secure bk=;=K  
使用精确流     : 是 >jTiYJI_M  
清空音频缓存    : 否 o2$A2L9P  
使用 C2 指示器 : 是 jp~Tlomp  
(yuOY/~k/  
读取偏移校正:               : 102 ]xb2W~  
读取 Lead-In 和 Lead-Out : 否 G#NbLj`h  
用静音填充抓取中丢失偏移的采样       : 是 vg X7B4  
去除首尾静音块               : 否 Wq1OYZ,  
在CRC 计算中使用了空样本       : 是 fh1-]$z`~  
已用接口                  : Win NT 及 2000 本地 Win32 接口 xi ,fm  
4wEkxCWp/  
所用输出模式: : 内部 WAV 函数 E"/k"1@  
样本格式    : 44.100 Hz; 16 Bit; 立体声 +yk0ez  
Aq'~'hS`1  
pD~."fb  
已抓取 CD 的 TOC Gcxz$.(  
u-.nR}DM_  
     音轨 |    起始    |    长度    |  起始扇区  |  结束扇区    aqi]5,  
    -------------------------------------------- aE:$ N#|Qa  
      1 |  0:00.00 |  8:03.07 |      0 |  36231 Vm I Afe  
      2 |  8:03.07 |  5:40.13 |  36232 |  61744 rC/z8m3z  
      3 | 13:43.20 |  6:42.32 |  61745 |  91926 a?W<<9]  
      4 | 20:25.52 |  7:15.73 |  91927 | 124624 uSxldc  
$ 93j;  
!(j<Y0xo:  
范围状态及错误 (~PT(B?  
{q);1Nnf  
已选择范围 U[ogtfv`m  
[F,s=,S'M  
     文件名 J:\12 Music*音乐\CDImage.wav M^/ZpKeT"  
4(8BWP~.y2  
     峰值电平 100.0 % R\u5!M$::  
     抓取速度 5.3 X [O3)s]|  
     范围质量 100.0 % !WD^To  
     复制 CRC 87A7421D 7{OD/*|  
     复制成功 05YsLNh  
+,4u1`c|$  
没有错误发生 ?T>)7Y)  
W`jKe-jF  
AhNz[A  
AccurateRip 摘要 34aSRFsk*  
WWVQJ{,}  
音轨  1  精确地校准抓取  3)  [6D055A34]  (AR v2) _j\ 8u`^n  
音轨  2  精确地校准抓取  3)  [8E42AEA6]  (AR v2)  75T+6 u  
音轨  3  精确地校准抓取  3)  [BC86C713]  (AR v2) d PF*G$  
音轨  4  精确地校准抓取  3)  [17BA3D87]  (AR v2) `_<O _  
:}Z Y*ind  
所有音轨精确校准抓取 Wf-Pa9  
x UTlM  
状态报告结尾
/*m6-DC  
4siq  
链接:http://pan.baidu.com/s/1o8EQM2Q 密码: #c`/ f6z  
此帖售价 19 金钱,已有 7 人购买 [记录] [购买]
购买后,将显示帖子中所有出售内容。
若发现会员采用欺骗的方法获取财富,请立刻举报,我们会对会员处以2-N倍的罚金,严重者封掉ID!
此段为出售的内容,购买后显示
HXQ } B$V  
离线小李

发帖
232
金钱
230
威望
99
贡献值
8
交易币
204
只看该作者 1楼 发表于: 2016-08-01
IN THE CLOSET的MIX是很多的
离线小李

发帖
232
金钱
230
威望
99
贡献值
8
交易币
204
只看该作者 2楼 发表于: 2016-08-03
共3辑,此为第1辑 t= oTU,<  
~",,&>#[K  
期待2 3

发帖
2729
金钱
31485
威望
620
贡献值
37
交易币
382
只看该作者 3楼 发表于: 2016-08-13
感谢分享

离线lifan_npl

发帖
2173
金钱
16819
威望
782
贡献值
347
交易币
2526
只看该作者 4楼 发表于: 2016-08-24
谢谢分享和整理  辛苦了
我的淘宝:
http://shop63152617.taobao.com  
离线flash

发帖
236
金钱
9429
威望
81
贡献值
0
交易币
236
只看该作者 5楼 发表于: 2016-08-31
IN THE CLOSET的MIX是很多的
离线mjnet

发帖
380
金钱
30464
威望
104
贡献值
54
交易币
557
只看该作者 6楼 发表于: 2017-02-08
非常罕見!!
离线mjnet

发帖
380
金钱
30464
威望
104
贡献值
54
交易币
557
只看该作者 7楼 发表于: 2017-02-08
謝謝!!日版的音質棒!!
离线肯尼

发帖
953
金钱
7175
威望
431
贡献值
228
交易币
1438
只看该作者 8楼 发表于: 2017-09-10
多谢分享
顺势待发张元穹 Kenny Saxton @肯尼 & 齐奕同Michael Qi @迈颤我栗
2014年6月25日 合辑 火热制作中
2014 MJFantastics Music International Ltd.
离线mjlove98

发帖
2519
金钱
5963
威望
198
贡献值
122
交易币
2593
只看该作者 9楼 发表于: 2017-10-04
Re:[Single] 1992 In The Closet (Mixes Behind Door #1) (JP - ESCA 5610) - WAV整轨 ?by幽灵
感谢分享
快速回复
限100 字节
 
上一个 下一个