论坛风格切换切换到宽版
  • 866阅读
  • 9回复

[亲传][Single] 1992 In The Closet (Mixes Behind Door #1) (JP - ESCA 5610) - WAV整轨 ♬by幽灵 [复制链接]

上一主题 下一主题
离线mjghosts
 

发帖
8244
金钱
217720
威望
9174
贡献值
2723
交易币
4755
只看楼主 倒序阅读 楼主  发表于: 2016-07-31
— 本帖被 mjghosts 执行加亮操作(2016-07-31) —
*日本本土发行,共3辑,此为第1辑,橙色封面。* Lo Y*,Aa&  
&T ^bv*P  
注:独家整理,转载请注明出处!EAC无损整轨(压缩包内含CD图片) ^; }Y ZBy  
91nB?8ZE6,  
解压密码:www.mjsunny.com
&m]jYvRc  
YY$Z-u(  
Tracklist Uc ; S@  
1 In The Closet (Club Mix) 7:55 aZ|S$-}  
2 In The Closet (The Underground Mix) 5:34 U'Y,T$Q  
3 In The Closet (Touch Me Dub) 7:55 A6E~GJa  
4 In The Closet (KI's 12") 6:57 |TF6&$>d  
{d)L0KXK  
{h.j6  
)wdd"*hv  
nyOmNvZf  
`_]UlI_h  
,,Ivey!kL  
Exact Audio Copy V1.0 beta 6 from 9. April 2015 _kBx2>qQ  
^oClf(  
EAC 抓取日志文件从29. 七月 2016, 7:37 U8,pe;/ln`  
Lzcea+*uw  
Michael Jackson / In The Closet (Mixes Behind Door #1) IABF_GwF  
::-*~CH)  
使用驱动器  :MATSHITADVD-RAM UJ890AS   Adapter: 1  ID: 1 Oq)7XL4  
K}'?#a(aX=  
读取模式      : 可靠Secure j[dgY1yE:  
使用精确流     : 是 q0NToVo@  
清空音频缓存    : 否 Z'|k M!  
使用 C2 指示器 : 是 iO2jT+i  
%joU}G;"  
读取偏移校正:               : 102 432]yhQ  
读取 Lead-In 和 Lead-Out : 否 M|{NC`fa  
用静音填充抓取中丢失偏移的采样       : 是 M Ih\z7gW  
去除首尾静音块               : 否 S,Tc\}  
在CRC 计算中使用了空样本       : 是 KKWv V4u  
已用接口                  : Win NT 及 2000 本地 Win32 接口 2. v<pqn  
9Hd_sNUu\  
所用输出模式: : 内部 WAV 函数 Cl{Ar8d}  
样本格式    : 44.100 Hz; 16 Bit; 立体声 %Y>E  
LWhP d\  
/'b7q y  
已抓取 CD 的 TOC M>}_2G]#F  
oYt 34@{?  
     音轨 |    起始    |    长度    |  起始扇区  |  结束扇区   e[0"x. gu  
    -------------------------------------------- /bPs0>5  
      1 |  0:00.00 |  8:03.07 |      0 |  36231 [m%]C  
      2 |  8:03.07 |  5:40.13 |  36232 |  61744 F\L!.B  
      3 | 13:43.20 |  6:42.32 |  61745 |  91926 -'SA &[7dP  
      4 | 20:25.52 |  7:15.73 |  91927 | 124624 1j:aGj>{  
7D4tuXUq2  
D W^Zuu/)  
范围状态及错误 - l^3>!MAM  
_53~D=  
已选择范围 eZN"t~\rX  
Z7RBJK7|.  
     文件名 J:\12 Music*音乐\CDImage.wav l{>j8Ln  
-Ou.C7ol  
     峰值电平 100.0 % I "~.p='  
     抓取速度 5.3 X !hhL",  
     范围质量 100.0 % XW" 0:}`J  
     复制 CRC 87A7421D ``Q6R2[|)  
     复制成功 $ VP1(C  
]MosiMJF  
没有错误发生 ACdPF_Y]  
n]ba1t8ZA  
t'l4$}(  
AccurateRip 摘要 DylO;+  
h<`aL;.g  
音轨  1  精确地校准抓取  3)  [6D055A34]  (AR v2) H.@$#D  
音轨  2  精确地校准抓取  3)  [8E42AEA6]  (AR v2) EIg~^xK  
音轨  3  精确地校准抓取  3)  [BC86C713]  (AR v2) q[,p#uJ]  
音轨  4  精确地校准抓取  3)  [17BA3D87]  (AR v2) H@=oVyn/  
,PTM'O@aU#  
所有音轨精确校准抓取 ~oa}gJl:}-  
?,>3uD#  
状态报告结尾
\9)5b8  
wUv?;Y$C  
链接:http://pan.baidu.com/s/1o8EQM2Q 密码: im2mA8OH  
此帖售价 19 金钱,已有 7 人购买 [记录] [购买]
购买后,将显示帖子中所有出售内容。
若发现会员采用欺骗的方法获取财富,请立刻举报,我们会对会员处以2-N倍的罚金,严重者封掉ID!
此段为出售的内容,购买后显示
l{{,D57J  
离线小李

发帖
236
金钱
1405
威望
9
贡献值
8
交易币
208
只看该作者 1楼 发表于: 2016-08-01
IN THE CLOSET的MIX是很多的
离线小李

发帖
236
金钱
1405
威望
9
贡献值
8
交易币
208
只看该作者 2楼 发表于: 2016-08-03
共3辑,此为第1辑 8o+:|V~X  
<pV8 +V)  
期待2 3

发帖
2735
金钱
31355
威望
620
贡献值
37
交易币
388
只看该作者 3楼 发表于: 2016-08-13
感谢分享

离线lifan_npl

发帖
2189
金钱
19354
威望
816
贡献值
395
交易币
2550
只看该作者 4楼 发表于: 2016-08-24
谢谢分享和整理  辛苦了
我的淘宝:
http://shop63152617.taobao.com  
离线flash

发帖
236
金钱
0
威望
81
贡献值
0
交易币
236
只看该作者 5楼 发表于: 2016-08-31
IN THE CLOSET的MIX是很多的
离线mjnet

发帖
380
金钱
30479
威望
104
贡献值
54
交易币
557
只看该作者 6楼 发表于: 2017-02-08
非常罕見!!
离线mjnet

发帖
380
金钱
30479
威望
104
贡献值
54
交易币
557
只看该作者 7楼 发表于: 2017-02-08
謝謝!!日版的音質棒!!
离线肯尼

发帖
955
金钱
7435
威望
431
贡献值
228
交易币
1440
只看该作者 8楼 发表于: 2017-09-10
多谢分享
顺势待发张元穹 Kenny Saxton @肯尼 & 齐奕同Michael Qi @迈颤我栗
2014年6月25日 合辑 火热制作中
2014 MJFantastics Music International Ltd.
离线mjlove98

发帖
2559
金钱
5237
威望
197
贡献值
123
交易币
2637
只看该作者 9楼 发表于: 2017-10-04
Re:[Single] 1992 In The Closet (Mixes Behind Door #1) (JP - ESCA 5610) - WAV整轨 ?by幽灵
感谢分享
快速回复
限100 字节
 
上一个 下一个