论坛风格切换切换到宽版
  • 716阅读
  • 9回复

[亲传][Single] 1992 In The Closet (Mixes Behind Door #1) (JP - ESCA 5610) - WAV整轨 ♬by幽灵 [复制链接]

上一主题 下一主题
离线mjghosts
 

发帖
8240
金钱
216247
威望
9172
贡献值
2721
交易币
4743
只看楼主 倒序阅读 楼主  发表于: 2016-07-31
— 本帖被 mjghosts 执行加亮操作(2016-07-31) —
*日本本土发行,共3辑,此为第1辑,橙色封面。* K}~$h,n  
-@W9+Zf5  
注:独家整理,转载请注明出处!EAC无损整轨(压缩包内含CD图片) h0GoF A<  
3db{Tcn\@]  
解压密码:www.mjsunny.com
=kjKK  
+#}GmUwPG$  
Tracklist S$6|K Y u  
1 In The Closet (Club Mix) 7:55 =$>=EBH,cm  
2 In The Closet (The Underground Mix) 5:34 pGbfdX  
3 In The Closet (Touch Me Dub) 7:55 }V?m =y [  
4 In The Closet (KI's 12") 6:57 !b8V&<  
3]Z1kB  
L*@`i ]jl  
LUOjaX  
r $7.  
Y.^L^ "%dF  
Y:^hd809  
Exact Audio Copy V1.0 beta 6 from 9. April 2015 *PJH&g#Ge  
Sj+H{xJi  
EAC 抓取日志文件从29. 七月 2016, 7:37 qu=~\t1[6  
2Q^ q$@L  
Michael Jackson / In The Closet (Mixes Behind Door #1) &<&tdShI  
Cbbdq%ySI  
使用驱动器  :MATSHITADVD-RAM UJ890AS   Adapter: 1  ID: 1 bz*@[NQ  
]U?nYppV  
读取模式      : 可靠Secure (zhZ}C,VF  
使用精确流     : 是 D  T5d]MU  
清空音频缓存    : 否 "~r<ZG  
使用 C2 指示器 : 是 ,&[o:jTk  
5i br1zs  
读取偏移校正:               : 102 s_^`t+5  
读取 Lead-In 和 Lead-Out : 否 @&jR^`Y.  
用静音填充抓取中丢失偏移的采样       : 是 z~{08M7  
去除首尾静音块               : 否 #JUh"8N'  
在CRC 计算中使用了空样本       : 是 >~g-  
已用接口                  : Win NT 及 2000 本地 Win32 接口 oc?|"  
,e'r 0  
所用输出模式: : 内部 WAV 函数 'IU3Xu[-.  
样本格式    : 44.100 Hz; 16 Bit; 立体声 @tT`s^e  
>{AE@@PB^  
k7uX!}  
已抓取 CD 的 TOC & n*ga$Q  
xst-zfkH`  
     音轨 |    起始    |    长度    |  起始扇区  |  结束扇区   ^a qQw u  
    -------------------------------------------- [__P-h{J  
      1 |  0:00.00 |  8:03.07 |      0 |  36231 &q&z$Gc;m  
      2 |  8:03.07 |  5:40.13 |  36232 |  61744 $c*fbBM(&n  
      3 | 13:43.20 |  6:42.32 |  61745 |  91926 xM{[~Kh_x  
      4 | 20:25.52 |  7:15.73 |  91927 | 124624 6l,6k~Z9  
pPxgjX  
uv5NqL&  
范围状态及错误 mR2"dq;U  
;=2JbA+"G  
已选择范围 .`*;AT  
^0"fPG`  
     文件名 J:\12 Music*音乐\CDImage.wav Mg0ai6KD  
9k4z__Ke  
     峰值电平 100.0 % ']Czn._  
     抓取速度 5.3 X I+Y Z+  
     范围质量 100.0 % ]c\`EHN  
     复制 CRC 87A7421D g}?39?o4  
     复制成功 6."|m+D  
1@-l@ P  
没有错误发生 G=Xas"|  
# b3 14  
ju.`c->k"  
AccurateRip 摘要 UOe@R|79q  
S>[&]  
音轨  1  精确地校准抓取  3)  [6D055A34]  (AR v2) h-03]M#8=  
音轨  2  精确地校准抓取  3)  [8E42AEA6]  (AR v2) ?+]   
音轨  3  精确地校准抓取  3)  [BC86C713]  (AR v2) 0b=00./o  
音轨  4  精确地校准抓取  3)  [17BA3D87]  (AR v2) ;A?86o'?  
;0dl  
所有音轨精确校准抓取 JGlp7wro  
w\>@> *E>  
状态报告结尾
x qj@T^y  
jq[Q>"f  
链接:http://pan.baidu.com/s/1o8EQM2Q 密码: Q/l388'  
此帖售价 19 金钱,已有 7 人购买 [记录] [购买]
购买后,将显示帖子中所有出售内容。
若发现会员采用欺骗的方法获取财富,请立刻举报,我们会对会员处以2-N倍的罚金,严重者封掉ID!
此段为出售的内容,购买后显示
[58qC:  
离线小李

发帖
232
金钱
230
威望
99
贡献值
8
交易币
204
只看该作者 1楼 发表于: 2016-08-01
IN THE CLOSET的MIX是很多的
离线小李

发帖
232
金钱
230
威望
99
贡献值
8
交易币
204
只看该作者 2楼 发表于: 2016-08-03
共3辑,此为第1辑 D)tL}X$  
+o?;7  
期待2 3

发帖
2729
金钱
31485
威望
620
贡献值
37
交易币
382
只看该作者 3楼 发表于: 2016-08-13
感谢分享

离线lifan_npl

发帖
2173
金钱
16819
威望
782
贡献值
347
交易币
2526
只看该作者 4楼 发表于: 2016-08-24
谢谢分享和整理  辛苦了
我的淘宝:
http://shop63152617.taobao.com  
离线flash

发帖
236
金钱
9429
威望
81
贡献值
0
交易币
236
只看该作者 5楼 发表于: 2016-08-31
IN THE CLOSET的MIX是很多的
离线mjnet

发帖
380
金钱
30464
威望
104
贡献值
54
交易币
557
只看该作者 6楼 发表于: 2017-02-08
非常罕見!!
离线mjnet

发帖
380
金钱
30464
威望
104
贡献值
54
交易币
557
只看该作者 7楼 发表于: 2017-02-08
謝謝!!日版的音質棒!!
离线肯尼

发帖
953
金钱
7175
威望
431
贡献值
228
交易币
1438
只看该作者 8楼 发表于: 2017-09-10
多谢分享
顺势待发张元穹 Kenny Saxton @肯尼 & 齐奕同Michael Qi @迈颤我栗
2014年6月25日 合辑 火热制作中
2014 MJFantastics Music International Ltd.
离线mjlove98

发帖
2519
金钱
5963
威望
198
贡献值
122
交易币
2593
只看该作者 9楼 发表于: 2017-10-04
Re:[Single] 1992 In The Closet (Mixes Behind Door #1) (JP - ESCA 5610) - WAV整轨 ?by幽灵
感谢分享
快速回复
限100 字节
 
上一个 下一个