论坛风格切换切换到宽版
  • 572阅读
  • 9回复

[亲传][Single] 1992 In The Closet (Mixes Behind Door #1) (JP - ESCA 5610) - WAV整轨 ♬by幽灵 [复制链接]

上一主题 下一主题
离线mjghosts
 

发帖
8258
金钱
212473
威望
9166
贡献值
2715
交易币
4709
只看楼主 倒序阅读 楼主  发表于: 2016-07-31
— 本帖被 mjghosts 执行加亮操作(2016-07-31) —
*日本本土发行,共3辑,此为第1辑,橙色封面。* ]RQQg,|D  
>ea<6&!Ee  
注:独家整理,转载请注明出处!EAC无损整轨(压缩包内含CD图片) j+J)S1  
BJk\p.BVN  
解压密码:www.mjsunny.com
Ps.O.2Z5ZB  
t[F tIj6  
Tracklist l0u6nGkh  
1 In The Closet (Club Mix) 7:55 aM3%Mx?w  
2 In The Closet (The Underground Mix) 5:34 i3*?fMxhu)  
3 In The Closet (Touch Me Dub) 7:55 $ah, $B  
4 In The Closet (KI's 12") 6:57 brNe13d3~"  
& .+[~2  
X`:(-3T  
;MCv  
o]MQ)\ r  
c"H4/,F  
fbwo2qe@K  
Exact Audio Copy V1.0 beta 6 from 9. April 2015 p."pI Bd  
o&;+!Si@T  
EAC 抓取日志文件从29. 七月 2016, 7:37 //Hn[wEOh  
N~\1yQT  
Michael Jackson / In The Closet (Mixes Behind Door #1) 6rt.ec(  
#?!)-Q%  
使用驱动器  :MATSHITADVD-RAM UJ890AS   Adapter: 1  ID: 1 He)v:AH  
UG&/0{j5XV  
读取模式      : 可靠Secure N: d`L+tcc  
使用精确流     : 是 :~ zK0v"  
清空音频缓存    : 否 -AD3Pd|Y[  
使用 C2 指示器 : 是 ="d}:Jl  
~BrERUk  
读取偏移校正:               : 102 :f 1*-y  
读取 Lead-In 和 Lead-Out : 否 ~U~KUL|  
用静音填充抓取中丢失偏移的采样       : 是 l yF~E  
去除首尾静音块               : 否 jC@$D*"J  
在CRC 计算中使用了空样本       : 是 x: `oqbd  
已用接口                  : Win NT 及 2000 本地 Win32 接口 Q\<C9%a  
i!*w'[G->Y  
所用输出模式: : 内部 WAV 函数 K#%L6=t$<  
样本格式    : 44.100 Hz; 16 Bit; 立体声 58DkVQ6  
COH0aNp;  
aqQ YU5l4~  
已抓取 CD 的 TOC IlVz 5#R  
q6bi{L@/R  
     音轨 |    起始    |    长度    |  起始扇区  |  结束扇区   H!?Av$h`  
    -------------------------------------------- ^I4'7]n-  
      1 |  0:00.00 |  8:03.07 |      0 |  36231 [fx1H~T<  
      2 |  8:03.07 |  5:40.13 |  36232 |  61744 K1>X%f^  
      3 | 13:43.20 |  6:42.32 |  61745 |  91926 4[m})X2(  
      4 | 20:25.52 |  7:15.73 |  91927 | 124624 0zQ"5e?qy  
nr7#}pzo  
,cZhkXd  
范围状态及错误 ,I6jfXI4  
iO1ir+B\  
已选择范围 tpu2e*n-|  
p]h;M  
     文件名 J:\12 Music*音乐\CDImage.wav KuBN_bd  
x }\x3U  
     峰值电平 100.0 % Lx%*IE|c  
     抓取速度 5.3 X o>|&k]W/  
     范围质量 100.0 % 6/-]  
     复制 CRC 87A7421D ?^Gi;d5  
     复制成功 BF^dNgn+%K  
k1lo{jw`  
没有错误发生 Zv]'9,cbk  
mM9aT0_w  
5)5$h]Nz>  
AccurateRip 摘要 <OH{7>V  
sX@}4[)<&  
音轨  1  精确地校准抓取  3)  [6D055A34]  (AR v2) ,.kJF4s&  
音轨  2  精确地校准抓取  3)  [8E42AEA6]  (AR v2) zq6)jHfq.  
音轨  3  精确地校准抓取  3)  [BC86C713]  (AR v2) (himx8Uml2  
音轨  4  精确地校准抓取  3)  [17BA3D87]  (AR v2) 4wMZNa<Sx  
/0swrt.  
所有音轨精确校准抓取 qzj.N$9]  
f,|g|&C  
状态报告结尾
6b7c9n Z  
NXk~o!D  
链接:http://pan.baidu.com/s/1o8EQM2Q 密码: /-knqv  
此帖售价 19 金钱,已有 7 人购买 [记录] [购买]
购买后,将显示帖子中所有出售内容。
若发现会员采用欺骗的方法获取财富,请立刻举报,我们会对会员处以2-N倍的罚金,严重者封掉ID!
此段为出售的内容,购买后显示
4(91T  
离线小李

发帖
225
金钱
150
威望
99
贡献值
8
交易币
197
只看该作者 1楼 发表于: 2016-08-01
IN THE CLOSET的MIX是很多的
离线小李

发帖
225
金钱
150
威望
99
贡献值
8
交易币
197
只看该作者 2楼 发表于: 2016-08-03
共3辑,此为第1辑 I </P_:4G  
;pW8a?  
期待2 3

发帖
2708
金钱
28329
威望
619
贡献值
36
交易币
357
只看该作者 3楼 发表于: 2016-08-13
感谢分享

离线lifan_npl

发帖
2156
金钱
17106
威望
782
贡献值
347
交易币
2509
只看该作者 4楼 发表于: 2016-08-24
谢谢分享和整理  辛苦了
我的淘宝:
http://shop63152617.taobao.com  
离线flash

发帖
231
金钱
78
威望
81
贡献值
0
交易币
231
只看该作者 5楼 发表于: 2016-08-31
IN THE CLOSET的MIX是很多的
离线mjnet

发帖
375
金钱
30482
威望
104
贡献值
54
交易币
552
只看该作者 6楼 发表于: 02-08
非常罕見!!
离线mjnet

发帖
375
金钱
30482
威望
104
贡献值
54
交易币
552
只看该作者 7楼 发表于: 02-08
謝謝!!日版的音質棒!!
离线肯尼

发帖
953
金钱
6774
威望
431
贡献值
228
交易币
1438
只看该作者 8楼 发表于: 09-10
多谢分享
顺势待发张元穹 Kenny Saxton @肯尼 & 齐奕同Michael Qi @迈颤我栗
2014年6月25日 合辑 火热制作中
2014 MJFantastics Music International Ltd.
离线mjlove98

发帖
2130
金钱
5008
威望
209
贡献值
62
交易币
1907
只看该作者 9楼 发表于: 10-04
Re:[Single] 1992 In The Closet (Mixes Behind Door #1) (JP - ESCA 5610) - WAV整轨 ?by幽灵
感谢分享
快速回复
限100 字节
 
上一个 下一个