论坛风格切换切换到宽版
  • 497阅读
  • 8回复

[亲传][Single] 1992 In The Closet (Mixes Behind Door #1) (JP - ESCA 5610) - WAV整轨 ♬by幽灵 [复制链接]

上一主题 下一主题
离线mjghosts
 

发帖
8247
金钱
210534
威望
9164
贡献值
2715
交易币
4698
只看楼主 倒序阅读 楼主  发表于: 2016-07-31
— 本帖被 mjghosts 执行加亮操作(2016-07-31) —
*日本本土发行,共3辑,此为第1辑,橙色封面。* L+T7Ge q  
< 3*q) VT  
注:独家整理,转载请注明出处!EAC无损整轨(压缩包内含CD图片) S~ S>62  
{ D|ST2:E  
解压密码:www.mjsunny.com
c;-N RvVb  
;;XY&J  
Tracklist 7bRfkKD  
1 In The Closet (Club Mix) 7:55 B B'qbX3xK  
2 In The Closet (The Underground Mix) 5:34 0kls/^0,  
3 In The Closet (Touch Me Dub) 7:55 O'#;Ge/,  
4 In The Closet (KI's 12") 6:57 iyr8*L\  
FV aC8Kw  
 AW|SD  
AGS(ud{  
n <> ^cD  
\ISg6v{/  
f2SJ4"X  
Exact Audio Copy V1.0 beta 6 from 9. April 2015 *kTp(*K/7`  
c{?SFwgd  
EAC 抓取日志文件从29. 七月 2016, 7:37 3K/ tB1  
tf8xc  
Michael Jackson / In The Closet (Mixes Behind Door #1) ,1~zMzw^  
um_J%v6ER  
使用驱动器  :MATSHITADVD-RAM UJ890AS   Adapter: 1  ID: 1 ,2 W=/,5A  
+( afO ~9  
读取模式      : 可靠Secure ;PU'"MeB "  
使用精确流     : 是 >#l: ]T  
清空音频缓存    : 否 zks7wt]A  
使用 C2 指示器 : 是 -{9mctt/gE  
4e AMb  
读取偏移校正:               : 102 =mPe wx'  
读取 Lead-In 和 Lead-Out : 否 N|>JLZ>  
用静音填充抓取中丢失偏移的采样       : 是 4cPZGZ{U  
去除首尾静音块               : 否  |:x,|>/  
在CRC 计算中使用了空样本       : 是 /J/V1dC}]D  
已用接口                  : Win NT 及 2000 本地 Win32 接口 ){'<67dK  
DQP!e6Of  
所用输出模式: : 内部 WAV 函数 Y`eF9Im,  
样本格式    : 44.100 Hz; 16 Bit; 立体声 AH/o-$C&  
@{_X@Wv4iV  
UF-'(  
已抓取 CD 的 TOC .xmB8 R  
{^N,$,Ab.  
     音轨 |    起始    |    长度    |  起始扇区  |  结束扇区   Q(yg bT  
    -------------------------------------------- bCC &5b  
      1 |  0:00.00 |  8:03.07 |      0 |  36231 sH2xkUp  
      2 |  8:03.07 |  5:40.13 |  36232 |  61744 q5EkAh<PD|  
      3 | 13:43.20 |  6:42.32 |  61745 |  91926 n7Eh!<  
      4 | 20:25.52 |  7:15.73 |  91927 | 124624 L&:A59)1k  
iWr #H  
,98 F  
范围状态及错误 Vb JE zl  
:]Om4Q\-#  
已选择范围 yW7>5r  
=+DhLH}8  
     文件名 J:\12 Music*音乐\CDImage.wav 811QpYA  
8 E l hcs  
     峰值电平 100.0 % KY%qzq,n  
     抓取速度 5.3 X ;Q/1l=Bn  
     范围质量 100.0 % u` (yT<>H  
     复制 CRC 87A7421D N,VI55J:y>  
     复制成功 *(]ZdB_2  
6jm/y@|F!  
没有错误发生 ^x^(Rk}|  
=9p3^:S  
\ZE=WvnhZ  
AccurateRip 摘要 oY; C[X  
_nX8f &  
音轨  1  精确地校准抓取  3)  [6D055A34]  (AR v2) %yl17:h#  
音轨  2  精确地校准抓取  3)  [8E42AEA6]  (AR v2) I-Ut7W  
音轨  3  精确地校准抓取  3)  [BC86C713]  (AR v2) vr2PCG[~  
音轨  4  精确地校准抓取  3)  [17BA3D87]  (AR v2) DrxQ(yo}  
9zIqSjos"  
所有音轨精确校准抓取 ]bpgsW:Xu  
)E^4U 9v),  
状态报告结尾
mF jM6pmo  
YgS,5::SU  
链接:http://pan.baidu.com/s/1o8EQM2Q 密码: mo(>SnS<  
此帖售价 19 金钱,已有 6 人购买 [记录] [购买]
购买后,将显示帖子中所有出售内容。
若发现会员采用欺骗的方法获取财富,请立刻举报,我们会对会员处以2-N倍的罚金,严重者封掉ID!
此段为出售的内容,购买后显示
Dh?I   
离线小李

发帖
218
金钱
132
威望
98
贡献值
7
交易币
186
只看该作者 1楼 发表于: 2016-08-01
IN THE CLOSET的MIX是很多的
离线小李

发帖
218
金钱
132
威望
98
贡献值
7
交易币
186
只看该作者 2楼 发表于: 2016-08-03
共3辑,此为第1辑 8j>V?'Szk  
&$|~",  
期待2 3

发帖
2658
金钱
28594
威望
617
贡献值
34
交易币
299
只看该作者 3楼 发表于: 2016-08-13
感谢分享

离线lifan_npl

发帖
2117
金钱
17682
威望
787
贡献值
347
交易币
2470
只看该作者 4楼 发表于: 2016-08-24
谢谢分享和整理  辛苦了
我的淘宝:
http://shop63152617.taobao.com  
离线flash

发帖
231
金钱
78
威望
81
贡献值
0
交易币
231
只看该作者 5楼 发表于: 2016-08-31
IN THE CLOSET的MIX是很多的
离线mjnet

发帖
368
金钱
30511
威望
104
贡献值
54
交易币
545
只看该作者 6楼 发表于: 02-08
非常罕見!!
离线mjnet

发帖
368
金钱
30511
威望
104
贡献值
54
交易币
545
只看该作者 7楼 发表于: 02-08
謝謝!!日版的音質棒!!
离线肯尼

发帖
946
金钱
5833
威望
419
贡献值
222
交易币
1407
只看该作者 8楼 发表于: 09-10
多谢分享
顺势待发张元穹 Kenny Saxton @肯尼 & 齐奕同Michael Qi @迈颤我栗
2014年6月25日 合辑 火热制作中
2014 MJFantastics Music International Ltd.
快速回复
限100 字节
 
上一个 下一个