论坛风格切换切换到宽版
  • 1117阅读
  • 11回复

[亲传][Single] 1992 Remember The Time (JP - ESCA 5582) - WAV整轨 ♬by幽灵 [复制链接]

上一主题 下一主题
离线mjghosts
 

发帖
8244
金钱
217720
威望
9174
贡献值
2723
交易币
4755
只看楼主 倒序阅读 楼主  发表于: 2016-07-31
— 本帖被 mjghosts 执行加亮操作(2016-07-31) —
*日本市售单曲,收录5首混音。* tQTVP2:Y  
#`kLU:  
注:独家整理,转载请注明出处!EAC无损整轨(压缩包内含CD图片) luPj'd?  
d5 U?*   
解压密码:www.mjsunny.com
},tN{()  
^nPk;%`0  
Tracklist vv 7T/C  
1 Remember The Time (Silky Soul 7") 4:20 ke~S[bL%-  
2 Remember The Time (New Jack Radio Mix) 4:00 `fL81)!jI#  
3 Remember The Time (12" Main Mix) 4:48 3 $~6+i  
4 Remember The Time (E-Smoove's Late Nite Mix) 7:20 6/4?x)l3-  
5 Remember The Time (Maurice's Underground) 7:30 ,sk0){rW  
qhIO7h  
vwc)d{ND  
S2!$  
GELx S!  
Y, ?- []  
l+V#`S*q  
Exact Audio Copy V1.0 beta 6 from 9. April 2015 5PCMxjon  
+OTNn@!9  
EAC 抓取日志文件从29. 七月 2016, 7:04 7^3a296  
'T_Vm%\)  
Michael Jackson / Remember The Time (The Remixes) [JP Single] >E:V7Fa  
]a ,H!0i  
使用驱动器  :MATSHITADVD-RAM UJ890AS   Adapter: 1  ID: 1 `1Cg)\&[e0  
c[n4{q1  
读取模式      : 可靠Secure $!Pm*s  
使用精确流     : 是 C'a%piX  
清空音频缓存    : 否 s>VpbJ3S  
使用 C2 指示器 : 是 C@7<0w  
"G+g(?N]j  
读取偏移校正:               : 102 /&`sB|  
读取 Lead-In 和 Lead-Out : 否 n& j@7R  
用静音填充抓取中丢失偏移的采样       : 是 !pwY@} oL  
去除首尾静音块               : 否 B]""%&! O  
在CRC 计算中使用了空样本       : 是 \N[Z58R !z  
已用接口                  : Win NT 及 2000 本地 Win32 接口 wTu_Am  
VD,p<u{r  
所用输出模式: : 内部 WAV 函数 [X"F}ph  
样本格式    : 44.100 Hz; 16 Bit; 立体声 d;<gwCc  
HVq02 Z  
=tS1|_  
已抓取 CD 的 TOC 5f` a7R  
MPtn$@  
     音轨 |    起始    |    长度    |  起始扇区  |  结束扇区   =}$YZuzmU  
    -------------------------------------------- Hju7gP=y}  
      1 |  0:00.00 |  4:20.70 |      0 |  19569 +p:?blG  
      2 |  4:20.70 |  4:00.52 |  19570 |  37621 kPt] [1jo  
      3 |  8:21.47 |  4:48.18 |  37622 |  59239 P?zPb'UVqa  
      4 | 13:09.65 |  7:20.57 |  59240 |  92296 ':mw(`  
      5 | 20:30.47 |  7:30.60 |  92297 | 126106 {hXIP`  
j/oM^IY  
:75$e%'A  
范围状态及错误 /|kR= ~  
$,mljJSQv  
已选择范围 +*O$]Hh  
Xscm>.di  
     文件名 J:\12 Music*音乐\CDImage.wav y@T 0 jI  
W N5`zD$  
     峰值电平 100.0 % RS8tE(  
     抓取速度 5.4 X Z4"SKsJT/>  
     范围质量 100.0 % cE|Z=}4I7  
     复制 CRC 77F0B1E3 r Ljb'\<*  
     复制成功 z;V Ai=m q  
G1X${x7  
没有错误发生 q JdC5z\[  
^L,Uz:[J  
pZ IDGy=~  
AccurateRip 摘要 6AA "JX  
%VSjMZ  
音轨  1  精确地校准抓取  1)  [25D7FCF3]  (AR v2) cD6T4  
音轨  2  精确地校准抓取  1)  [BAA04CA9]  (AR v2) ]46-TuH  
音轨  3  精确地校准抓取  1)  [86657F42]  (AR v2) .*x |TPv{  
音轨  4  精确地校准抓取  1)  [C9951F7A]  (AR v2) |E(`9  
音轨  5  精确地校准抓取  1)  [42E91E78]  (AR v2) 1Fs:&*=  
F4#^jat{  
所有音轨精确校准抓取 5?yc*mOZ  
?S~@Ea8/M  
状态报告结尾
0c,)T1NG>  
y?}R,5k  
链接:http://pan.baidu.com/s/1slEKG13 密码: Ia'm9Z*  
此帖售价 13 金钱,已有 8 人购买 [记录] [购买]
购买后,将显示帖子中所有出售内容。
若发现会员采用欺骗的方法获取财富,请立刻举报,我们会对会员处以2-N倍的罚金,严重者封掉ID!
此段为出售的内容,购买后显示
o(|fapK.  
.>;}GsN&  
离线耶稣

发帖
7147
金钱
272109
威望
2491
贡献值
1655
交易币
11218
只看该作者 1楼 发表于: 2016-07-31
版主啊 EbuOPa  
;2kiEATQ 1  
http://www.mjsunny.com/read.php?tid=65433 rPkV=9ull,  
I<z /Y?  
http://www.mjsunny.com/read.php?tid=65490
1条评分金钱+1
mjghosts 金钱 +1 耶稣兄很有魄力!版主并非万能,况且你发的这两资源我都没有。 2016-07-31




离线小李

发帖
236
金钱
1405
威望
9
贡献值
8
交易币
208
只看该作者 2楼 发表于: 2016-08-01
感谢分享
离线wannam

发帖
2702
金钱
87012
威望
382
贡献值
189
交易币
3345
只看该作者 3楼 发表于: 2016-08-01
谢谢分享,听听混音版
离线魏聪

发帖
168
金钱
2713
威望
41
贡献值
21
交易币
103
只看该作者 4楼 发表于: 2016-08-01
为什么总要放这些东西!!!我都快高兴疯了

发帖
2735
金钱
31355
威望
620
贡献值
37
交易币
388
只看该作者 5楼 发表于: 2016-08-13
感谢分享。 U-~6<\Mf  


发帖
2735
金钱
31355
威望
620
贡献值
37
交易币
388
只看该作者 6楼 发表于: 2016-08-13
感谢分享 F,XJGD*  

离线lifan_npl

发帖
2189
金钱
19354
威望
816
贡献值
395
交易币
2550
只看该作者 7楼 发表于: 2016-08-24
谢谢分享和整理  辛苦了   
我的淘宝:
http://shop63152617.taobao.com  
离线flash

发帖
236
金钱
0
威望
81
贡献值
0
交易币
236
只看该作者 8楼 发表于: 2016-08-31
谢谢分享,听听混音版
离线mjnet

发帖
380
金钱
30479
威望
104
贡献值
54
交易币
557
只看该作者 9楼 发表于: 2017-02-08
thank you
快速回复
限100 字节
 
上一个 下一个