论坛风格切换切换到宽版
  • 677阅读
  • 11回复

[亲传][Single] 1992 Remember The Time (JP - ESCA 5582) - WAV整轨 ♬by幽灵 [复制链接]

上一主题 下一主题
离线mjghosts
 

发帖
8258
金钱
212473
威望
9166
贡献值
2715
交易币
4709
只看楼主 倒序阅读 楼主  发表于: 2016-07-31
— 本帖被 mjghosts 执行加亮操作(2016-07-31) —
*日本市售单曲,收录5首混音。* 0LrTYrlj  
p` B48TW  
注:独家整理,转载请注明出处!EAC无损整轨(压缩包内含CD图片) E&#AX:  
6sRn_y  
解压密码:www.mjsunny.com
bkceR>h%  
d~D<;7M XJ  
Tracklist !Q*.Dw()[  
1 Remember The Time (Silky Soul 7") 4:20 ES;7_.q  
2 Remember The Time (New Jack Radio Mix) 4:00 j_L 'Ztu3  
3 Remember The Time (12" Main Mix) 4:48 drBWo|/  
4 Remember The Time (E-Smoove's Late Nite Mix) 7:20 IU{~{(p"  
5 Remember The Time (Maurice's Underground) 7:30 /j0<x^m/  
N0O8to}V  
MSUkCWt!  
(*;b\h  
azr|Fz/  
vDV` !JU  
|g;hXr#~  
Exact Audio Copy V1.0 beta 6 from 9. April 2015 J/>Y mi,  
BD&JbH!(  
EAC 抓取日志文件从29. 七月 2016, 7:04 mDEO$:A  
a[Ah  
Michael Jackson / Remember The Time (The Remixes) [JP Single] T?4MFx#  
dYrw&gn  
使用驱动器  :MATSHITADVD-RAM UJ890AS   Adapter: 1  ID: 1 pUutI|mt/  
Eyv%"+>  
读取模式      : 可靠Secure [v ( \y  
使用精确流     : 是 FpN>T  
清空音频缓存    : 否 7TD%vhbiwi  
使用 C2 指示器 : 是 j;6kN-jx  
mj:X'BVA  
读取偏移校正:               : 102 ;}"!|  
读取 Lead-In 和 Lead-Out : 否 {ZQ|Ydpk  
用静音填充抓取中丢失偏移的采样       : 是 uflRW+-2  
去除首尾静音块               : 否 6?\X)qBI  
在CRC 计算中使用了空样本       : 是 $bSnbU <  
已用接口                  : Win NT 及 2000 本地 Win32 接口 o&WKk5$  
L WwWxerZ  
所用输出模式: : 内部 WAV 函数 fbv%&z  
样本格式    : 44.100 Hz; 16 Bit; 立体声 *F[;D7sZ~  
Vm6 0aXm_  
A\xvzs.d  
已抓取 CD 的 TOC "WPFZw:9  
Dx:2/"v  
     音轨 |    起始    |    长度    |  起始扇区  |  结束扇区   s}m.r5  
    -------------------------------------------- Gh.@l\|tf  
      1 |  0:00.00 |  4:20.70 |      0 |  19569 j)A$%xUo  
      2 |  4:20.70 |  4:00.52 |  19570 |  37621 @20~R/vh  
      3 |  8:21.47 |  4:48.18 |  37622 |  59239 ICbT{Mla  
      4 | 13:09.65 |  7:20.57 |  59240 |  92296 E]opA$JQ  
      5 | 20:30.47 |  7:30.60 |  92297 | 126106 DnY7$']"|  
Hf^Tok^6@]  
c"<bq}L7S  
范围状态及错误 71$MhPvd<  
 4hzS  
已选择范围 r]0UF0#  
#_zd`s3k  
     文件名 J:\12 Music*音乐\CDImage.wav |H(Mmqgk  
rX8EXraO  
     峰值电平 100.0 % H$ sNp\[{  
     抓取速度 5.4 X d\cwUXf J  
     范围质量 100.0 % >QusXD"L>  
     复制 CRC 77F0B1E3 >Kd(.r[Er  
     复制成功 us.+nnd  
G0^O7w^5  
没有错误发生 S*H :/Ip  
h&!k!Su3#  
`TkI yGr  
AccurateRip 摘要 NVnKgGlHgd  
t[6g9e$  
音轨  1  精确地校准抓取  1)  [25D7FCF3]  (AR v2) B;8YX>r  
音轨  2  精确地校准抓取  1)  [BAA04CA9]  (AR v2) u.gh04{5  
音轨  3  精确地校准抓取  1)  [86657F42]  (AR v2) 4/{Io &|  
音轨  4  精确地校准抓取  1)  [C9951F7A]  (AR v2) 7"f$;CN?~  
音轨  5  精确地校准抓取  1)  [42E91E78]  (AR v2) 0EM`,?i .Q  
OwP9=9};  
所有音轨精确校准抓取 Z*kGWL  
+1p>:cih  
状态报告结尾
w\;=3C`  
`q eL$`  
链接:http://pan.baidu.com/s/1slEKG13 密码: % @Ks<"9  
此帖售价 13 金钱,已有 8 人购买 [记录] [购买]
购买后,将显示帖子中所有出售内容。
若发现会员采用欺骗的方法获取财富,请立刻举报,我们会对会员处以2-N倍的罚金,严重者封掉ID!
此段为出售的内容,购买后显示
/^uvY  
N,'JQch},8  
在线耶稣

发帖
7066
金钱
246535
威望
2439
贡献值
1613
交易币
11009
只看该作者 1楼 发表于: 2016-07-31
版主啊 0VzXDb>`  
XwcMt r*  
http://www.mjsunny.com/read.php?tid=65433 ql^g~b  
<B!'3C(P  
http://www.mjsunny.com/read.php?tid=65490
1条评分金钱+1
mjghosts 金钱 +1 耶稣兄很有魄力!版主并非万能,况且你发的这两资源我都没有。 2016-07-31




离线小李

发帖
225
金钱
150
威望
99
贡献值
8
交易币
197
只看该作者 2楼 发表于: 2016-08-01
感谢分享
离线wannam

发帖
2698
金钱
86901
威望
382
贡献值
189
交易币
3341
只看该作者 3楼 发表于: 2016-08-01
谢谢分享,听听混音版
离线魏聪

发帖
168
金钱
2713
威望
41
贡献值
21
交易币
103
只看该作者 4楼 发表于: 2016-08-01
为什么总要放这些东西!!!我都快高兴疯了

发帖
2708
金钱
28329
威望
619
贡献值
36
交易币
357
只看该作者 5楼 发表于: 2016-08-13
感谢分享。 M-VX;/&FR  


发帖
2708
金钱
28329
威望
619
贡献值
36
交易币
357
只看该作者 6楼 发表于: 2016-08-13
感谢分享 #Qw0&kM7I  

离线lifan_npl

发帖
2156
金钱
17106
威望
782
贡献值
347
交易币
2509
只看该作者 7楼 发表于: 2016-08-24
谢谢分享和整理  辛苦了   
我的淘宝:
http://shop63152617.taobao.com  
离线flash

发帖
231
金钱
78
威望
81
贡献值
0
交易币
231
只看该作者 8楼 发表于: 2016-08-31
谢谢分享,听听混音版
离线mjnet

发帖
375
金钱
30482
威望
104
贡献值
54
交易币
552
只看该作者 9楼 发表于: 02-08
thank you
快速回复
限100 字节
 
上一个 下一个