论坛风格切换切换到宽版
  • 531阅读
  • 11回复

[亲传][Single] 1992 Remember The Time (JP - ESCA 5582) - WAV整轨 ♬by幽灵 [复制链接]

上一主题 下一主题
离线mjghosts
 

发帖
8247
金钱
210534
威望
9164
贡献值
2715
交易币
4698
只看楼主 倒序阅读 楼主  发表于: 2016-07-31
— 本帖被 mjghosts 执行加亮操作(2016-07-31) —
*日本市售单曲,收录5首混音。* $;_'5`xs  
}`$:3mb&f  
注:独家整理,转载请注明出处!EAC无损整轨(压缩包内含CD图片) !UD62yw~  
J! >HT'M  
解压密码:www.mjsunny.com
mj<(qZh  
kF~}htv.=  
Tracklist g!7/iKj:  
1 Remember The Time (Silky Soul 7") 4:20 Wn24eld"x  
2 Remember The Time (New Jack Radio Mix) 4:00 &:8a[C2=  
3 Remember The Time (12" Main Mix) 4:48 !$St=!  
4 Remember The Time (E-Smoove's Late Nite Mix) 7:20 E/LR(d_  
5 Remember The Time (Maurice's Underground) 7:30 br<,?  
G[6V=G  
zF(I#|Vo  
2M= gpy  
ar=uDb;  
[Pby  d  
z`xdRe{QP  
Exact Audio Copy V1.0 beta 6 from 9. April 2015 O@'/B" &  
]k]P (w  
EAC 抓取日志文件从29. 七月 2016, 7:04 U=QV^I Qm  
@ bPQhn#(g  
Michael Jackson / Remember The Time (The Remixes) [JP Single] w{UVo1r:  
Q35$GFj"jD  
使用驱动器  :MATSHITADVD-RAM UJ890AS   Adapter: 1  ID: 1 PTWP7A[  
J]yUjnQ[h  
读取模式      : 可靠Secure ``$Dgj[  
使用精确流     : 是 ?f f!(U  
清空音频缓存    : 否 wCw-EGLR  
使用 C2 指示器 : 是 2[!#Xf  
9 Rl-Jz8g  
读取偏移校正:               : 102 0<tce  
读取 Lead-In 和 Lead-Out : 否 jB) RvvMU5  
用静音填充抓取中丢失偏移的采样       : 是 (5CdA1|  
去除首尾静音块               : 否 h0**[LDH  
在CRC 计算中使用了空样本       : 是 ]hE%Tk-  
已用接口                  : Win NT 及 2000 本地 Win32 接口 efzS]1Jpz  
YQ? "~[mL  
所用输出模式: : 内部 WAV 函数 X|&v]mJ  
样本格式    : 44.100 Hz; 16 Bit; 立体声 MS5X#B  
gn-@OmIs  
G/ sRi wL  
已抓取 CD 的 TOC !l9i)6W  
7&`Yl[G  
     音轨 |    起始    |    长度    |  起始扇区  |  结束扇区   ]0o_- NI  
    -------------------------------------------- ptQCqQ1_d  
      1 |  0:00.00 |  4:20.70 |      0 |  19569 Mni@@W  
      2 |  4:20.70 |  4:00.52 |  19570 |  37621 d~abWBgC`  
      3 |  8:21.47 |  4:48.18 |  37622 |  59239 c BcZ@e;  
      4 | 13:09.65 |  7:20.57 |  59240 |  92296 %#7 ]  
      5 | 20:30.47 |  7:30.60 |  92297 | 126106 45 B |U  
) :VF^"  
`f<&=_,xfH  
范围状态及错误 WRqpQEY  
(DQ ]58&  
已选择范围 LEd@""h  
@(CJT-Ak  
     文件名 J:\12 Music*音乐\CDImage.wav ,5}")T["u  
|t6:4']  
     峰值电平 100.0 % xM:9XhH1  
     抓取速度 5.4 X 2gJkpf9JN  
     范围质量 100.0 % KkZS6rD\  
     复制 CRC 77F0B1E3 TJ>$ ~9&Sy  
     复制成功 9'0v]ar  
M)G|K a  
没有错误发生 ;3&HZq6Z (  
fjLS_Q ;h  
Su]p6B  
AccurateRip 摘要 }3=^Ik;x  
&5n0J  
音轨  1  精确地校准抓取  1)  [25D7FCF3]  (AR v2) S?u@3PyJm  
音轨  2  精确地校准抓取  1)  [BAA04CA9]  (AR v2) {Z1^/F v3  
音轨  3  精确地校准抓取  1)  [86657F42]  (AR v2) /^':5"=o  
音轨  4  精确地校准抓取  1)  [C9951F7A]  (AR v2) C/YjMYwKgv  
音轨  5  精确地校准抓取  1)  [42E91E78]  (AR v2) ;` ! j~  
&5Huv?^a'  
所有音轨精确校准抓取 DwI X\9  
!@9G9<NK  
状态报告结尾
4(TR'_X(  
xMHu:,ND  
链接:http://pan.baidu.com/s/1slEKG13 密码: eY8rm  
此帖售价 13 金钱,已有 7 人购买 [记录] [购买]
购买后,将显示帖子中所有出售内容。
若发现会员采用欺骗的方法获取财富,请立刻举报,我们会对会员处以2-N倍的罚金,严重者封掉ID!
此段为出售的内容,购买后显示
Q$8K-5U%  
`R,g_{M j  
离线耶稣

发帖
6834
金钱
227057
威望
2274
贡献值
1485
交易币
10529
只看该作者 1楼 发表于: 2016-07-31
版主啊 .UvDew/Y  
G[n;%c~`+  
http://www.mjsunny.com/read.php?tid=65433 iu2O/l# r  
$"va8,  
http://www.mjsunny.com/read.php?tid=65490
1条评分金钱+1
mjghosts 金钱 +1 耶稣兄很有魄力!版主并非万能,况且你发的这两资源我都没有。 2016-07-31


离线小李

发帖
218
金钱
132
威望
98
贡献值
7
交易币
186
只看该作者 2楼 发表于: 2016-08-01
感谢分享
离线wannam

发帖
2697
金钱
86877
威望
382
贡献值
189
交易币
3340
只看该作者 3楼 发表于: 2016-08-01
谢谢分享,听听混音版
离线魏聪

发帖
162
金钱
2911
威望
41
贡献值
21
交易币
97
只看该作者 4楼 发表于: 2016-08-01
为什么总要放这些东西!!!我都快高兴疯了

发帖
2658
金钱
28594
威望
617
贡献值
34
交易币
299
只看该作者 5楼 发表于: 2016-08-13
感谢分享。 !JjB,1  


发帖
2658
金钱
28594
威望
617
贡献值
34
交易币
299
只看该作者 6楼 发表于: 2016-08-13
感谢分享 b@QCdi,u  

离线lifan_npl

发帖
2117
金钱
17682
威望
787
贡献值
347
交易币
2470
只看该作者 7楼 发表于: 2016-08-24
谢谢分享和整理  辛苦了   
我的淘宝:
http://shop63152617.taobao.com  
离线flash

发帖
231
金钱
78
威望
81
贡献值
0
交易币
231
只看该作者 8楼 发表于: 2016-08-31
谢谢分享,听听混音版
离线mjnet

发帖
368
金钱
30511
威望
104
贡献值
54
交易币
545
只看该作者 9楼 发表于: 02-08
thank you
快速回复
限100 字节
 
上一个 下一个