论坛风格切换切换到宽版
  • 615阅读
  • 9回复

[亲传][Single] 1991 Remember The Time (US - 49K 74201) - WAV整轨 ♬by幽灵 [复制链接]

上一主题 下一主题
离线mjghosts
 

发帖
8240
金钱
216247
威望
9172
贡献值
2721
交易币
4743
只看楼主 倒序阅读 楼主  发表于: 2016-08-19
— 本帖被 mjghosts 执行加亮操作(2016-08-19) —
*91年美国市售单曲,收录9首混音歌曲。5首RTT+4首BOW,弥补了美国BOW单曲中没有推出的混音作品。* o i,g  
"pKGUM  
注:独家整理,转载请注明出处!EAC无损整轨(压缩包内含CD图片) l[!C-Tq  
5y 'ycTjY  
解压密码:www.mjsunny.com
R'$ T6FB5  
n"`SL<K1  
Tracklist P^d . ,  
O(WMTa'%  
1 Remember The Time (Silky Soul 7") 4:18  q;He:vX  
2 Remember The Time (New Jack Radio Mix) 4:00 {)dEO0 p  
3 Remember The Time (12" Main Mix) 4:37 .L 5T4)  
4 Remember The Time (E-Smoove's Late Nite Mix) 7:14 d .lu  
5 Remember The Time (Maurice's Underground) 7:29 c Dh4@V  
6 Black Or White (Clivillés & Cole Radio Mix) 3:33 <` VJU2  
7 Black Or White (House With Guitar Radio Mix) 3:53 '_yk_[/  
8 Black Or White (Clivillés & Cole House/Club Mix) 7:33 QH? 2v  
9 Black Or White (The Underground Club Mix) 7:30 UOL%tT  
DD{@lM\vc  
p]IhQnj2  
b}{9 :n/SC  
2|H'j~  
K#pt8Q  
vWfef~}~  
Exact Audio Copy V1.0 beta 6 from 9. April 2015 [tw<TV"\  
uN^qfJ'@ >  
EAC 抓取日志文件从16. 八月 2016, 0:07 38S&7>0@|q  
)x O_  
Michael Jackson / Remember The Time g. VIe  
'cc4Y~0s  
使用驱动器  :MATSHITADVD-RAM UJ890AS   Adapter: 1  ID: 1 Qvg"5_26v  
G~L#v AY  
读取模式      : 可靠Secure xE[tD? M{  
使用精确流     : 是 e-av@a3  
清空音频缓存    : 否 I,uu>-  
使用 C2 指示器 : 是 dNt|"9~&  
 0PbIWy'  
读取偏移校正:               : 102 muq|^Hfb  
读取 Lead-In 和 Lead-Out : 否 N!~NQ-Re'  
用静音填充抓取中丢失偏移的采样       : 是 *[YN|  
去除首尾静音块               : 否 ml 2z  
在CRC 计算中使用了空样本       : 是 b(Xg6  
已用接口                  : Win NT 及 2000 本地 Win32 接口 Qq`\C0RZ  
k| o,gcU  
所用输出模式: : 内部 WAV 函数 ?@(H. D6'v  
样本格式    : 44.100 Hz; 16 Bit; 立体声 :wAB"TCt0  
s30_lddD  
5al{[mi  
已抓取 CD 的 TOC PEl]HI_H  
M3kE91  
     音轨 |    起始    |    长度    |  起始扇区  |  结束扇区   K gX)fj  
    -------------------------------------------- Hyg?as>}u  
      1 |  0:00.00 |  4:21.57 |      0 |  19631 ,Pm/ci( s  
      2 |  4:21.57 |  4:00.50 |  19632 |  37681 4+gA/<  
      3 |  8:22.32 |  4:48.23 |  37682 |  59304 wP9C\W;  
      4 | 13:10.55 |  7:20.45 |  59305 |  92349 r%9Sx:F  
      5 | 20:31.25 |  7:30.32 |  92350 | 126131 enj2xye%Y  
      6 | 28:01.57 |  3:35.23 | 126132 | 142279 !@X#{  
      7 | 31:37.05 |  3:51.25 | 142280 | 159629 dp"w=~53  
      8 | 35:28.30 |  7:34.50 | 159630 | 193729 e1-=|!U7#  
      9 | 43:03.05 |  7:28.30 | 193730 | 227359 &.,OvVAo  
HNPr| (  
U DG _APf  
范围状态及错误 i=4bY[y  
QWkw$mcf  
已选择范围 h:;~)={"X  
]Vsze4>Z[  
     文件名 J:\12 Music*音乐\CDImage.wav L8fr uwb  
 ;P_Zen  
     峰值电平 100.0 % *;m721#  
     抓取速度 6.4 X 4*3vZ6lhu  
     范围质量 99.9 % ,y.0 Cb0  
     复制 CRC 35BDC16F F8/@/B  
     复制成功 }&j&T9oX  
)mEF_ &  
没有错误发生 QNo}nl /N  
Q,$x6YwE  
/~yqZD<O  
AccurateRip 摘要 )fa  
ji2#O.  
音轨  1  在数据库中不存在 JG_7G=~  
音轨  2  在数据库中不存在 iqU}t2vFrj  
音轨  3  在数据库中不存在 aX|`G]PhdI  
音轨  4  在数据库中不存在 yZ 9 *oDs  
音轨  5  在数据库中不存在 2PC4EjkC  
音轨  6  在数据库中不存在 zx!1jS  
音轨  7  在数据库中不存在 N>~*Jp2;  
音轨  8  在数据库中不存在 =19]a  
音轨  9  在数据库中不存在 $xl*P#  
bcZuV5F&  
没有任何音轨在 AccurateRip 数据库中有记录 j]P|iL  
&Jn%2[;  
状态报告结尾
LU]~d< i99  
GwvxX&P  
链接:http://pan.baidu.com/s/1bFGaPC 密码: c:iMbJOn#  
此帖售价 10 金钱,已有 7 人购买 [记录] [购买]
购买后,将显示帖子中所有出售内容。
若发现会员采用欺骗的方法获取财富,请立刻举报,我们会对会员处以2-N倍的罚金,严重者封掉ID!
此段为出售的内容,购买后显示

发帖
2729
金钱
31485
威望
620
贡献值
37
交易币
382
只看该作者 1楼 发表于: 2016-08-19
感谢分享

离线小李

发帖
232
金钱
230
威望
99
贡献值
8
交易币
204
只看该作者 2楼 发表于: 2016-08-20
谢谢,这些都有了,对比一下.
离线lifan_npl

发帖
2173
金钱
16819
威望
782
贡献值
347
交易币
2526
只看该作者 3楼 发表于: 2016-08-21
谢谢分享 很不错哦 问一下  封面和cd面  你是用扫描仪扫的吗?
我的淘宝:
http://shop63152617.taobao.com  
离线mjghosts

发帖
8240
金钱
216247
威望
9172
贡献值
2721
交易币
4743
只看该作者 4楼 发表于: 2016-08-22
回 lifan_npl 的帖子
lifan_npl:谢谢分享 很不错哦 问一下  封面和cd面  你是用扫描仪扫的吗? (2016-08-21 22:26)  k|B2@{  
]sL45k2W  
图片来自网络本人无仪器
离线flash

发帖
236
金钱
9429
威望
81
贡献值
0
交易币
236
只看该作者 5楼 发表于: 2016-08-31
谢谢分享 很不错哦
离线mjnet

发帖
380
金钱
30464
威望
104
贡献值
54
交易币
557
只看该作者 6楼 发表于: 2017-03-04
這張我也有!!!下來保存!!
离线肯尼

发帖
953
金钱
7175
威望
431
贡献值
228
交易币
1438
只看该作者 7楼 发表于: 2017-09-10
多谢分享
顺势待发张元穹 Kenny Saxton @肯尼 & 齐奕同Michael Qi @迈颤我栗
2014年6月25日 合辑 火热制作中
2014 MJFantastics Music International Ltd.
离线zjxgjp

发帖
36
金钱
1
威望
1
贡献值
0
交易币
37
只看该作者 8楼 发表于: 2017-10-03
よし不错的版本
离线mjlove98

发帖
2519
金钱
5963
威望
198
贡献值
122
交易币
2593
只看该作者 9楼 发表于: 2017-10-03
Re:[Single] 1991 Remember The Time (US - 49K 74201) - WAV整轨 ?by幽灵
感谢分享
快速回复
限100 字节
 
上一个 下一个