论坛风格切换切换到宽版
  • 745阅读
  • 9回复

[亲传][Single] 1991 Remember The Time (US - 49K 74201) - WAV整轨 ♬by幽灵 [复制链接]

上一主题 下一主题
离线mjghosts
 

发帖
8244
金钱
217720
威望
9174
贡献值
2723
交易币
4755
只看楼主 倒序阅读 楼主  发表于: 2016-08-19
— 本帖被 mjghosts 执行加亮操作(2016-08-19) —
*91年美国市售单曲,收录9首混音歌曲。5首RTT+4首BOW,弥补了美国BOW单曲中没有推出的混音作品。* yB[ LO( i  
|3@]5f&  
注:独家整理,转载请注明出处!EAC无损整轨(压缩包内含CD图片) ktb. fhO  
' 'N@ <|  
解压密码:www.mjsunny.com
cFQa~  
"zc!QHpSd  
Tracklist L}+!<Ug  
2{\Y<%.  
1 Remember The Time (Silky Soul 7") 4:18 kPe9G  
2 Remember The Time (New Jack Radio Mix) 4:00 Qfi5fp=f  
3 Remember The Time (12" Main Mix) 4:37 #.RI9B  
4 Remember The Time (E-Smoove's Late Nite Mix) 7:14 Sl#XJ0 g  
5 Remember The Time (Maurice's Underground) 7:29 umeb&\:8S-  
6 Black Or White (Clivillés & Cole Radio Mix) 3:33 +TX]~k79Oq  
7 Black Or White (House With Guitar Radio Mix) 3:53 ?{V[bm  
8 Black Or White (Clivillés & Cole House/Club Mix) 7:33 O%I'   
9 Black Or White (The Underground Club Mix) 7:30 f$L5=V  
+}n]A^&I\E  
V/Tp&+Z.c  
In r%4&!e  
-3Ffk:  
G2rvi=8=  
8LL);"$  
Exact Audio Copy V1.0 beta 6 from 9. April 2015 BB-`=X~:m  
I'!KWpYJT  
EAC 抓取日志文件从16. 八月 2016, 0:07 Vj_ $%0  
iL(E`_I<  
Michael Jackson / Remember The Time J&5|'yVX  
]}9EBf  
使用驱动器  :MATSHITADVD-RAM UJ890AS   Adapter: 1  ID: 1 9QpKB c  
+ }^  
读取模式      : 可靠Secure d{0>R{uac  
使用精确流     : 是 'h:4 Fzo<  
清空音频缓存    : 否 9J<KR #M  
使用 C2 指示器 : 是 7JujU.&{6  
':HV9]k  
读取偏移校正:               : 102 f1JvP\I0Q  
读取 Lead-In 和 Lead-Out : 否 BYu|loc  
用静音填充抓取中丢失偏移的采样       : 是 RVD=CX  
去除首尾静音块               : 否 #x'C  
在CRC 计算中使用了空样本       : 是 ,]o32@   
已用接口                  : Win NT 及 2000 本地 Win32 接口 1y 6H2  
2f4*r^  
所用输出模式: : 内部 WAV 函数 w2 CgEJ %  
样本格式    : 44.100 Hz; 16 Bit; 立体声 J`\%'pEn  
D`Fl*Wc4H  
N-lXC"{)  
已抓取 CD 的 TOC wN;o++6V  
}Vg &9HY  
     音轨 |    起始    |    长度    |  起始扇区  |  结束扇区   AM\`v'I*6  
    -------------------------------------------- >a Q; 8  
      1 |  0:00.00 |  4:21.57 |      0 |  19631 u2o6EU`  
      2 |  4:21.57 |  4:00.50 |  19632 |  37681 }[? X%=  
      3 |  8:22.32 |  4:48.23 |  37682 |  59304 !i0:1{.  
      4 | 13:10.55 |  7:20.45 |  59305 |  92349 o)srE5  
      5 | 20:31.25 |  7:30.32 |  92350 | 126131 'lg6<M%#[  
      6 | 28:01.57 |  3:35.23 | 126132 | 142279 Q;Xb-\\  
      7 | 31:37.05 |  3:51.25 | 142280 | 159629 6imDA]5N&  
      8 | 35:28.30 |  7:34.50 | 159630 | 193729 n*hHqZl  
      9 | 43:03.05 |  7:28.30 | 193730 | 227359 D'c, z[  
|?i-y3N  
!ku5P+y$  
范围状态及错误 =T|Z[/fto  
oX8e}  
已选择范围 ULkjY1&  
|Rf4^vN  
     文件名 J:\12 Music*音乐\CDImage.wav +W x/zo  
Gn>#Mvq  
     峰值电平 100.0 % _ )b:F=4j  
     抓取速度 6.4 X 0sD"Hu  
     范围质量 99.9 % *VmJydd  
     复制 CRC 35BDC16F A (S=  
     复制成功 &!x!j ,nT  
G|*^W;(Z  
没有错误发生 5ztHar~f  
N|WZk2 "  
(,z0V+ !  
AccurateRip 摘要 16Ym*kWIps  
cOkjeHs 5  
音轨  1  在数据库中不存在 f mXU)  
音轨  2  在数据库中不存在 (\S/  
音轨  3  在数据库中不存在 @62QDlt;  
音轨  4  在数据库中不存在 [ }-CXB  
音轨  5  在数据库中不存在 s4h3mypw  
音轨  6  在数据库中不存在 WtlPgT;wE  
音轨  7  在数据库中不存在 ?ra6Lo  
音轨  8  在数据库中不存在 s"G;rcS}#  
音轨  9  在数据库中不存在 yf5X=f.%@  
^,F8 ha  
没有任何音轨在 AccurateRip 数据库中有记录 qC<!!473?  
9;,_Q q  
状态报告结尾
tS!|#h-J  
_h;#\ )%~  
链接:http://pan.baidu.com/s/1bFGaPC 密码: GR&T Z   
此帖售价 10 金钱,已有 7 人购买 [记录] [购买]
购买后,将显示帖子中所有出售内容。
若发现会员采用欺骗的方法获取财富,请立刻举报,我们会对会员处以2-N倍的罚金,严重者封掉ID!
此段为出售的内容,购买后显示

发帖
2735
金钱
31355
威望
620
贡献值
37
交易币
388
只看该作者 1楼 发表于: 2016-08-19
感谢分享

离线小李

发帖
236
金钱
1405
威望
9
贡献值
8
交易币
208
只看该作者 2楼 发表于: 2016-08-20
谢谢,这些都有了,对比一下.
离线lifan_npl

发帖
2189
金钱
19354
威望
816
贡献值
395
交易币
2550
只看该作者 3楼 发表于: 2016-08-21
谢谢分享 很不错哦 问一下  封面和cd面  你是用扫描仪扫的吗?
我的淘宝:
http://shop63152617.taobao.com  
离线mjghosts

发帖
8244
金钱
217720
威望
9174
贡献值
2723
交易币
4755
只看该作者 4楼 发表于: 2016-08-22
回 lifan_npl 的帖子
lifan_npl:谢谢分享 很不错哦 问一下  封面和cd面  你是用扫描仪扫的吗? (2016-08-21 22:26)  j]Jgz<  
0cd_l 2f#g  
图片来自网络本人无仪器
离线flash

发帖
236
金钱
0
威望
81
贡献值
0
交易币
236
只看该作者 5楼 发表于: 2016-08-31
谢谢分享 很不错哦
离线mjnet

发帖
380
金钱
30479
威望
104
贡献值
54
交易币
557
只看该作者 6楼 发表于: 2017-03-04
這張我也有!!!下來保存!!
离线肯尼

发帖
955
金钱
7435
威望
431
贡献值
228
交易币
1440
只看该作者 7楼 发表于: 2017-09-10
多谢分享
顺势待发张元穹 Kenny Saxton @肯尼 & 齐奕同Michael Qi @迈颤我栗
2014年6月25日 合辑 火热制作中
2014 MJFantastics Music International Ltd.
离线zjxgjp

发帖
36
金钱
1
威望
1
贡献值
0
交易币
37
只看该作者 8楼 发表于: 2017-10-03
よし不错的版本
离线mjlove98

发帖
2559
金钱
5237
威望
197
贡献值
123
交易币
2637
只看该作者 9楼 发表于: 2017-10-03
Re:[Single] 1991 Remember The Time (US - 49K 74201) - WAV整轨 ?by幽灵
感谢分享
快速回复
限100 字节
 
上一个 下一个