论坛风格切换切换到宽版
  • 376阅读
  • 7回复

[亲传][Single] 1991 Remember The Time (US - 49K 74201) - WAV整轨 ♬by幽灵 [复制链接]

上一主题 下一主题
离线mjghosts
 

发帖
8247
金钱
210534
威望
9164
贡献值
2715
交易币
4698
只看楼主 倒序阅读 楼主  发表于: 2016-08-19
— 本帖被 mjghosts 执行加亮操作(2016-08-19) —
*91年美国市售单曲,收录9首混音歌曲。5首RTT+4首BOW,弥补了美国BOW单曲中没有推出的混音作品。* mVd%sWD  
STL+tLJ  
注:独家整理,转载请注明出处!EAC无损整轨(压缩包内含CD图片) E#~J"9k98  
~,Kx"VK  
解压密码:www.mjsunny.com
b?j\YX[e  
cS%;JV>C  
Tracklist 4C }#lW9  
f&I5bPS7}  
1 Remember The Time (Silky Soul 7") 4:18 @5h(bLEP  
2 Remember The Time (New Jack Radio Mix) 4:00 ?h:xO\h8  
3 Remember The Time (12" Main Mix) 4:37 YRyaOrl$<  
4 Remember The Time (E-Smoove's Late Nite Mix) 7:14 c6cB {/g  
5 Remember The Time (Maurice's Underground) 7:29 fLZ99?J  
6 Black Or White (Clivillés & Cole Radio Mix) 3:33 4t 0p!IxG  
7 Black Or White (House With Guitar Radio Mix) 3:53 t4UL|fI  
8 Black Or White (Clivillés & Cole House/Club Mix) 7:33 "%w E>E  
9 Black Or White (The Underground Club Mix) 7:30 v}.~m)  
23X-h#w  
]f6,4[  
/k KVIlO  
L0*f(H  
6M[OEI5  
2]Ei4%jo  
Exact Audio Copy V1.0 beta 6 from 9. April 2015 {6mFI1;q  
n`D-?]*  
EAC 抓取日志文件从16. 八月 2016, 0:07 ->W rBO  
<1<0odB  
Michael Jackson / Remember The Time ~JB4s%&  
L(}/W~En  
使用驱动器  :MATSHITADVD-RAM UJ890AS   Adapter: 1  ID: 1 Ci?RuZ"  
#66u<FaG  
读取模式      : 可靠Secure )Mh5q&ow  
使用精确流     : 是 mzcxq:uZ5  
清空音频缓存    : 否 ?}No'E1!I  
使用 C2 指示器 : 是 +XAM2uN5_.  
?$=Ml$  
读取偏移校正:               : 102 E#\'$@8j  
读取 Lead-In 和 Lead-Out : 否 _ !k\~4U  
用静音填充抓取中丢失偏移的采样       : 是 Rc}#4pM8  
去除首尾静音块               : 否 vZIx>  
在CRC 计算中使用了空样本       : 是 C`\yc_b9Pf  
已用接口                  : Win NT 及 2000 本地 Win32 接口 '3B7F5uLx"  
&izk$~  
所用输出模式: : 内部 WAV 函数 6g"qwWZp  
样本格式    : 44.100 Hz; 16 Bit; 立体声 T>m|C}yy  
&usum~@  
tS[@?qP  
已抓取 CD 的 TOC |L6 +e *  
qhNYQ/uS  
     音轨 |    起始    |    长度    |  起始扇区  |  结束扇区   $WbfRyXi7'  
    -------------------------------------------- ]Waa7)}DM  
      1 |  0:00.00 |  4:21.57 |      0 |  19631 =Ka :i>  
      2 |  4:21.57 |  4:00.50 |  19632 |  37681 {y|j**NZ  
      3 |  8:22.32 |  4:48.23 |  37682 |  59304 `^ uX`M/  
      4 | 13:10.55 |  7:20.45 |  59305 |  92349 vFsl]|<;8  
      5 | 20:31.25 |  7:30.32 |  92350 | 126131 5}`e"X  
      6 | 28:01.57 |  3:35.23 | 126132 | 142279 !{ /AJb  
      7 | 31:37.05 |  3:51.25 | 142280 | 159629 F vHd `  
      8 | 35:28.30 |  7:34.50 | 159630 | 193729 {_]<mwd  
      9 | 43:03.05 |  7:28.30 | 193730 | 227359 TRQH{O\O  
oCuKmK8  
iPt{v5}]  
范围状态及错误 ZVz`-h B  
fnudu0k  
已选择范围 s@5r}6?M  
Ss#UX_DT_  
     文件名 J:\12 Music*音乐\CDImage.wav pn4~?Aua0/  
F9 C3i  
     峰值电平 100.0 % f2RIOL,  
     抓取速度 6.4 X -K%~2M<  
     范围质量 99.9 % RT+_e  
     复制 CRC 35BDC16F Gu@Znh-D  
     复制成功 k;?E,!{  
MyJG2C#R  
没有错误发生 D^e7%FX  
{kp^@  
[W2GLd]  
AccurateRip 摘要 ;l>C[6]  
XT0:$0F  
音轨  1  在数据库中不存在 a#o6Nv  
音轨  2  在数据库中不存在 CiSl 0  
音轨  3  在数据库中不存在 8x9$6HO  
音轨  4  在数据库中不存在 ,dO$R.h  
音轨  5  在数据库中不存在 I{0bs Tp;  
音轨  6  在数据库中不存在 {BlKVsQ  
音轨  7  在数据库中不存在 (ATCP#lF  
音轨  8  在数据库中不存在 'o*:~n  
音轨  9  在数据库中不存在 ^sjL@.'m$N  
_7M!b 9oA  
没有任何音轨在 AccurateRip 数据库中有记录 &PAgab2$  
!tNJLOYf  
状态报告结尾
*I(g~p  
T"GuE[?a  
链接:http://pan.baidu.com/s/1bFGaPC 密码: h!*++Y?&0  
此帖售价 10 金钱,已有 6 人购买 [记录] [购买]
购买后,将显示帖子中所有出售内容。
若发现会员采用欺骗的方法获取财富,请立刻举报,我们会对会员处以2-N倍的罚金,严重者封掉ID!
此段为出售的内容,购买后显示

发帖
2658
金钱
28594
威望
617
贡献值
34
交易币
299
只看该作者 1楼 发表于: 2016-08-19
感谢分享

离线小李

发帖
218
金钱
132
威望
98
贡献值
7
交易币
186
只看该作者 2楼 发表于: 2016-08-20
谢谢,这些都有了,对比一下.
离线lifan_npl

发帖
2117
金钱
17682
威望
787
贡献值
347
交易币
2470
只看该作者 3楼 发表于: 2016-08-21
谢谢分享 很不错哦 问一下  封面和cd面  你是用扫描仪扫的吗?
我的淘宝:
http://shop63152617.taobao.com  
离线mjghosts

发帖
8247
金钱
210534
威望
9164
贡献值
2715
交易币
4698
只看该作者 4楼 发表于: 2016-08-22
回 lifan_npl 的帖子
lifan_npl:谢谢分享 很不错哦 问一下  封面和cd面  你是用扫描仪扫的吗? (2016-08-21 22:26)  =f7r69I"  
;<wS+4,  
图片来自网络本人无仪器
离线flash

发帖
231
金钱
78
威望
81
贡献值
0
交易币
231
只看该作者 5楼 发表于: 2016-08-31
谢谢分享 很不错哦
离线mjnet

发帖
368
金钱
30511
威望
104
贡献值
54
交易币
545
只看该作者 6楼 发表于: 03-04
這張我也有!!!下來保存!!
离线肯尼

发帖
946
金钱
5833
威望
419
贡献值
222
交易币
1407
只看该作者 7楼 发表于: 09-10
多谢分享
顺势待发张元穹 Kenny Saxton @肯尼 & 齐奕同Michael Qi @迈颤我栗
2014年6月25日 合辑 火热制作中
2014 MJFantastics Music International Ltd.
快速回复
限100 字节
 
上一个 下一个