论坛风格切换切换到宽版
  • 449阅读
  • 9回复

[亲传][Single] 1991 Remember The Time (US - 49K 74201) - WAV整轨 ♬by幽灵 [复制链接]

上一主题 下一主题
离线mjghosts
 

发帖
8258
金钱
212473
威望
9166
贡献值
2715
交易币
4709
只看楼主 倒序阅读 楼主  发表于: 2016-08-19
— 本帖被 mjghosts 执行加亮操作(2016-08-19) —
*91年美国市售单曲,收录9首混音歌曲。5首RTT+4首BOW,弥补了美国BOW单曲中没有推出的混音作品。* Nf>1`eP  
uRQm.8b  
注:独家整理,转载请注明出处!EAC无损整轨(压缩包内含CD图片) G|yX9C]R   
bh?Vufd%)  
解压密码:www.mjsunny.com
N7*JL2Rnq  
]6</{b  
Tracklist N<:5 r  
\w^iSK-  
1 Remember The Time (Silky Soul 7") 4:18 7C ABM  
2 Remember The Time (New Jack Radio Mix) 4:00 =V_} z3b  
3 Remember The Time (12" Main Mix) 4:37 ?b:J6(-  
4 Remember The Time (E-Smoove's Late Nite Mix) 7:14 bP6QF1L  
5 Remember The Time (Maurice's Underground) 7:29 Wk'KN o  
6 Black Or White (Clivillés & Cole Radio Mix) 3:33 d37l/I  
7 Black Or White (House With Guitar Radio Mix) 3:53 w]UYD;f  
8 Black Or White (Clivillés & Cole House/Club Mix) 7:33 b'O>&V`  
9 Black Or White (The Underground Club Mix) 7:30 wQ*vcbQX*  
q+3Z3v  
q0.+F4  
Bra>C  
26yv w  
8uM>UpX  
U GQ{QH  
Exact Audio Copy V1.0 beta 6 from 9. April 2015 IwKhun  
n %"q>  
EAC 抓取日志文件从16. 八月 2016, 0:07 2#kR1rJP  
Lz2wOB1Zc+  
Michael Jackson / Remember The Time cZ k? o  
>E|@3g +2  
使用驱动器  :MATSHITADVD-RAM UJ890AS   Adapter: 1  ID: 1 }tF/ca:XPQ  
*&q\)\(3w  
读取模式      : 可靠Secure .9 mwRYgD  
使用精确流     : 是 !jN}n)FSq  
清空音频缓存    : 否 _7'9omq@  
使用 C2 指示器 : 是 u=z$**M^  
9 [v=`  
读取偏移校正:               : 102 K#rfQ0QK/!  
读取 Lead-In 和 Lead-Out : 否 k"&l o h  
用静音填充抓取中丢失偏移的采样       : 是 (4cWq!ax<$  
去除首尾静音块               : 否 {e\Pd!D?|  
在CRC 计算中使用了空样本       : 是 ZQXv-"  
已用接口                  : Win NT 及 2000 本地 Win32 接口 Z"#eN(v.N  
5Ds/^fA  
所用输出模式: : 内部 WAV 函数 |x@)%QeC  
样本格式    : 44.100 Hz; 16 Bit; 立体声 :Rv ?>I j  
nw swy]e8/  
rCfr&>nn  
已抓取 CD 的 TOC $2B _a  
0 zm)MSg  
     音轨 |    起始    |    长度    |  起始扇区  |  结束扇区   y_EkW f  
    -------------------------------------------- L08>9tf`  
      1 |  0:00.00 |  4:21.57 |      0 |  19631 XndGe=O  
      2 |  4:21.57 |  4:00.50 |  19632 |  37681 b~DtaGh  
      3 |  8:22.32 |  4:48.23 |  37682 |  59304 vvA=:J4/i)  
      4 | 13:10.55 |  7:20.45 |  59305 |  92349 [-o`^;  
      5 | 20:31.25 |  7:30.32 |  92350 | 126131 J)1:jieQ  
      6 | 28:01.57 |  3:35.23 | 126132 | 142279 kk]f*[Zi5  
      7 | 31:37.05 |  3:51.25 | 142280 | 159629 n\d`Fk  
      8 | 35:28.30 |  7:34.50 | 159630 | 193729 \b {Aj,6,  
      9 | 43:03.05 |  7:28.30 | 193730 | 227359 %Q]u_0P*  
5dffF e  
2p\CCzw  
范围状态及错误 IV{,'+hT  
Zgp]s+%E  
已选择范围 ~;St,Fw<<  
4R!A.N9  
     文件名 J:\12 Music*音乐\CDImage.wav R'a%_sACj>  
#.O,JG#H  
     峰值电平 100.0 % ]2G5ng' @  
     抓取速度 6.4 X r}) 2-3ZA9  
     范围质量 99.9 % M9Gs^  
     复制 CRC 35BDC16F eydVWVN  
     复制成功 -oq!zi4:  
&_FNDJ>MCk  
没有错误发生 ZWMX!>o<  
O;M_?^'W  
hTI8hh  
AccurateRip 摘要 Wm:3_C +j  
;a!o$y  
音轨  1  在数据库中不存在 K-wjQ|*1  
音轨  2  在数据库中不存在 !mBsDn(J  
音轨  3  在数据库中不存在 j5z, l  
音轨  4  在数据库中不存在 [2w3c4K  
音轨  5  在数据库中不存在 y:4Sw#M%(  
音轨  6  在数据库中不存在 |}Mkn4  
音轨  7  在数据库中不存在 *B}vYX  
音轨  8  在数据库中不存在 %fP^Fh   
音轨  9  在数据库中不存在 3+A 0O%0*  
4NR,"l)  
没有任何音轨在 AccurateRip 数据库中有记录 ]kb%l"&  
@mP@~  
状态报告结尾
WY 2b  
A!^K:S:@  
链接:http://pan.baidu.com/s/1bFGaPC 密码: O.rk!&N  
此帖售价 10 金钱,已有 7 人购买 [记录] [购买]
购买后,将显示帖子中所有出售内容。
若发现会员采用欺骗的方法获取财富,请立刻举报,我们会对会员处以2-N倍的罚金,严重者封掉ID!
此段为出售的内容,购买后显示

发帖
2708
金钱
28329
威望
619
贡献值
36
交易币
357
只看该作者 1楼 发表于: 2016-08-19
感谢分享

离线小李

发帖
225
金钱
150
威望
99
贡献值
8
交易币
197
只看该作者 2楼 发表于: 2016-08-20
谢谢,这些都有了,对比一下.
离线lifan_npl

发帖
2156
金钱
17106
威望
782
贡献值
347
交易币
2509
只看该作者 3楼 发表于: 2016-08-21
谢谢分享 很不错哦 问一下  封面和cd面  你是用扫描仪扫的吗?
我的淘宝:
http://shop63152617.taobao.com  
离线mjghosts

发帖
8258
金钱
212473
威望
9166
贡献值
2715
交易币
4709
只看该作者 4楼 发表于: 2016-08-22
回 lifan_npl 的帖子
lifan_npl:谢谢分享 很不错哦 问一下  封面和cd面  你是用扫描仪扫的吗? (2016-08-21 22:26)  B>0]. CK`  
?'KL11@R  
图片来自网络本人无仪器
离线flash

发帖
231
金钱
78
威望
81
贡献值
0
交易币
231
只看该作者 5楼 发表于: 2016-08-31
谢谢分享 很不错哦
离线mjnet

发帖
375
金钱
30482
威望
104
贡献值
54
交易币
552
只看该作者 6楼 发表于: 03-04
這張我也有!!!下來保存!!
离线肯尼

发帖
953
金钱
6774
威望
431
贡献值
228
交易币
1438
只看该作者 7楼 发表于: 09-10
多谢分享
顺势待发张元穹 Kenny Saxton @肯尼 & 齐奕同Michael Qi @迈颤我栗
2014年6月25日 合辑 火热制作中
2014 MJFantastics Music International Ltd.
离线zjxgjp

发帖
36
金钱
1
威望
1
贡献值
0
交易币
37
只看该作者 8楼 发表于: 10-03
よし不错的版本
离线mjlove98

发帖
2130
金钱
5008
威望
209
贡献值
62
交易币
1907
只看该作者 9楼 发表于: 10-03
Re:[Single] 1991 Remember The Time (US - 49K 74201) - WAV整轨 ?by幽灵
感谢分享
快速回复
限100 字节
 
上一个 下一个